
//----- song ID: votc -----//
#TITLE:Victory of the Century;
#ARTIST:BEMANI Sound Team "TAG";
#GENRE:けものフレンズ×NonStopDance -フレンズの歌の音楽-;
#MUSIC:Victory of the Century.ogg;
#BANNER:Victory of the Century.png;
#BACKGROUND:Victory of the Century-bg.png;
#CDTITLE:./CDTitles/NSD A3.png;
#SAMPLESTART:67.166;
#SAMPLELENGTH:15.000;
#SELECTABLE:YES;
#OFFSET:0.000;
#BPMS:0.000=180.000
,48.000=360.000
,54.000=90.000
,58.000=180.000
,154.000=90.000
,170.000=45.000
,172.000=90.000
,176.000=180.000
;
#STOPS:48.000=0.333;
#DISPLAYBPM:98.000:180.000;
#BGCHANGES:;
#FGCHANGES:;

//--------------- dance-single - ----------------
#NOTES:
     dance-single:
     :
     Beginner:
     4:
     0,0,0,0,0:
0000
0000
0000
0000
,
0000
0000
0000
0000
,
0000
0000
0000
0000
,
0000
0000
0000
0000
,
0000
0000
0000
0000
,
0001
0000
0000
0010
0000
0000
0200
0000
,
0000
0000
0000
0300
,
1000
0000
0000
0001
0000
0000
2002
0000
,
0000
0000
0000
3003
,
0010
1000
0001
0100
,
0010
1000
0001
0100
,
1000
0100
0010
0001
,
1001
0000
0000
0000
,
0000
0000
0001
0010
,
0100
1000
0100
0010
,
1000
0001
0010
0100
,
0010
0000
1000
0001
,
0100
0010
1000
0001
,
0010
0000
0100
0010
,
1000
0001
0010
0100
,
0010
0000
0010
0001
,
0010
0100
1000
0000
,
0001
0000
1001
0100
,
0010
0000
1000
0000
,
0001
0010
0100
1000
,
0001
0000
0100
0000
,
0010
0001
0100
0000
,
1000
0000
0001
0000
,
0100
0010
1000
0000
,
0001
0000
0100
0010
,
0001
0000
0000
0000
1000
0000
0000
0001
,
0000
2002
0000
0000
,
0000
0000
3003
0000
0010
0000
0000
0010
,
0000
2002
0000
0000
,
0000
0000
3003
0000
0010
0000
0000
1000
,
0000
0220
0000
0000
,
0000
0000
0330
0000
0001
0000
0000
0010
,
0000
2002
0000
0000
,
0000
0000
3003
0000
0010
0100
1000
0000
,
0001
1000
0001
0000
0100
0000
0010
0000
,
0100
0010
1000
0000
0001
0000
0100
0000
,
0010
1000
0001
0010
,
0100
0000
1000
0000
0002
1000
1000
1000
,
1000
1000
1000
1000
1003
0000
0000
0000
,
1001
0100
0010
1000
,
0001
0100
0010
1000
,
0001
0100
0010
1000
,
0001
0000
0100
0001
,
0010
0100
1000
0001
,
0010
0100
1000
0010
,
1000
0001
0100
0010
,
0100
1000
0001
0000
,
1001
0100
0010
0100
,
1000
0001
0100
0010
,
0100
1000
0001
0100
,
0010
0100
1000
0001
,
0010
0000
0100
0000
,
0010
0000
0001
0010
,
0100
1000
0001
0100
,
0010
0000
0000
0000
,
1000
0001
0100
0010
,
0100
0001
0100
0010
,
1000
0001
0100
0010
,
0100
1000
0001
0100
,
0010
1000
0001
0100
,
0010
1000
0001
0010
,
0100
0000
1000
0000
,
0001
0000
0100
0000
,
1001
0100
0010
1000
,
0001
0010
0100
0000
,
0001
1000
0010
0100
,
0001
0010
0100
0000
,
1000
0001
0100
0010
,
1000
0001
0100
0000
,
0010
0000
1000
0000
,
0001
0000
0100
1000
,
0002
0000
0000
0003
,
2000
0000
0000
3000
,
0001
0000
0000
1000
0000
0000
0100
1000
,
0000
0001
0010
0000
1001
0000
0000
0000
;

//--------------- dance-single - ----------------
#NOTES:
     dance-single:
     :
     Easy:
     9:
     0,0,0,0,0:
0000
0000
0000
0000
,
0000
0000
0000
0000
,
0000
0000
0000
0000
,
0000
0000
0000
0000
,
0000
0000
0000
0000
,
0101
0000
0000
1010
0000
0000
0220
0000
,
0000
0000
0000
0330
,
1001
0000
0000
0110
0000
0000
2002
0000
,
0000
0000
3003
0000
,
0001
0010
0100
0000
1000
0001
0010
0000
,
0100
1000
0001
0000
0010
1000
0100
0000
,
1000
0100
0010
0001
,
1001
0000
0000
0000
,
0000
0000
0001
0010
,
0100
1000
0001
0010
,
0100
0000
1000
0001
0000
0010
0000
0100
,
1000
0001
0010
0100
,
0001
0010
0000
0100
0000
0001
0000
0010
,
0100
0000
1000
0000
0001
0010
0000
0100
,
0000
0010
0100
0000
1000
0001
0000
0100
,
0000
0100
0000
1000
0001
0010
0000
0100
,
0000
0010
1000
0001
0010
0000
0100
0000
,
1000
0000
0001
0000
0010
0000
0100
1000
,
0001
0000
0010
0100
1000
0000
0001
0000
,
0010
0000
0100
0000
0010
0000
1000
0001
,
0010
0000
0100
0010
1000
0000
0001
0000
,
0010
0000
0100
0000
0010
1000
0001
0000
,
0010
0000
0100
0010
1000
0000
0001
0010
,
0100
0000
0001
0000
0010
0000
0100
0001
,
1000
0001
0100
0010
,
1001
0000
0000
0000
0010
0000
0000
0100
,
0000
0000
0000
0000
0010
0000
0000
0000
0001
0000
1000
0000
0000
0100
0000
0000
,
0001
0000
0000
0010
0000
0000
0100
0000
1000
0000
0000
0000
0000
0000
0001
0000
,
0000
0000
0000
0000
0100
0000
0000
0000
1000
0000
0001
0000
0000
0100
0000
0000
,
0010
0000
0000
0100
0000
0000
1000
0000
0001
0000
0000
0000
0000
0000
0010
0000
,
0000
0000
0000
0000
0101
0000
0000
0000
1000
0000
0001
0000
0000
0010
0000
0000
,
0100
0000
0000
1000
0000
0000
0001
0000
0010
0000
0000
0000
0100
0000
0010
0000
,
0000
0100
2002
0000
0000
0000
0000
0000
,
0000
0000
3003
0000
0010
0100
1000
0000
,
0001
0000
0010
0001
0100
0000
1000
0000
0001
0000
0000
0100
1000
0000
0001
0000
,
0100
0000
0010
0100
1000
0000
0001
0000
0010
0000
0000
0100
0001
0000
1000
0000
,
0001
0000
0100
0010
0100
0000
0000
0000
0100
0000
1000
0001
0010
0000
0100
0000
,
0010
0000
1000
0001
0010
0000
0100
0000
1001
0000
0100
0000
0010
0000
0100
0000
,
0001
0100
0010
0100
1001
0000
0000
0000
,
0001
0000
0100
0000
1000
0100
0010
0000
,
0001
0000
0010
0000
1000
0010
0100
0000
,
0010
0000
0100
0000
0001
0010
0100
0000
,
0010
1000
0001
0000
,
0100
0000
0001
0000
1000
0001
0010
0000
,
0100
0000
1000
0000
0001
0010
0100
0000
,
0001
0000
0110
0000
1000
0010
0100
0000
,
0101
0010
1010
0000
,
1001
0000
0100
0010
0001
0010
0100
0000
,
1000
0000
0010
0100
0001
0100
0010
0000
,
0100
0000
0001
0100
0010
0100
0001
0000
,
0100
0010
0100
0000
0110
0000
0000
0000
,
1001
0000
0001
0010
0100
1000
0010
0000
,
1001
0000
1000
0010
0100
0001
0010
0000
,
0110
0010
1001
0010
,
0101
0000
1100
0000
0001
0010
1000
0010
,
1000
0000
0010
0000
0001
0010
0100
0000
,
1000
0000
0100
0000
0001
0100
0010
0000
,
0100
0000
0010
0000
1000
0100
0010
0000
,
0100
0001
1000
0000
,
0010
0000
1000
0000
0001
1000
0100
0000
,
0010
0000
0001
0000
1000
0100
0010
0000
,
1000
0000
0110
0000
0001
0100
0010
0000
,
1010
0100
0101
0000
,
1001
0000
0010
0100
1000
0100
0010
0000
,
0001
0000
0100
0010
1000
0010
0100
0000
,
0010
0000
1000
0010
0100
0010
1000
0000
,
0010
0100
0010
0000
0110
0000
0000
0000
,
1001
0000
1000
0100
0010
0001
0100
0000
,
1001
0000
0001
0100
0010
1000
0100
0000
,
0110
0100
1001
0100
,
1010
0000
0011
0000
1000
0100
0001
0100
,
0020
0000
1000
0000
,
2000
0000
0000
3030
,
0001
0000
0000
0010
0000
0000
1000
0100
,
0000
0001
1000
0000
1001
0000
0000
0000
;

//--------------- dance-single - ----------------
#NOTES:
     dance-single:
     :
     Medium:
     14:
     0,0,0,0,0:
0000
0000
0000
0000
,
0000
0000
0000
0000
,
0000
0000
0000
0000
,
0000
0000
0000
0000
,
0000
0000
0000
0000
,
1001
0000
0000
0110
0000
0000
0202
0000
,
0000
0000
0000
0303
,
1001
0000
0000
1100
0000
0000
0220
0000
,
0000
0000
0330
0000
0001
1000
0001
1000
,
0001
0010
1000
0000
0001
0010
0100
0000
,
0001
1000
0001
0000
0100
0001
0010
0000
,
1000
0001
0100
0010
1000
0100
0001
0010
,
0110
0010
0100
1000
,
0001
0000
0010
0000
0100
1000
0100
0010
,
1000
0000
0001
0000
0100
0001
0010
0100
1000
0000
0100
0000
0010
0000
0000
0001
,
0000
0000
0010
0000
0100
0000
0010
0000
0001
0000
0100
0000
0010
0000
0000
1000
,
0000
0000
0010
0000
0100
0000
0010
0000
1000
0000
0001
0000
1000
0000
0000
0100
,
0000
0000
0010
0000
0001
0000
0010
0000
0100
0000
1000
0000
0001
0000
0000
0100
,
0000
0000
0010
0000
0100
0000
1000
0000
0100
0000
0010
0000
1000
0000
0000
0001
,
0000
0000
0010
0000
0100
0000
0001
0000
0100
0000
1000
0000
0001
0000
0000
0100
,
0000
0000
0010
0000
0100
0000
0001
0000
1000
0000
0010
0000
0100
0000
0000
1000
,
0000
0000
0100
0000
0001
0000
1000
0000
0010
0000
0100
0000
0010
0000
0000
1000
,
0000
0000
0001
0000
0100
0000
0010
0000
0001
0000
0000
0010
0000
0000
0100
0000
,
0000
1000
0000
0000
0001
0000
0100
0000
1000
0000
0000
0100
0000
0000
0010
0000
,
0000
1000
0000
0000
0001
0000
0100
0000
1000
0000
0000
0100
0000
0000
0010
0000
,
0000
1000
0000
0000
0001
0000
0010
0000
1000
0000
0000
0010
0000
0000
0100
0000
,
0000
1000
0000
0000
0001
0000
0010
0000
2000
0000
0000
3020
0000
0000
0230
0000
,
0000
0302
0000
0000
0103
0000
0010
0000
0200
0000
0000
2300
0000
0000
3020
0000
,
0000
0230
0000
0000
0301
0000
1000
0000
0002
0000
0000
2003
0000
0000
3200
0000
,
0000
0320
0000
0000
0031
0000
0100
0000
0020
0000
0000
1000
0000
0000
0230
0000
,
0000
0001
0000
0000
0310
0000
0000
0000
1001
0000
0000
0000
0000
0000
0110
0000
,
0000
0000
0000
0000
1001
0000
0000
0000
1000
0001
1000
0000
0001
1000
0001
0000
,
1000
0001
1000
0000
0001
1000
0001
0000
0100
0000
0000
0000
0000
0000
0101
0000
,
0000
0000
0000
0000
1010
0000
0000
0000
0010
0001
1000
0000
0001
0010
0000
1000
,
0010
0000
0001
0010
0000
1000
0100
0010
0001
0000
0000
0000
0000
0000
1001
0000
,
0000
0000
0000
0000
0110
0000
0000
0000
0001
0010
0001
0000
0100
1000
0100
0000
,
0010
0001
0010
0000
1000
0100
1000
0000
0001
0000
0000
0000
0000
0000
0110
0000
,
0000
0000
0000
0000
1001
0000
0000
0000
1000
0001
1000
0000
0010
0100
0010
0000
,
0001
0010
0001
0100
1000
0000
0000
0000
0020
0000
0000
1030
0200
0000
0320
0000
,
0031
0010
0100
1000
0100
0001
0010
0100
2000
0000
0000
3010
0002
0000
0023
0000
,
0130
0001
1000
0010
0100
0001
1000
0010
0002
0000
1003
0100
0010
0000
0100
0000
,
0020
0000
0000
1000
0230
0000
2300
0000
3020
0000
0000
0130
2000
0000
3001
0010
,
0100
1000
0100
0001
0020
0000
0230
0000
0302
0000
1000
0000
1000
0000
1000
0000
,
0013
0100
0010
0100
2002
0000
3003
0000
,
1000
0000
0100
0000
0010
0001
0100
0001
,
0010
0100
1000
0100
,
0100
0000
0001
0000
0100
0010
1000
0010
,
0100
0010
1000
0100
,
0001
0001
0000
0000
1000
1000
0000
0000
,
1010
0010
0000
0000
0101
0100
0000
0000
,
1000
0010
1000
0000
0001
0100
0001
0000
,
1000
0010
0000
1010
0000
0100
0001
0010
,
0001
0000
0010
0000
0100
1000
0010
1000
,
0100
0010
0001
0010
,
0010
0000
1000
0000
0010
0100
0001
0100
,
0010
0100
0001
0010
,
1000
1000
0000
0000
0001
0001
0000
0000
,
0101
0100
0000
0000
1010
0010
0000
0000
,
0001
0100
0001
0000
1000
0010
1000
0000
,
0001
0100
0000
0101
0000
0010
1000
0100
,
0001
0000
0010
0000
0100
0000
0000
1000
0000
0000
0100
0000
0010
0000
0100
0000
,
1000
0000
0010
0000
0100
0000
0000
0001
0000
0000
0100
0000
0010
0000
0100
0000
,
0001
0000
1000
0000
0001
0000
0000
0010
0000
0000
0100
0000
1000
0000
0100
0000
,
0010
0000
0001
0000
1000
0000
0000
0010
0000
0000
0100
0000
0010
0000
0001
0000
,
0010
0000
0100
0000
0001
0000
0000
1000
0000
0000
0100
0000
0010
0000
1000
0000
,
0010
0000
0001
0000
1000
0000
0000
0010
0000
0000
0100
0000
0010
0000
1000
0000
,
0001
0000
0100
0000
0010
0000
0000
0001
0000
0000
0010
0000
1000
0000
0001
0000
,
0100
0000
0010
0000
0100
0000
0000
0001
0000
0000
1000
0000
0010
0000
0100
0000
,
1000
0000
0100
0000
0010
0000
0000
0001
0000
0000
0010
0000
0100
0000
0010
0000
,
0001
0000
0100
0000
0010
0000
0000
1000
0000
0000
0010
0000
0100
0000
0010
0000
,
1000
0000
0001
0000
1000
0000
0000
0100
0000
0000
0010
0000
0001
0000
0010
0000
,
0100
0000
1000
0000
0001
0000
0000
0100
0000
0000
0010
0000
0100
0000
1000
0000
,
0100
0000
0010
0000
1000
0000
0000
0001
0000
0000
0010
0000
0100
0000
0001
0000
,
0100
0000
1000
0000
0001
0000
0000
0100
0000
0000
0010
0000
0100
0000
0001
0000
,
1000
0000
0010
0000
0100
0000
0000
1000
0000
0000
0100
0000
0001
0000
1000
0000
,
0010
0000
0100
0000
0010
0000
0000
1000
0000
0000
0001
0000
0100
0000
0010
0000
,
1000
0100
0010
1000
,
0001
0100
0010
1000
0001
0010
0100
1000
,
0101
0000
0000
0101
0000
0000
1001
1001
,
0000
0101
0101
0000
2002
0000
0000
0000
,
3003
0000
0000
0000
;

//--------------- dance-single - ----------------
#NOTES:
     dance-single:
     :
     Hard:
     16:
     0,0,0,0,0:
0000
0000
0000
0000
,
0000
0000
0000
0000
,
0000
0000
0000
0000
,
0000
0000
0000
0000
,
0000
0000
0000
0000
,
0101
0000
0000
1010
0000
0000
0220
0000
,
0000
0000
0000
0330
,
0101
0000
0000
1010
0000
0000
0220
0000
,
0000
0000
0000
0000
0330
0000
0000
0000
0001
1000
0001
1000
0001
1000
0001
1000
,
0100
1000
0010
0100
0010
0100
0001
0100
,
0001
0010
0001
0010
0100
0010
0001
0100
,
0001
0010
1000
0000
0100
0001
0010
0000
0001
1000
0010
0000
0100
0001
1000
0000
,
0110
0000
0100
0001
1000
0001
0010
1000
,
0100
0000
0000
0000
0010
0000
0000
0000
0001
0000
0000
0000
1000
0000
0000
0000
0100
0010
0000
0001
1000
0000
0001
0100
0000
0010
0100
0000
1000
0000
0001
0000
,
0010
0100
0000
0001
1000
0000
0010
0100
1000
0001
1000
0001
1000
0001
1000
0001
0001
0000
0010
0000
0000
0000
1000
0000
0001
0000
0000
0000
0010
0000
1000
0000
,
0000
0001
0010
0000
0100
0000
0010
0000
1000
0100
0000
0001
1000
0000
0100
0001
,
0000
1000
0100
0000
0010
0000
0100
0000
0001
0010
0000
1000
0001
0000
0010
1000
,
0000
0001
0010
0000
0100
0000
0010
0000
1000
0100
0000
0001
1000
0000
0100
0001
,
0000
1000
0100
0000
0010
0000
0100
0000
0001
0010
0000
1000
0001
0000
0010
1000
,
0000
0001
0010
0000
0100
0000
0010
0000
1000
0100
0000
0001
1000
0000
0100
0001
,
0000
1000
0100
0000
0010
0000
0100
0000
0001
0010
0000
1000
0001
0000
0010
1000
,
0000
0001
0010
0000
0100
0000
0010
0000
1000
0100
0000
0001
1000
0000
0100
0001
,
2000
0000
0000
0000
0010
0000
0000
0000
3001
0000
1000
0000
0100
0001
0010
1000
,
0100
0000
0010
0000
0001
0010
1000
0100
0010
0000
0100
0000
0010
0001
0100
1000
,
0001
0000
0010
0000
0100
0000
0010
0000
0001
0000
0010
0000
0001
0010
1000
0100
,
0010
0000
0100
0000
0010
0001
1000
0100
0010
0000
1000
0000
0001
0100
0010
1000
,
0001
0010
0100
1000
0010
0000
1000
0000
0100
0000
1000
0000
0100
0001
1000
0100
,
0010
0000
0100
0000
0010
0001
1000
0100
0001
0000
0010
0000
0100
0001
1000
0010
,
0100
1000
0010
0100
0001
0000
0100
0000
0010
0000
0100
1000
0010
0000
0100
0010
,
0001
0000
0010
0000
0100
0001
1000
0000
0010
1000
0100
0000
0001
0000
0010
0000
,
0100
0010
0100
1000
0100
1000
0001
0010
,
0100
0000
1000
0000
0010
0000
0100
0000
0010
0001
0100
0000
0001
0100
1000
0000
,
0010
0001
1000
0000
0010
0100
1000
0000
0001
0000
0010
0000
0001
0000
0010
0000
,
0100
0000
0010
0000
0001
0000
1000
0000
0100
1000
0001
0000
1000
0100
0000
0001
,
0100
0000
1000
0100
0000
0001
0010
0100
1000
0000
0001
0000
0010
0000
1000
0000
,
0100
0000
0010
0000
0100
0000
0010
0000
0001
0100
1000
0000
0100
0001
1000
0000
,
0100
0010
1000
0000
0001
1000
0100
0000
0001
0000
0100
0000
0010
0000
1000
0000
,
0100
0000
1000
0000
0010
0000
0100
0000
0001
0010
1000
0000
0001
1000
0010
0000
,
0001
0100
1000
0001
0010
1000
0100
0001
0020
0000
0000
1030
0200
0000
0320
0000
,
0031
0000
0010
0000
0100
0000
1000
0000
0100
0000
0001
1000
0010
0001
0100
0010
2000
0000
0000
0000
0000
0000
3010
0000
0002
0000
0000
0000
0023
0000
0000
0000
,
0130
0000
0001
0000
1000
0000
0010
0000
0100
0000
0001
0000
1000
0100
0010
1000
0002
0000
0000
0000
1003
0000
0100
0000
0010
0000
0000
0000
0100
0000
0000
0000
,
0020
0000
0000
1000
0230
0000
2300
0000
3020
0000
0000
0130
2000
0000
3001
0010
,
0100
1000
0100
0001
0020
0000
0230
0000
0302
0000
1000
0000
1000
0000
1000
0000
,
0013
0100
0010
0100
2020
0000
3030
0000
,
1001
1000
0010
1000
0100
1000
0100
0010
,
0001
1000
0010
1000
0010
1000
0100
0010
,
0001
0100
0010
1000
0001
1000
0100
1000
,
0010
0100
0001
0010
0001
0010
0100
0010
,
0100
1000
0010
1000
0001
1000
0100
0010
,
0100
0000
1000
0000
0010
0000
1000
0000
0010
0000
1000
0000
0100
0000
0010
1000
,
0002
0010
0000
0010
0100
1000
0010
1000
,
0013
0000
0001
1000
0100
0010
0001
0100
,
1001
0100
0001
0010
0001
0100
0001
1000
,
0100
0010
0100
0010
0100
1000
0001
0010
,
0001
0100
0001
1000
0100
1000
0001
0010
,
0100
1000
0100
1000
0010
0100
0010
0100
,
0010
1000
0100
1000
0001
0100
0001
0100
,
0010
0100
0010
1000
0100
0010
0100
1000
,
0010
1000
0100
1000
0001
1000
0010
0100
0001
0010
0001
0010
0100
0010
0100
1000
,
0200
0000
0000
0310
,
0100
0000
1000
0010
0100
0001
0000
0101
0000
1000
0100
0010
0001
0000
0100
0000
,
0010
0000
1000
0001
0010
0100
0000
0110
0000
0001
0000
1000
0100
1000
0001
0100
,
0010
0000
1000
0100
1000
0010
0000
0101
0000
0001
1000
0100
0010
0000
0001
0000
,
1000
0000
0001
0010
0100
0010
0000
0110
0000
0001
0000
1000
0010
0000
0100
0000
,
0010
0000
1000
0010
0100
0001
0000
1001
0000
0100
0010
0001
1000
0000
0001
0000
,
0010
0000
0001
0010
0100
1000
0000
0101
0000
0010
0000
1000
0100
0010
0001
1000
,
0010
0000
0100
0001
1000
0010
0000
1100
0000
0010
0001
1000
0001
0000
0010
0000
,
0011
0000
0000
1001
0000
0000
1100
0000
1010
0000
0000
1001
0000
0000
0101
0000
,
1001
0000
0001
0100
0010
0100
0001
0100
0010
0100
0000
0010
1000
0000
0100
0000
,
1100
0000
1000
0100
0010
0100
1000
0100
0010
0100
0000
1000
0001
0010
0001
1000
,
0010
0000
0100
0010
1000
0001
0100
0001
1000
0001
0000
0100
0010
0000
1000
0000
,
1001
0000
0100
0001
1000
0100
0010
0001
0100
0010
0000
1000
0100
0000
0010
0000
,
1001
0000
0001
0100
0000
1100
0000
0101
0000
0011
0000
0010
1000
0000
0100
1000
,
0100
0000
1000
0100
0000
0101
0000
0110
0000
1001
0000
0001
0010
0001
1000
0100
,
1000
0000
0010
0100
0000
0010
0100
0001
0010
0000
0100
0010
0000
0100
1000
0010
,
0100
0001
0010
0100
1000
0010
0100
0001
0010
0100
1000
0100
0010
0001
1000
0001
,
0010
0000
0100
0000
0010
0000
0100
0000
0010
0100
1000
0010
0001
0010
0100
1000
,
0001
0000
1000
0000
0100
0000
1000
0000
0001
0010
1000
0001
0100
1000
0010
0100
,
0002
0000
0000
0000
0003
0000
2002
0000
0000
0000
3003
0000
2002
3003
0220
0000
,
0330
0000
2002
3003
0022
0000
0033
0000
2002
0000
0000
0000
0000
0000
0000
0000
,
3003
0000
0000
0000
;
