
//----- song ID: veki -----//
#TITLE:Verstärkt Killer;
#ARTIST:MALVA.;
#GENRE:Boo! Trick or Treat!;
#MUSIC:Verstarkt Killer.ogg;
#BANNER:Verstarkt Killer.png;
#BACKGROUND:Verstarkt Killer-bg.png;
#CDTITLE:./CDTitles/SDVX EXCEED GEAR.png;
#SAMPLESTART:29.004;
#SAMPLELENGTH:15.000;
#SELECTABLE:YES;
#OFFSET:0.000;
#BPMS:0.000=182.000
,184.000=91.000
,208.000=182.000
;
#STOPS:;
#BGCHANGES:;
#FGCHANGES:;

//--------------- dance-single - ----------------
#NOTES:
     dance-single:
     :
     Beginner:
     5:
     0,0,0,0,0:
0000
0000
0000
0000
,
0000
0000
0000
0000
,
0000
0000
0000
0000
,
0000
0000
0000
0000
,
0000
0000
0000
0000
,
0000
0000
0000
0000
,
1000
0000
0000
0000
,
0001
0000
0000
0000
,
0100
0000
0010
0000
,
1000
0001
0100
0000
,
1000
0000
0001
0000
,
0100
0010
1000
0000
,
0001
0000
0010
0000
,
0100
0000
1000
0000
,
0001
0000
1000
0000
,
0001
0010
0100
0000
,
1000
0000
0001
0000
,
0100
0010
1000
0000
,
0001
0000
0100
0000
,
0010
0000
0100
0000
,
0010
0001
0010
0000
,
2000
0000
3001
0000
,
1000
0000
0001
0000
,
0010
0000
0100
0000
,
0010
0000
0100
0000
,
1000
0001
0100
0000
,
0010
0000
0100
0000
,
0010
0000
0001
0000
,
1000
0001
0100
0000
,
0010
0000
0000
0000
,
1000
0000
0000
0000
,
0001
0000
0100
0000
,
0010
0000
0000
0000
,
1000
0000
0001
0000
,
0100
0000
0000
0000
,
0010
0000
0100
0000
,
1000
0000
0000
0000
,
0001
0000
0010
0100
,
1000
0000
0001
0000
,
0010
0000
0100
0000
,
1000
0000
0001
0000
,
0010
0000
0000
0000
,
0100
0000
0010
0000
,
1000
0000
0001
0000
,
0020
0000
0000
0000
,
0230
0000
0000
0000
,
1300
0010
1000
0000
,
0001
0100
0010
0000
,
0001
1000
0010
0000
,
0100
0000
1000
0000
,
0001
0000
0010
0100
,
1000
0001
0000
0000
,
1001
0000
0100
0000
,
0010
1000
0001
0000
,
0100
0000
0010
0000
,
0100
0000
0010
0000
,
1000
0000
0001
0000
,
0010
0100
1000
0000
,
0001
0000
1000
0000
,
0001
0100
0010
0000
,
0100
0000
0010
0000
,
1000
0000
0001
0000
,
0100
0000
0000
0000
,
0010
0000
0000
0000
,
1000
0000
0001
0000
,
0100
0000
0000
0000
,
0010
0000
0100
0000
,
0001
0000
0000
0000
,
0100
0000
1000
0000
,
0010
0000
0001
0000
,
0010
0000
0000
0000
,
1000
0000
0000
0000
,
0001
0000
0010
0000
,
0100
0000
1000
0000
,
0001
0000
0010
0000
,
0100
0000
0010
0000
,
0001
0000
0000
1000
,
0000
0000
0001
0000
,
0000
0010
0000
0000
,
0100
0000
1000
0000
,
0001
0000
0010
0000
,
1000
0001
0100
0010
,
1001
0000
0000
0000
;

//--------------- dance-single - ----------------
#NOTES:
     dance-single:
     :
     Easy:
     9:
     0,0,0,0,0:
0000
0000
0000
0000
,
0000
0000
0000
0000
,
0000
0000
0000
0000
,
0000
0000
0000
0000
,
0000
0000
0000
0000
,
0000
0000
0000
0000
,
1000
0100
0001
0000
,
0001
1000
0100
0000
,
0010
0100
1000
0000
,
0001
0000
1000
0010
0001
0000
0000
0000
,
1001
0000
0100
0001
0010
0000
1000
0000
,
0001
0010
0100
0000
,
0001
0000
0010
0001
0100
0000
0001
0000
,
1000
0001
0100
0000
,
0001
0000
1000
0010
0100
0000
0010
0000
,
1000
0001
0010
0000
,
0100
0000
0001
0010
1000
0000
0001
0000
,
0100
0010
0110
0000
,
1000
0010
0001
0000
,
0100
0001
0010
0000
,
1000
0001
0100
0010
,
1000
0000
0001
0000
0010
1000
0001
0000
,
1001
0000
0000
0000
0100
0010
0001
0000
,
0010
0000
0000
0000
1000
0010
0001
0000
,
0100
0001
0000
0010
1000
0000
0100
0000
,
2000
0000
3001
0100
,
0010
0000
1000
0000
0001
0010
0100
0000
,
0010
1000
0001
1000
,
0100
0001
0010
0100
,
1000
0010
0001
0100
,
1000
0000
0001
0010
,
0100
1000
0001
0000
,
0010
0100
0001
0100
,
2000
0000
3001
0000
,
1000
0001
0100
0010
,
1000
0000
0001
0100
,
0010
0000
0001
0010
,
0100
0000
0000
0000
1000
0000
0001
0100
,
0001
0000
0000
1000
0001
0000
0100
0000
,
0010
0000
0000
0100
1000
0000
0001
0000
,
0100
0000
0000
0010
1000
0000
0001
0000
,
0100
0000
0000
0010
0001
0000
0010
0000
,
1000
0000
0000
0001
0010
0000
0100
0000
,
1000
0000
0000
0001
0010
0000
0100
0000
,
1000
0000
1001
0000
,
0001
0010
0100
1000
,
1001
0000
0010
0000
0100
1000
1001
0000
,
0010
0000
0100
0001
1000
0000
1001
0000
,
0100
0010
0100
1000
,
0001
1000
0001
0000
0100
0000
0010
0000
,
0100
1000
0001
0000
0100
1000
0001
0000
,
0100
0000
0020
0000
0000
0030
0000
0000
,
1001
0100
0010
1000
,
0001
0010
0100
0000
0001
0000
1000
0000
,
0001
0100
0010
0100
,
0010
1000
0001
0000
0010
0000
1000
0000
,
0001
0100
0010
0000
0100
0000
1000
0000
,
0010
0001
0010
0100
1000
0000
0001
0000
,
0100
1000
0001
0010
,
0100
1000
0001
0010
0100
0000
1000
0000
,
0001
0010
0100
1000
,
0001
0010
0100
0000
1000
0000
0001
0000
,
0010
0100
1000
0000
0001
0000
0010
0000
,
0100
0000
1000
0001
,
0110
0000
1000
0001
,
0100
0000
0010
0100
,
1000
0000
0010
0100
,
1000
0000
0001
0000
,
0100
0010
1000
0000
,
0001
0000
0100
0010
,
1000
0001
0010
0100
,
1000
0010
0001
1000
,
0010
0000
0000
0100
0001
0000
0010
0000
,
1000
0000
0001
0000
0000
0100
1000
0000
,
0010
0000
0000
1000
0100
0000
0001
0000
,
0010
0100
1000
0001
,
0220
0000
0330
2000
,
0000
3000
0002
0000
,
0003
0200
0000
0300
,
0010
0100
0010
0001
,
1000
0001
0100
0010
,
0100
1000
0001
0100
,
1001
0000
0000
0000
;

//--------------- dance-single - ----------------
#NOTES:
     dance-single:
     :
     Medium:
     11:
     0,0,0,0,0:
0000
0000
0000
0000
,
0000
0000
0000
0000
,
0000
0000
0000
0000
,
0000
0000
0000
0000
,
0000
0000
0000
0000
,
0000
0000
0000
0000
,
0001
0010
1000
0001
,
1000
0001
0010
1000
,
0100
0010
0001
0010
,
1000
0000
0001
0100
2000
0000
3000
0000
,
1001
0000
0010
1000
0100
0000
0001
0000
,
1000
0001
0100
0000
0010
0000
0100
0001
,
1000
0000
0100
1000
0010
0100
1000
0000
,
0001
0000
1000
0100
0010
0000
0001
0010
,
1000
0000
0001
0100
0010
0000
0100
1000
,
0001
0000
1000
0000
0100
0001
1000
0000
,
0010
0000
1000
0100
0001
0000
2000
0000
,
3010
0000
0100
0000
0110
0000
1000
0010
,
0001
0000
0100
0000
1000
0000
0100
0001
,
0010
0000
1000
0000
0100
0001
1000
0000
,
0001
0100
1000
0000
0010
1000
0100
0000
,
0001
0000
1000
0000
0100
0001
1000
0000
,
1002
0000
0103
0000
0010
0100
1000
0001
,
0100
0000
1000
0000
0001
0100
1000
0001
,
0010
1000
0001
0100
0001
0000
0010
1000
,
0002
0000
0000
0000
1003
0000
0010
1000
,
0100
0000
0001
0010
1000
0100
0010
1000
,
0100
0010
0001
0010
1000
0100
0001
1000
,
0020
1030
0200
0310
,
0001
1000
0100
0001
1000
0100
0010
0000
,
0002
0010
1003
0100
,
0010
0000
0001
0100
1000
0000
0001
0000
,
0100
1000
0010
0000
1000
0000
0010
0100
,
0002
0100
1003
0200
,
0301
0000
1000
0000
0010
0001
0100
0000
,
0001
0000
0010
1000
0100
0000
0010
0000
,
0100
0001
0010
0000
1000
0000
0100
0000
,
0010
1000
0010
0000
0001
0000
1000
0010
,
2000
0000
3100
0001
1000
0000
0010
0001
,
0100
1000
0100
0010
0001
1000
0200
0000
,
0310
0000
1000
0100
0001
0100
1000
0000
,
0010
0000
1000
0100
1000
0000
0100
0000
,
0002
0000
0013
1000
0100
1000
0010
0000
,
0001
0000
0010
1000
0100
1000
0010
0000
,
0001
0010
0000
0100
1001
0000
0000
0000
,
1000
0001
0100
1000
0010
0100
0001
0000
,
1001
0010
0100
1000
0010
0001
1000
0010
,
0200
0000
0310
1000
0001
0100
0001
1000
,
0010
0001
0100
1000
0010
0000
0001
1000
,
1000
0000
0001
0000
1000
0000
0100
0000
0010
0001
1000
0010
0100
0000
1000
0000
,
0010
0100
0001
0000
1000
0000
0100
0000
0010
0000
0001
0000
1000
0000
0100
0000
,
0010
0000
0001
1000
0200
0000
0000
0000
0000
0000
0310
0000
0000
0000
0000
0000
,
1001
0000
0010
0000
0100
1000
0001
0000
,
1000
0100
0010
0000
1000
0100
0001
0000
,
1000
0000
0010
0001
0100
0000
0010
0000
,
0100
0001
1000
0000
0100
0010
0001
0000
,
1000
0010
0100
0000
0010
1000
0001
0000
,
0100
1000
0100
0010
0001
0100
1000
0001
,
0010
0000
0001
0000
1000
0000
0100
0001
,
0010
0001
1000
0100
0010
0000
0001
0000
,
1000
0010
0100
1000
0010
0000
0001
0010
,
1000
0100
0010
0000
0001
0100
1000
0001
,
0100
0010
0001
0000
1000
0001
0100
0000
,
0010
1000
0100
0000
0001
0000
1000
0000
,
0110
1000
0001
1000
,
0010
0001
1000
0000
0100
0000
0010
1000
,
0001
0000
0010
0000
0100
0001
0010
0000
,
0001
0000
0100
0001
1000
0000
0100
0001
,
0010
0000
0100
1000
0002
0000
0100
0000
,
1003
0010
0100
0000
0010
0000
0100
0000
,
0001
0000
1000
0001
0100
0000
0010
0000
,
0001
0010
0100
0000
1000
0000
0001
0010
,
0100
0000
1000
0010
1000
0000
0100
0000
,
0001
0000
1000
0100
0000
0010
0001
0000
,
0100
1000
0000
0001
0010
0000
1000
0000
,
0100
0010
0001
1000
,
0220
0000
0330
1002
,
0000
0103
2001
0000
,
3100
0120
0000
1030
,
0100
0010
0100
1000
,
0001
1000
0010
0100
,
0010
0000
0001
0100
1000
0100
0010
0100
,
2002
0000
0000
0000
,
0000
0000
0000
0000
,
3003
0000
0000
0000
;

//--------------- dance-single - ----------------
#NOTES:
     dance-single:
     :
     Hard:
     16:
     0,0,0,0,0:
0000
0000
0000
0000
,
0000
0000
0000
0000
,
0000
0000
0000
0000
,
0000
0000
0000
0000
,
0000
0000
0000
0000
,
0000
0000
0000
0000
,
1000
0000
0100
0010
0001
0100
1000
0010
,
1001
1000
0100
0002
,
0023
0000
0230
0000
2300
0000
3100
0010
,
0001
0000
0100
0000
1000
0100
0010
1000
0002
0000
0000
0000
0003
0000
0000
0000
,
0001
0000
0010
0100
0001
0000
1000
0000
0001
0000
1000
0001
0100
0000
0010
0000
,
0100
0000
0010
1000
0001
0000
1000
0001
0100
0000
1000
0000
0010
0001
1000
0000
,
0010
0000
0100
0000
0010
0000
0100
1000
0001
0000
1000
0000
0001
0000
1000
0100
,
0010
0000
1000
0000
0010
0000
0100
0001
0010
0000
0100
1000
0001
0000
0010
0001
,
0100
0000
1000
0000
0010
0000
1000
0001
0100
0000
1000
0000
0100
0000
0010
0000
,
0001
0000
0100
0000
0001
0000
1000
0100
0001
0000
0010
0000
0100
0000
0010
0000
,
0100
1000
0010
1000
2001
0000
3002
0000
,
0203
0000
0000
0000
0310
0000
0000
0000
0110
0000
0000
0000
0001
0010
0100
0001
,
1000
0100
0010
1000
0001
0100
0010
1000
,
0100
0010
0001
0100
0010
1000
0001
0100
,
1000
0010
0002
0000
0103
0001
0020
0000
,
1030
0100
0001
0100
0010
1000
0001
0010
,
2001
0000
0000
0000
3010
0000
0001
1000
0100
0000
0010
0000
0001
0000
1000
0000
,
0020
0000
0000
0000
0031
0000
0100
0001
1000
0000
0010
0000
0001
0000
1000
0000
,
0020
0000
0000
0000
1030
0000
0010
0001
1000
0000
0010
0000
0100
0000
0001
0000
,
2000
0000
0000
0000
0010
0000
0000
0000
3001
0000
0010
0000
0100
0000
0001
1000
,
0020
0000
1030
0100
0001
0010
0100
0001
,
0010
0100
1000
0100
0001
0010
1000
0001
,
0200
0302
0023
0230
,
1300
0000
0001
0000
0010
0000
1000
0000
0001
0000
0010
0000
0100
0000
0001
0010
,
2000
0000
0000
0000
0010
0000
3200
0000
0301
0000
1000
0000
0010
0000
1000
0010
,
0100
0000
0001
0000
1000
0000
0010
0000
0001
0000
0100
0000
1000
0000
0001
0100
,
0010
0000
0001
0000
0100
0000
0010
0000
0001
0000
1000
0001
0100
0000
0010
0000
,
2000
0100
0010
0000
3001
0000
0020
0000
,
1030
0000
0100
0000
0001
0000
0010
1000
0100
0000
1000
0000
0020
0000
0000
0000
,
2030
0000
0000
0000
3100
0000
0001
0100
0010
0000
0001
0000
0100
0000
0001
0000
,
0010
0000
1000
0001
0100
0000
0010
0000
0001
0000
1000
0100
0020
0000
0000
0000
,
0130
0000
0001
0000
0200
0000
0000
0000
1300
0000
0010
0000
0001
0000
0100
1000
,
0002
0000
0000
0000
0013
0000
1000
0010
0001
0000
0010
0000
0100
0000
1000
0000
,
0010
0001
0010
0100
1000
0001
0020
0000
,
0230
0000
0000
0000
0301
0000
0010
0001
1000
0000
0010
0000
0001
0000
0010
0000
,
0100
0000
1000
0000
0001
0000
0010
0001
0000
0100
1000
0000
0010
0000
0001
0000
,
2000
0000
3100
0001
0010
0001
0100
0010
,
2000
0000
0000
0000
3100
0000
0001
0100
0010
0000
0001
0010
0100
0000
0001
0100
,
1000
0100
0001
0010
1000
0001
0100
0010
,
0001
0100
1000
0000
0010
1000
0001
0000
0100
0001
0010
0000
1000
0100
0010
0000
,
1001
0000
0200
0000
0320
0000
0032
0000
0103
0010
2000
0000
3002
0000
0203
0000
,
0320
0000
0000
0000
0230
0000
0301
0010
2000
0000
3010
0001
1000
0000
0001
1000
,
0100
0000
1000
0000
0010
0000
0001
0000
0200
0000
0000
0000
1300
0000
0001
1000
,
0001
0000
1000
0000
0001
0000
0010
0000
0100
1000
0001
0100
0010
0000
0001
0010
,
0100
0010
1000
0000
0001
0000
0010
1000
0100
0001
1000
0010
0001
1000
0010
0001
,
0100
0010
1000
0001
0020
0000
0000
0000
0000
0000
0230
0000
0000
0000
0310
0000
,
1001
0000
0010
0000
0100
0001
1000
0000
0010
0100
0001
0000
1000
0100
0010
0000
,
0001
0000
0010
0000
0100
0000
1000
0000
0001
0000
0010
0000
1000
0000
0100
0010
,
0001
0000
0010
0000
0100
0000
1000
0100
0010
0000
0001
0000
0100
0000
1000
0000
,
0010
0000
1000
0010
0001
0000
0100
0000
0010
0000
0100
0001
1000
0000
0010
0000
,
0001
0000
0100
1000
0010
0000
0001
0000
0100
0000
0001
0010
1000
0000
0100
1000
,
0010
0000
0001
0000
0010
1000
0100
0000
1000
0100
0010
0000
0001
0000
1000
0000
,
0100
0000
0001
0000
1000
0001
0100
0000
0001
0100
1000
0000
0010
0001
1000
0000
,
0100
0000
1000
0010
0001
0000
0010
0000
0100
0000
0001
0000
1000
0000
0100
0000
,
0001
1000
0100
0000
0010
0000
0001
0000
0100
0000
0010
0000
1000
0000
0100
0010
,
0001
0000
0010
1000
0100
0000
0001
0000
1000
0000
0010
0001
0000
0100
1000
0000
,
0010
0000
0100
0001
0000
1000
0010
0000
0001
0000
1000
0000
0010
0001
0000
1000
,
0100
0001
0010
0100
1000
0010
0001
1000
,
0110
0000
0000
0000
0001
0000
0100
0000
1000
0000
0010
1000
0001
0000
0010
0001
,
0100
0000
1000
0000
0001
0000
1000
0000
0010
0000
0001
0010
0100
0000
0001
0000
,
1000
0000
0010
0000
0100
1000
0000
0001
0010
0000
1000
0000
0100
0000
0001
0000
,
1000
0000
0100
0001
0010
0000
1000
0000
0001
0000
0100
0000
0010
0000
1000
0001
,
0100
0000
1000
0000
0010
0000
0001
0100
2000
0000
0000
0000
0010
0000
0000
0000
,
3001
0100
0010
1000
0100
0001
0010
0100
,
1000
0100
0001
0010
0001
0000
1000
0000
0010
0000
0010
0000
0100
0000
0001
1000
,
0000
0001
0100
0000
0010
0000
1000
0000
0001
0000
0100
0000
1000
0000
0100
0000
,
0010
0100
0000
1000
0001
0000
0100
0000
0001
0000
0100
0000
0010
0000
0001
0000
,
1000
0010
0001
0010
1000
0100
1000
0001
,
0010
0000
0001
0100
0000
0001
1000
0000
0100
0000
0010
0000
0001
0000
1000
0001
,
0010
0001
0100
0001
1000
0010
0001
1000
,
0200
0010
0301
2001
,
0100
3010
1002
0100
,
0013
0210
0010
0301
,
1010
0110
1010
0011
,
1100
0011
1100
1010
,
0101
0000
1000
0010
0001
0010
0100
0010
,
2002
0000
0000
0000
,
0000
0000
0000
0000
,
3003
0000
0000
0000
;
