#TITLE:詩謳兎揺蕩兎;
#ARTIST:立秋 feat.ちょこ;
#TITLETRANSLIT:Utautau Utayutau;
#ARTISTTRANSLIT:Rissyuu feat. Choko;
#GENRE:Rabbits and Bunnygirl's NEW YEAR;
#MUSIC:Utautau Utayutau.ogg;
#BANNER:Utautau Utayutau.png;
#BACKGROUND:Utautau Utayutau-bg.png;
#CDTITLE:./CDTitles/NSD A3.png;
#SAMPLESTART:49.592;
#SAMPLELENGTH:15.000;
#SELECTABLE:YES;
#OFFSET:0.000;
#BPMS:0.000=150.000
,196.000=75.000
,216.000=150.000
;
#STOPS:;
#BGCHANGES:;
#FGCHANGES:;

//--------------- dance-single - ----------------
#NOTES:
     dance-single:
     :
     Beginner:
     5:
     0,0,0,0,0:
0000
0000
0000
0000
,
0000
0000
0000
0000
,
0000
0000
0000
0000
,
0000
0000
0000
0000
,
0001
0000
0001
0000
,
0001
0000
0010
0010
,
0020
0000
0000
0000
,
0030
0000
0000
0000
,
1000
0000
1000
0000
,
1000
0000
0100
0100
,
0200
0000
0000
0300
,
0010
0000
1000
0001
,
2000
0000
0000
0000
,
3010
0000
0010
0000
,
0100
0000
0100
0000
,
1001
0000
0000
0000
,
0001
0000
1000
1000
,
1000
1000
0001
0000
,
0010
0000
2002
3003
,
1000
0000
0010
0000
,
0100
0000
1000
0000
,
0010
0000
1000
0000
,
0001
0001
0001
0000
,
1000
1000
1000
0000
,
0010
0010
0010
0000
,
0100
0100
0100
0000
,
0001
0000
0000
0000
0001
0000
0000
1000
,
1000
0000
0000
1000
0000
0000
0001
0000
,
0000
0001
0000
0000
,
1000
0000
0000
0001
0000
0000
1000
0000
,
0000
0000
0000
0000
,
0010
0000
0100
0000
,
0010
0000
0100
0100
,
0100
0000
0000
0000
,
0010
0000
0000
0000
,
0001
0000
0001
0000
,
0001
0000
1000
1000
,
1000
0000
0000
0000
,
0001
0000
0000
0000
,
0010
0000
0100
0000
,
0010
0000
0100
0000
,
1000
0000
0001
0000
,
0010
0000
0100
0000
,
1000
0000
0001
0000
,
0010
0000
0100
1000
,
0100
0000
0010
0000
,
0001
0000
0010
0100
,
0010
0000
0010
0000
,
0010
0000
0000
0000
,
1000
1000
1000
0000
,
0000
0000
0000
0000
,
0001
0001
0001
0000
,
0000
0000
0000
0000
,
0200
0000
0000
0000
,
0300
0000
0000
0000
,
0000
0000
0000
0000
,
0010
0000
0010
0000
,
0010
0000
0000
0000
,
1001
0000
0100
0000
,
0010
0000
0001
0010
,
0100
0000
1000
0000
,
0001
1000
0001
0100
,
0010
0000
0100
0000
,
1000
0001
0100
0010
,
1001
0000
0100
0000
,
0010
0000
1000
0001
,
0100
0000
0010
0000
,
0100
0000
1000
0001
,
0100
0000
0010
0000
,
0100
0000
1000
0001
,
0100
0000
0010
0000
,
1000
0000
0001
0010
,
1000
0000
1000
0000
,
1000
0000
0001
0000
,
0001
0000
0001
0000
,
0001
1000
0001
1001
;

//--------------- dance-single - ----------------
#NOTES:
     dance-single:
     :
     Easy:
     9:
     0,0,0,0,0:
0000
0000
0000
0000
,
0000
0000
0000
0000
,
0000
0000
0000
0000
,
0000
0000
0000
0000
,
1000
0001
1000
0010
,
1000
0010
1000
1000
,
2000
0000
0000
0000
,
3000
0000
0000
0000
,
0001
0100
0001
1000
,
0001
0100
0001
0001
,
0002
0000
0000
0003
,
0100
0000
0000
0010
0000
0000
0100
0000
,
1000
0000
0000
1000
0000
0000
1000
0000
,
0002
0000
0103
0000
,
0010
1000
0100
0010
,
0200
0000
0301
0000
,
1000
0100
0001
0000
,
0100
0000
0001
0000
,
0010
0001
0100
1000
,
0001
0100
0010
0000
,
0100
0001
0100
0010
,
0100
0000
0001
1000
,
0001
0100
1000
0001
,
0010
0100
0001
0010
,
0100
0001
0010
0100
,
0010
1000
0001
0100
,
1000
0100
0001
1000
,
0001
0010
0100
0001
,
2000
0000
0000
3001
,
1000
0000
0000
0001
0000
0000
1000
0000
,
0000
0001
0000
0000
0010
0000
0000
0000
,
0010
1000
0010
0001
,
0010
1000
0010
0010
,
0010
0001
0100
1000
,
0001
0000
0100
0000
1000
0010
0001
0000
,
0100
0001
0100
1000
,
0100
0001
0100
0100
,
0100
0001
1000
0100
,
0001
0010
1000
0001
,
0100
1000
0010
1000
,
0001
0000
0010
0000
0100
0000
1000
0010
,
0001
0010
1000
0100
,
0001
0000
1000
0000
0010
0000
1000
0100
,
0001
0010
0100
0100
,
0001
0010
1000
0100
,
1000
0001
0100
1000
,
0010
0100
0001
0010
,
0100
0001
1000
0100
,
0001
0000
0000
1000
0000
0000
0001
0000
,
1000
0000
0010
0000
0001
0010
0010
0000
,
0010
0000
0000
0000
0100
0000
1000
0001
,
1000
0000
0010
0000
0001
0000
0100
0010
,
0100
0000
0000
0000
1000
0000
0001
0010
,
0200
0000
0000
0300
,
0100
0000
0000
0000
0000
0000
0100
0000
0000
0000
0000
0000
0100
0000
0000
0200
,
0000
0000
0000
0000
,
0310
0000
0010
0000
,
0010
0000
0000
1000
0000
0000
0001
0000
0000
0100
0000
0000
1000
0000
0000
0000
,
1001
0000
0010
0000
,
0010
0000
0100
0100
,
1000
0000
0001
0000
,
0010
0000
0100
1000
,
0001
0000
0100
0000
,
1000
0000
0001
0010
,
1001
0000
0010
0000
,
0100
0000
1000
0001
,
0100
0000
0010
0000
,
0100
0000
1000
0100
,
0010
0000
0001
0000
,
1000
0000
0001
0010
,
0100
0000
1000
0000
,
0001
0000
0010
0100
,
1000
0000
0001
0000
,
0100
0000
0010
0000
,
1000
0000
0001
0000
,
0100
1000
0001
0110
;

//--------------- dance-single - ----------------
#NOTES:
     dance-single:
     :
     Medium:
     12:
     0,0,0,0,0:
0000
0000
0000
0000
,
0000
0000
0000
0000
,
0000
0000
0000
0000
,
0000
0000
0000
0000
,
0100
0000
1000
0001
0100
0000
0010
1000
,
0001
0000
1000
0100
0001
0000
0010
0000
,
0100
0000
1000
0001
0010
0000
1000
0001
,
0010
0000
1000
0100
0001
0000
0010
1000
,
0100
0000
1000
0001
0100
0000
1000
0001
,
0010
0000
1000
0001
0100
1000
0010
0100
,
0001
0010
0100
1000
,
0110
0000
0000
1000
0000
0000
0001
0000
0100
0000
1000
0000
0010
0000
0100
0000
,
0001
0000
0000
1000
0000
0000
0100
0000
0000
0010
0000
0000
1000
0000
0001
0000
,
0002
0000
1003
0100
,
0010
0000
0001
1000
0100
0000
0010
0000
,
0100
0010
1000
0000
0001
0000
0010
0000
,
1000
0000
0000
0000
0001
1000
0001
0000
,
0200
0000
0310
0000
,
0010
0000
1000
0000
0100
0000
1000
0100
,
0001
0000
0000
0000
0010
0100
0001
0000
,
0100
0001
0100
0010
,
0100
1000
0000
0200
0310
0000
1000
0000
,
0001
0000
1000
0010
0100
0000
0001
0000
,
0010
0000
1000
0001
0100
0000
0010
0000
,
0100
0001
0010
0000
1000
0000
0100
0000
,
0010
0000
0001
1001
0000
0100
1000
0000
,
1000
0010
0001
1000
,
0001
1000
0010
0000
0100
0000
0001
0000
,
2000
0000
0000
3001
,
1000
0000
0000
0001
0000
0000
0100
0000
0000
0010
0000
0000
0100
0000
0000
1000
,
0000
0000
0001
0000
0000
0100
0000
0000
1000
0000
0000
0001
0000
0000
0100
0000
,
0100
0000
0010
1000
0001
0000
0010
0001
,
0100
0000
1000
0001
0010
0000
0100
1000
,
0010
0000
1000
0010
0001
0000
0100
1000
,
0001
0000
0010
0001
0100
0000
0010
0000
,
0001
0000
0100
1000
0010
0000
1000
0001
,
0100
0000
1000
0100
0001
0000
0010
0000
,
0100
1000
0010
0000
0100
0001
1000
0000
,
0001
0100
0010
0000
0100
0001
1000
0001
,
0100
0000
0000
1000
0010
0000
0000
0000
0100
0000
0000
0001
1000
0000
0000
0000
,
0010
0000
0000
1000
0100
0000
0000
0000
0010
0000
0000
0001
1000
0000
0000
0000
,
0001
0000
0000
0010
0100
0000
0000
0000
0010
0000
0000
0010
0100
0000
0000
0000
,
0010
0000
0000
0010
0100
0000
0000
0000
0001
0000
0100
0000
1000
0000
0000
0000
,
0100
1000
0010
0000
0100
0001
1000
0000
,
0001
1000
0010
0000
0001
1000
0010
0100
,
0001
0000
0100
0001
0010
0000
0100
1000
,
0001
0000
0010
1000
0100
0001
0010
0100
,
0001
0010
0001
1000
,
0100
0000
0000
0010
0000
0000
0100
0000
0000
0010
0000
0000
0100
0000
0010
0000
,
2000
0000
3002
0000
,
1003
0000
0100
0000
1000
0000
0001
0010
,
0100
0000
0000
0000
1000
0000
0001
0010
,
0001
0000
0000
0000
1000
0000
0001
0100
,
0020
0000
0000
0000
,
0130
0000
0000
0100
0000
0000
0100
0000
0000
0100
0000
0000
0100
0000
0000
0100
,
0000
0000
0100
0000
0000
0100
0000
0000
0100
0000
0000
0100
0000
0000
0100
0000
,
0100
0001
1000
0000
0001
1000
0100
0000
,
0010
0000
1000
0001
0000
0000
0110
0000
0000
1001
0000
0100
0010
0000
2000
0000
,
3001
0000
0000
0100
1000
0000
0010
0000
0001
0000
0000
0000
0100
0000
1000
0000
,
0001
0000
0010
0001
0100
0000
0010
0000
,
0001
0000
0000
0010
0100
0000
1000
0000
0010
0000
0000
0000
1000
0000
0001
0000
,
0100
0000
0000
0010
1000
0000
0100
0000
0001
0000
0000
0000
0010
0000
0000
0000
,
0100
1000
0010
0000
0100
0001
1000
0000
,
0001
0000
0100
0000
0010
0000
0000
0000
0100
0000
0001
0000
1000
0000
0001
0010
,
0100
0000
0000
1000
0010
0000
0000
0000
0100
0000
0000
0001
1000
0000
0000
0000
,
0010
0000
0000
1000
0100
0000
0000
0000
0010
0000
0000
0001
1000
0000
0100
0000
,
0001
0000
0000
0010
0100
0000
0001
0000
0010
0000
0000
0010
0100
0000
1000
0000
,
0010
0000
0000
0010
0100
0000
1000
0000
0001
0000
0100
0000
1000
0000
0000
0000
,
0100
1000
0010
0000
0100
0001
1000
0000
,
0001
1000
0010
0000
0001
1000
0010
0100
,
0001
0000
0000
1000
0100
0000
0001
0000
0010
0000
0000
0001
0100
0000
1000
0000
,
0001
0000
0000
0100
0010
0000
1000
0000
0100
0000
0001
1000
0010
0000
0100
0000
,
0001
0000
0000
1000
0000
0000
0010
0000
0001
0000
0000
0100
0000
0000
1000
0000
,
0001
0000
0000
0100
0000
0000
0010
0000
1000
0000
0000
0001
0000
0000
0100
0000
,
0010
0000
1000
0000
0001
0000
1000
0000
0000
1001
0000
0000
0110
0000
0001
0000
,
1000
0100
0010
0000
0001
0100
1000
0000
0100
0000
0010
0000
1001
0000
0000
0000
;

//--------------- dance-single - ----------------
#NOTES:
     dance-single:
     :
     Hard:
     17:
     0,0,0,0,0:
0000
0000
0000
0000
,
0000
0000
0000
0000
,
0000
0000
0000
0000
,
0000
0000
0000
0000
,
1001
0000
0000
0001
0010
0000
1000
0000
0100
0000
0000
0010
0001
0000
1000
0000
,
0010
0000
0000
0100
1000
0000
0010
0000
0100
0000
0001
0010
1000
0000
0001
0000
,
0100
0000
0000
1000
0100
0000
0001
0000
0100
0000
0000
0100
0001
0000
0100
0000
,
1000
0000
0000
0100
0001
0000
0100
0000
1000
0000
0010
0100
0001
0000
0010
0000
,
0110
0000
0000
0010
1000
0000
0001
0000
0010
0000
0000
0001
0010
0000
1000
0000
,
0010
0000
0000
0001
0010
0000
1000
0000
0010
0000
0001
0000
0100
1000
0100
1000
,
0100
0000
0000
0010
1000
0000
0001
0000
0100
0000
0000
1000
0100
0000
0010
0000
,
2001
0000
0000
3002
0000
0000
0203
0000
2300
0000
3002
0000
0013
0100
0010
0100
,
0010
0000
0000
1001
0000
0000
0101
0000
0000
1001
0000
0000
0110
0000
1000
0100
,
2000
0000
0000
0000
0000
0000
0000
0000
3020
0000
0032
0000
1003
0100
1000
0001
,
0200
0000
0320
1000
0130
0001
0100
0010
,
2002
0000
3003
0002
2003
0000
3020
0230
,
2300
0000
3001
0010
1100
0001
0100
1000
,
0012
0000
0100
1000
0103
1000
0010
0100
,
0001
0100
1000
0000
0001
0000
0100
0000
0010
0000
1000
0000
0001
0000
0010
0000
,
0200
0000
0000
0310
0001
0010
2000
0000
,
0010
0000
0000
0000
3001
0000
0010
0000
1000
0000
0001
0000
0100
0000
0001
0100
,
2000
0000
0000
0000
0000
0000
3002
0000
0000
0000
0103
0000
1000
0000
0010
0001
,
0100
0000
1000
0000
0001
0000
0010
1000
0001
0100
0010
0000
1010
0000
0001
0000
,
1000
0000
0100
0000
0001
0000
0010
0000
0001
0100
1000
0000
0010
0000
0100
0000
,
0002
0000
0000
0000
1003
0000
0100
0001
1000
0001
0010
0000
1000
0000
0001
0010
,
2000
0000
0000
0000
3001
0000
0010
0100
1000
0001
0100
0000
0010
0000
1000
0000
,
0001
0000
0100
0000
0010
0000
1000
0000
0001
0100
0000
0001
1000
0000
0100
0000
,
0002
0000
1003
0110
0001
0100
2000
0000
,
3001
0000
0010
0000
1000
0001
0010
0000
0100
0001
1000
0000
0010
0100
1000
0000
,
0011
0000
0000
0011
0000
0000
0101
0000
0000
1001
0000
0000
1001
0000
0000
0110
,
0000
0000
0100
1000
0100
1000
0100
1000
0100
0010
0100
0001
0010
0001
0010
0001
,
0010
0000
0000
1000
0100
0000
0001
0000
0010
0000
0000
0100
1000
0000
0001
0000
,
0100
0000
0000
0010
0001
0000
0100
0000
0010
0000
1000
0100
0001
0000
1000
0000
,
0010
0000
0000
0001
0010
0000
1000
0000
0010
0000
0000
0010
1000
0000
0010
0000
,
0001
0000
0000
0010
1000
0000
0010
0000
0001
0000
0100
0010
1000
0000
0100
0000
,
0110
0000
0000
0100
0001
0000
1000
0000
0100
0000
0000
1000
0100
0000
0001
0000
,
0100
0000
0000
1000
0100
0000
0001
0000
0100
0000
1000
0000
0010
0001
0010
0001
,
0010
0000
0000
0100
0001
0000
1000
0000
0010
0000
0000
0001
0010
0000
0100
0000
,
1002
0000
0000
2003
0000
0000
3020
0000
0032
0000
2003
0000
3100
0010
0100
0010
,
0100
0000
0000
0001
0010
0000
1000
0000
0100
0000
0000
0010
0001
0000
1000
0000
,
0010
0000
0000
0100
1000
0000
0010
0000
0100
0000
0001
0010
1000
0000
0001
0000
,
0100
0000
0000
1000
0100
0000
0001
0000
0100
0000
0000
0100
0001
0000
0100
0000
,
1000
0000
0000
0100
0001
0000
0100
0000
1000
0000
0010
0100
0001
0000
0010
0000
,
0110
0000
0000
0010
1000
0000
0001
0000
0010
0000
0000
0001
0010
0000
1000
0000
,
0010
0000
0000
0001
0010
0000
1000
0000
0010
0000
0001
0000
0100
1000
0100
1000
,
0100
0000
0000
0010
1000
0000
0001
0000
0100
0000
0000
1000
0100
0000
0010
0000
,
2001
0000
0000
3002
0000
0000
0203
0000
2300
0000
3002
0000
0013
0100
0010
0100
,
0010
0000
0000
0100
0000
0000
0100
0000
0100
0000
0000
0100
0000
0000
0100
0000
,
0100
0000
0000
0100
0000
0000
0100
0000
0000
0100
0000
0000
0100
0000
0100
0000
,
0200
0000
0010
0001
0010
0000
0010
0000
,
0320
0000
2030
0000
3020
0000
0031
0010
,
0100
0000
1000
0000
0001
0000
0010
0010
,
0200
0000
0000
0000
0000
0000
0000
0000
0000
0000
0000
0000
0310
0000
0000
0000
1000
0000
0000
0001
0000
0000
0100
0000
1000
0000
0000
0001
0000
0000
0100
0000
,
1001
0000
0000
0100
0000
0000
0100
0000
0000
0100
0000
0000
0100
0000
0000
0100
0000
0000
0100
0000
0000
0100
0000
0000
0100
0000
0000
0100
0000
0000
0100
0000
,
0100
0000
0000
0110
0000
0000
0110
0000
0000
0110
0000
0000
0110
0000
0000
0010
,
0100
1000
0100
1000
0100
1000
0100
1000
0100
0010
0100
0010
0001
0010
0001
0010
,
0001
0000
0000
0001
0100
0000
1000
0000
0010
0000
0000
0100
0001
0000
1000
0000
,
0100
0000
0000
1010
0000
0000
0110
0000
0000
1000
0100
0010
0001
0100
2000
0000
,
3010
0000
0000
1000
0010
0000
0001
0000
0010
0000
0000
0010
0001
0000
0010
0000
,
1000
0000
0000
0010
0001
0000
0010
0000
1000
0000
0100
0010
0001
0000
0100
0000
,
0110
0000
0000
0100
1000
0000
0001
0000
0100
0000
0000
0001
0100
0000
1000
0000
,
0100
0000
0000
0001
0100
0000
1000
0000
0100
0000
0001
0000
0010
1000
0010
1000
,
0010
0000
0000
0100
1000
0000
0001
0000
0010
0000
0000
1000
0010
0000
0100
0000
,
1000
0100
0010
0002
0000
0000
0013
0000
1000
0100
0001
0000
0100
0010
0100
0010
,
0100
0000
0000
0001
0010
0000
1000
0000
0100
0000
0000
0010
0001
0000
1000
0000
,
0010
0000
0000
0100
1000
0000
0010
0000
0100
0000
0001
0010
1000
0000
0001
0000
,
0100
0000
0000
1000
0100
0000
0001
0000
0100
0000
0000
0100
0001
0000
0100
0000
,
1000
0000
0000
0100
0001
0000
0100
0000
1000
0000
0010
0100
0001
0000
0010
0000
,
0110
0000
0000
0010
1000
0000
0001
0000
0010
0000
0000
0001
0010
0000
1000
0000
,
0010
0000
0000
0001
0010
0000
1000
0000
0010
0000
0001
0000
0100
1000
0100
1000
,
0100
0000
0000
0010
1000
0000
0001
0000
0100
0000
0000
1000
0100
0000
0010
0000
,
2001
0000
0000
3002
0000
0000
0203
0000
2300
0000
3002
0000
0013
0100
0010
0100
,
0010
0000
0000
1001
0000
0000
0101
0000
0101
0000
0000
0101
0000
0000
0101
0000
,
1001
0000
0000
1001
0000
0000
1010
0000
1010
0000
0000
1010
0000
0000
1010
0000
,
0110
0000
0000
0110
0000
0000
0110
0000
0000
0110
0000
0000
0110
0000
0110
0000
,
1000
0001
0100
1000
0010
0001
0100
0001
1000
0100
0010
1000
0002
0000
0000
0000
,
0000
0000
0000
0000
,
0003
0000
0000
0000
;
