
//----- song ID: gint -----//
#TITLE:Undefeatable;
#SUBTITLE:(From Sonic Frontiers);
#ARTIST:Kellin Quinn (Sleeping With Sirens);
#GENRE:ソニック曲;
#MUSIC:Undefeatable.ogg;
#BANNER:Undefeatable.png;
#BACKGROUND:Undefeatable-bg.png;
#CDTITLE:./CDTitles/Million Hits FUZZ-UP!.png;
#SAMPLESTART:63.750;
#SAMPLELENGTH:15.000;
#SELECTABLE:YES;
#OFFSET:0.000;
#BPMS:0.000=100.000
,20.000=200.000
;
#STOPS:;
#BGCHANGES:;
#FGCHANGES:;

//--------------- dance-single - ----------------
#NOTES:
     dance-single:
     :
     Beginner:
     5:
     0,0,0,0,0:
0000
0000
0000
0000
,
0000
0000
0000
0000
,
0000
0000
0000
0000
,
2000
3200
0320
0032
,
0203
0000
0301
0010
0100
0000
1000
0001
,
2002
0000
0000
0000
0000
3003
0000
0000
,
0000
0000
0000
0000
,
0000
0000
0000
0000
,
0000
0000
0000
0000
,
1000
0001
0100
0010
,
0100
1000
0001
0000
,
0100
0010
1000
0001
,
0100
0010
0100
0000
,
1000
0001
0100
0010
,
0001
0000
0000
0000
,
0100
1000
0001
0100
,
0010
0000
0100
0000
,
1000
0001
0100
0010
,
0100
0000
1000
0000
,
0001
0010
0100
0001
,
1000
0000
0001
0000
,
1001
0100
1000
0000
,
0001
0010
0100
1000
,
0000
0001
0000
0100
,
0010
0100
1000
0001
,
0010
0000
0100
0000
,
1000
0001
0100
0000
,
0010
0100
1000
0001
,
0100
0000
0010
0000
,
1000
0000
0001
0000
,
0100
0000
1000
0001
0100
0000
0000
1000
,
0001
0000
0100
0000
,
1000
0000
0001
0000
0100
1000
0000
0001
,
0100
0000
0000
0000
0100
1000
0000
0000
,
0001
0000
0000
0000
1000
0001
0000
0000
,
0100
0000
0000
0000
0010
0100
0000
0000
,
1000
0001
0100
0010
,
1000
0000
0000
0001
0000
0000
2002
0000
,
0000
0000
0000
0000
,
0000
0000
0000
0000
,
0000
0000
0000
0000
,
3003
0000
0000
0000
0000
1000
0000
0000
,
0100
0000
0000
0010
0000
0000
0100
0000
,
1000
0000
0000
0001
0000
0000
2002
0000
,
0000
0000
0000
0000
,
0000
0000
0000
0000
,
0000
0000
0000
0000
,
3003
0000
0000
0000
0000
0100
0000
0000
,
1000
0001
1000
0001
,
0100
0000
0010
0000
,
0200
0000
0000
0300
,
0000
1000
0001
0100
,
0010
0000
0100
0000
,
1000
0000
0000
0000
0001
0000
0000
0020
,
0000
0000
0000
0130
,
1000
0100
1000
0001
,
1000
0000
0010
0000
,
0100
0000
0001
0000
,
0010
0100
1000
0000
,
0001
0000
0100
0010
,
1000
0000
0001
0000
,
0100
0000
0000
0000
0010
0000
0000
0200
,
0000
0000
0000
0000
,
0310
0000
0001
1000
0000
0000
0100
0000
,
1000
0001
0100
0000
,
0100
0010
1000
0000
,
0001
0000
0010
0000
,
0100
0000
1000
0000
,
0001
0000
0100
1000
,
0001
0100
0010
0000
,
0100
0000
1000
0000
,
0001
0000
0100
0000
,
0010
0000
0100
1000
,
0001
0000
0100
0010
,
1000
0000
0001
0000
,
0010
0000
0100
0000
,
1000
0000
0001
0100
,
0010
0100
1000
0000
,
0001
0000
0100
0000
,
0010
0000
1000
0000
,
0001
0000
0000
0100
,
0010
0000
0100
1000
,
0001
0000
0010
0000
,
0100
0000
1000
0000
,
0100
0000
0010
0100
,
1000
0000
0001
0000
,
0100
0000
0010
0000
,
0100
0000
1000
0000
,
0001
0000
0010
0100
,
0001
0000
1000
0000
,
1001
0000
0100
0000
,
0110
0000
0001
0000
,
1000
0001
0100
0000
,
0010
0000
0100
0000
,
0002
0000
1000
0000
,
1003
0000
0100
0000
,
0010
0000
0000
0001
0000
1000
0000
0000
,
0001
1000
0001
0100
,
1001
0000
0000
0000
;

//--------------- dance-single - ----------------
#NOTES:
     dance-single:
     :
     Easy:
     7:
     0,0,0,0,0:
0000
0000
0000
0000
,
0000
0000
0000
0000
,
0000
0000
0000
0000
,
0002
0023
0230
2300
,
3020
0000
1030
0100
0010
0000
0001
1000
,
2002
0000
0000
0000
0000
3003
0000
0000
,
0000
0000
0000
0000
,
0000
0000
0000
0000
,
0000
0000
0000
0000
,
0001
1000
0010
0100
,
0010
0001
1000
0100
,
0010
0100
0001
1000
,
0010
0100
0010
1000
,
0001
1000
0010
0100
,
1000
0001
0010
0100
,
0010
0001
1000
0010
,
0100
1000
0010
0100
,
0001
1000
0010
0100
,
0010
0100
0001
0010
,
1000
0100
0010
1000
,
0001
0100
1010
0010
,
1001
0010
0001
0100
,
1000
0100
0010
0001
,
0100
1000
0001
0010
,
0100
0010
0001
1000
,
0100
0001
0010
1000
,
0001
1000
0010
0001
,
0100
0010
0001
1000
,
0010
0001
0100
0100
,
0001
0100
1000
0100
,
0010
0000
0001
1000
0010
0000
0100
0001
,
1000
0001
0010
1000
,
0001
0000
1000
0000
0010
0001
0100
1000
,
0010
0000
1000
0000
0010
0001
0100
0000
,
1000
0000
0100
0000
0001
1000
0100
0000
,
0010
0000
0001
0000
0100
0010
1000
0000
,
0001
1000
0010
0100
,
0101
0000
0000
1000
0000
0000
2002
0000
,
0000
0000
0000
0000
,
0000
0000
0000
0000
,
0000
0000
0000
0000
,
3003
0000
1000
0000
0000
0001
0000
0000
,
0010
0000
0000
0100
0000
0000
0010
0000
,
0001
0000
0000
1000
0000
0000
2002
0000
,
0000
0000
0000
0000
,
0000
0000
0000
0000
,
0000
0000
0000
0000
,
3003
0000
0100
0000
0000
0010
0000
0000
,
0001
1000
0001
1000
,
0010
1000
0100
0001
,
0020
1000
0000
0130
,
0100
0001
1000
0010
,
0100
0001
0010
1000
,
0001
0000
0100
0000
1000
0000
0001
0200
,
0000
0000
0000
0310
,
0001
0010
0001
1000
,
0001
0010
0100
1000
,
0010
0001
1000
0001
,
0100
0010
0001
0010
,
1000
0100
0010
0100
,
0001
0010
1000
0100
,
0010
0000
0001
0000
0100
0000
1000
0020
,
0000
0000
0000
0000
,
0130
0000
1000
0001
1000
0000
0010
0000
,
0001
1000
0010
0100
,
0010
0100
0001
0010
,
1000
0001
0100
0001
,
0010
1000
0001
0100
,
1000
0010
0010
0001
,
1000
0010
0100
0001
,
0010
1000
0001
0100
,
1000
0001
0010
1000
,
0100
0001
0010
0001
,
1000
0100
0010
0100
,
0001
0010
1000
0001
,
0100
0001
0010
1000
,
0001
0100
1000
0010
,
0100
0010
0001
0100
,
1000
0001
0010
0001
,
0100
1000
0001
0100
,
1000
0100
1000
0010
,
0100
0001
0010
0001
,
1000
0000
0100
0001
,
0010
0000
0001
1000
,
0010
0000
0100
0010
,
0001
0100
1000
0100
,
0010
0000
0100
0001
,
0010
0000
0001
0100
,
1000
0000
0100
0010
,
1000
0100
0001
0100
,
1001
0000
0010
0100
,
0110
0000
1000
0100
,
0001
1000
0010
1000
,
0100
1000
0010
0100
,
2002
0000
0000
0000
,
3003
0000
0000
0000
,
0220
0000
0000
0000
,
0000
0000
0000
0000
,
0330
0000
0000
0000
;

//--------------- dance-single - ----------------
#NOTES:
     dance-single:
     :
     Medium:
     12:
     0,0,0,0,0:
0000
0000
0000
0000
,
0000
0000
0000
0000
,
0000
0000
0000
0000
,
2000
3200
0320
0032
,
0203
0000
0301
0010
0100
0000
1000
0001
,
2002
0000
0000
0000
0000
3003
0000
0000
,
0000
0000
0000
0000
,
0000
0000
0000
0000
,
0000
0000
0000
0000
,
0001
0000
1000
0100
0010
0000
0100
0001
,
0010
1001
1000
0110
,
0010
0000
0100
1000
0001
0000
1000
0000
,
1010
0000
0100
0000
0010
0001
1000
0000
,
0001
0000
1000
0001
0010
0000
0100
0001
,
1000
0000
0001
1000
0010
0000
0100
0000
,
0010
0000
0001
0100
1000
0000
0010
0001
,
0100
0000
1000
0000
0010
1000
0100
0000
,
0001
0000
1000
0000
0010
0001
0100
0000
,
0010
1000
0100
0000
0001
0000
0010
0000
,
1000
0000
0100
0001
0010
0000
1000
0100
,
0001
0000
0100
0001
1000
0100
0010
0000
,
1001
0000
0010
0000
0001
0010
0100
0001
,
1000
0000
0100
1000
0010
0100
0001
0000
,
0100
0000
1000
0100
0001
0100
0010
0000
,
0100
0010
0001
1010
,
0100
0000
0001
0000
0010
0100
1000
0010
,
0001
0100
1000
0001
0010
1000
0001
0000
,
0100
0000
0010
0100
0001
0000
1000
0000
,
0010
1000
0001
0000
0100
0001
0100
0000
,
0001
0000
0100
0000
1000
0001
0100
1000
,
0010
0000
0001
1000
0010
0001
0100
0000
,
1000
0001
0010
1000
,
0001
0010
1000
0000
0010
0001
0100
1000
,
0010
0000
1000
0000
0010
0001
0100
0010
,
1000
0000
0100
0000
0001
1000
0100
0001
,
0010
0000
0001
0000
0100
0010
1000
0000
,
0001
0100
1000
0100
0010
0000
0100
0000
,
0101
0000
0000
1000
0000
0000
2002
0000
,
3003
0000
0100
0000
0000
0010
0000
0000
,
1000
0000
0000
0001
0000
1000
0010
0001
,
0100
0000
0020
0000
,
0130
0000
1000
0000
0000
0001
0000
0000
,
0010
0000
0000
0100
0001
0000
0010
1000
,
0001
0000
0000
1000
0000
0000
2002
0000
,
3003
0000
0010
0000
0000
0100
0000
0000
,
0001
0000
0000
1000
0000
0001
0100
1000
,
0010
0000
0200
0000
,
0310
0000
0001
0000
0000
1000
0000
0000
,
0100
0000
0000
0010
1000
0000
0100
0001
,
0010
0001
1000
0000
0100
1000
0001
0000
,
0020
0000
1000
0000
0000
0000
0130
1000
,
0100
0000
0001
0000
1000
0100
0010
0000
,
0100
0000
0001
1000
0010
0000
1000
0000
,
0001
0000
0100
0001
1000
0000
0001
0200
,
0000
0001
0000
0310
,
0001
0000
0010
1000
0001
0000
1000
0000
,
0001
0100
0010
0000
0100
0001
1000
0000
,
0010
1000
0001
0000
1000
0100
0001
0010
,
0100
0000
0010
0000
0001
0100
0010
0000
,
1000
0000
0100
0001
0010
1000
0100
0000
,
0001
0000
0010
0000
1000
0001
0100
1000
,
0010
0000
0001
0000
0100
0001
1000
0020
,
0000
0000
0000
0000
,
0130
0000
1000
0001
1000
0000
0010
0000
,
0001
0100
1000
0000
0010
0001
0100
0000
,
0010
1000
0100
0000
0001
1000
0010
0001
,
1000
0000
0001
0000
0100
1000
0001
0000
,
0010
0000
1000
0100
0001
0000
0100
0000
,
1000
0001
0010
0000
0010
0100
0001
0000
,
1000
0000
0010
0001
0100
0000
0001
0000
,
0010
0000
1000
0100
0001
0010
0100
0000
,
1000
0000
0001
1000
0010
0001
1000
0000
,
0100
0000
0001
1000
0010
0100
0001
0000
,
1000
0000
0100
1000
0010
0000
0100
0000
,
0001
0100
0010
0000
1000
0000
0001
0000
,
0100
1000
0001
0000
0010
0000
1000
0000
,
0001
0010
0100
0000
1000
0000
0010
0001
,
0100
1000
0010
0000
0001
0000
0100
0000
,
1000
0010
0001
0100
0010
0000
0001
0000
,
0100
0001
1000
0010
0001
0000
0100
0000
,
1000
0001
0100
0010
1000
0000
0010
0000
,
0100
1000
0001
0100
0010
0000
0001
0000
,
1000
0001
1100
0101
,
0010
0100
1001
1010
,
0010
0000
1000
0000
0100
1000
0010
0100
,
0001
0000
0100
0000
1000
0001
0100
1000
,
0010
1000
0110
0101
,
0010
0100
1001
0110
,
1000
0000
0001
0000
0100
0001
0010
0100
,
1000
0000
0100
0000
0001
1000
0100
0000
,
1001
0100
1010
0101
,
0010
0100
1001
0110
,
0001
0000
1000
0001
0010
0100
1000
0000
,
0100
0000
1000
0001
0010
1000
0100
0000
,
2002
0000
0000
3003
,
0100
0000
1000
0000
0000
0010
1000
0000
,
0000
0000
0000
0001
0000
1000
0000
0000
,
0001
0000
1000
0000
0001
0010
0100
0000
,
1001
0000
0000
0000
;

//--------------- dance-single - ----------------
#NOTES:
     dance-single:
     :
     Hard:
     17:
     0,0,0,0,0:
0000
0000
0000
0000
,
0000
0000
0000
0000
,
0000
0000
0000
0000
,
2000
3200
0320
0032
,
0203
0000
0301
0010
0100
0000
1000
0001
,
2002
0000
0000
0000
0000
3003
0000
0000
,
0000
0000
0000
0000
,
0000
0000
0000
0000
,
1000
0001
0100
0000
0010
0000
1000
0000
0001
0010
0100
0000
1000
0001
0100
0000
,
1000
0000
0001
0000
0010
0000
0100
1000
0100
0000
0010
0001
0010
0000
1000
0100
,
1000
0000
0010
0100
0010
0000
0100
1000
0001
0000
0100
0000
1000
0001
0100
0000
,
0001
0000
1000
0000
0100
0000
0010
0001
0010
0000
0100
1000
0100
0000
0001
0010
,
0001
0000
0100
0010
0100
0000
0010
0001
1000
0000
0010
0000
0001
1000
0010
0000
,
1000
0000
0001
0000
0010
0000
0100
1000
0100
0000
0010
0001
0010
0000
1000
0100
,
1000
0000
0010
0100
0010
0000
0100
1000
0001
0000
0100
0000
1000
0001
0100
0000
,
0001
0000
1000
0000
0100
0000
0010
0001
0010
0000
0100
1000
0100
0000
0001
0010
,
0001
0000
0100
0010
0100
0000
0010
0001
1000
0000
0010
0000
0001
1000
0010
0000
,
1000
0000
0001
0000
0010
0000
0100
1000
0100
0000
0010
0001
0010
0000
1000
0100
,
1000
0000
0010
0100
0010
0000
0100
1000
0001
0000
0100
0000
1000
0001
0100
0000
,
0010
1000
0001
0100
0010
0100
1000
0100
,
0010
1000
0100
0000
0001
1000
0001
0000
2002
0000
0000
0000
0000
0000
3003
0000
,
0010
0000
1000
0100
0010
0000
0001
0000
0100
0000
0001
0000
0010
0000
0100
0000
,
1000
0100
0010
0000
0100
0000
0100
0000
0010
0001
0100
0000
0010
0000
0010
0000
,
1000
0001
0010
0100
1000
0001
0100
0001
,
1010
0010
0110
0100
0101
0001
0011
0010
,
0100
0001
0100
1000
0001
0100
0010
1000
,
0001
1000
0010
0000
0100
0000
0100
0000
0001
1000
0100
0000
0010
0000
0010
0000
,
0100
1000
0100
0001
0010
1000
0010
0001
,
1000
0000
0010
0000
0100
0000
0001
0000
1000
0100
1000
0100
0010
0000
0000
0000
,
0100
0000
0001
0010
0100
0000
1000
0000
0010
0000
1000
0000
0100
0000
0010
0000
,
0001
0010
0100
0000
0010
0000
0010
0000
0100
1000
0010
0000
0100
0000
0100
0000
,
0001
1000
0100
0010
0001
1000
0010
1000
,
0101
0100
0110
0010
1010
1000
1100
0100
,
0010
1000
0010
0001
1000
0010
0100
0001
,
1000
0001
0100
0000
0010
0000
0010
0000
1000
0001
0010
0000
0100
0000
0100
0000
,
0010
0001
0010
1000
0100
0001
0100
1000
,
0001
0000
0100
0000
0010
0000
1000
0000
0001
0010
0001
0010
0100
0000
0000
0000
,
0220
0000
0330
0022
0000
0033
2002
0000
,
3003
0000
0100
1000
0001
1000
0100
0010
,
0001
1000
0001
0100
0010
0000
1000
0000
0001
0000
0100
0000
0010
0000
0100
0000
,
2000
0000
0000
0000
3001
0100
0010
0000
,
1000
0001
0100
0000
1000
0000
0100
0000
0001
0000
1000
0000
0010
0000
0100
0000
,
1000
0010
0001
0000
1000
0000
0001
0000
0100
0000
1000
0010
0100
0000
0001
0000
,
2200
0000
3300
0220
0000
0330
2002
0000
,
3003
0000
0010
0001
1000
0001
0010
0100
,
1000
0001
1000
0010
0100
0000
0001
0000
1000
0000
0010
0000
0100
0000
0010
0000
,
0002
0000
0000
0000
1003
0010
0100
0000
,
0001
1000
0010
0000
0001
0000
0010
0000
1000
0000
0001
0000
0100
0000
0010
0000
,
0001
0100
1000
0000
0001
0000
1000
0000
0010
0000
0001
0100
0010
0000
1000
0000
,
0001
0010
0001
0010
0001
0010
0100
0010
0100
0010
0100
1000
0100
1000
0100
1000
,
0100
0000
1000
0010
1000
0000
0001
0000
1000
0000
0100
0000
1000
0000
0010
0000
,
0100
0001
1000
0000
0100
0000
1000
0000
0001
0100
0010
0000
0100
0000
0010
0000
,
1000
0000
0001
0010
0001
0000
0010
0000
0100
0000
1000
0000
0100
0000
0010
0000
,
0011
0011
0100
0100
1100
1100
1000
1000
,
0010
0000
0100
0010
0100
0000
0001
0000
1000
0000
0100
0000
0010
0000
0001
0000
,
1000
0010
0100
0000
0010
0000
1000
0000
0001
0010
0100
0000
0010
0000
0001
0000
,
1000
0000
0001
0100
0001
0000
1000
0000
0001
0000
0010
0000
0001
0000
0100
0000
,
0010
0100
0010
0000
1000
0010
0100
0000
0001
0010
0001
0000
1000
0100
0010
0000
,
0100
0000
0001
0010
0001
0000
1000
0000
0001
0000
0100
0000
0001
0000
0010
0000
,
0100
1000
0001
0000
0100
0000
0001
0000
1000
0100
0010
0000
0100
0000
0010
0000
,
0001
0000
1000
0010
1000
0000
0010
0000
0100
0000
0001
0000
0100
0000
0010
0000
,
1010
1010
0100
0100
0101
0101
0001
0001
,
0010
0000
0100
0010
0100
0000
1000
0000
0001
0000
0100
0000
0010
0000
1000
0000
,
0001
0010
0100
0000
0010
0000
0001
0000
1000
0010
0100
0000
0010
0000
1000
0000
,
0001
0000
1000
0100
1000
0000
0001
0000
1000
0000
0010
0000
1000
0000
0100
0000
,
0010
0100
0010
0000
0001
0010
0100
0000
1000
0010
1000
0000
0001
0100
0010
0000
,
0200
0000
1000
1000
0000
0010
0310
0000
,
1000
0000
0010
0000
1010
0000
0000
0000
0001
0000
0010
0000
0001
0010
0100
1000
,
0200
0000
1000
1000
0000
0010
0310
0000
,
0001
0000
0010
0000
0011
0000
0000
0000
1000
0000
0001
0000
1000
0010
0100
0001
,
2000
0000
0010
0010
0000
0001
3001
0000
,
0100
0000
0001
0000
0101
0000
0000
0000
0010
0000
1000
0000
0010
1000
0100
0010
,
0002
0000
0010
0010
0000
1000
1003
0000
,
0100
0000
1000
0000
1100
0000
0000
0000
0010
0000
0001
0010
0001
0100
0010
1000
,
0020
0000
0001
0001
0000
0100
0130
0000
,
0001
0000
0100
0000
0101
0000
0000
0000
1000
0000
0100
0000
1000
0100
0010
0001
,
0020
0000
0001
0001
0000
0100
0130
0000
,
1000
0000
0100
0000
1100
0000
0000
0000
0001
0000
1000
0000
0001
0100
0010
1000
,
0002
0000
0100
0100
0000
1000
1003
0000
,
0010
0000
1000
0000
1010
0000
0000
0000
0100
0000
0001
0000
0100
0001
0010
0100
,
2000
0000
0100
0100
0000
0001
3001
0000
,
0010
0000
0001
0000
0011
0000
0000
0000
0100
0000
1000
0100
1000
0010
0100
0001
,
1000
0000
0001
0000
2200
3300
2200
3300
,
1000
0000
0001
0000
0022
0033
0022
0033
,
0100
0000
0010
0100
1000
0001
0100
0010
,
0100
0000
1000
0001
0100
0000
1000
0000
0002
0000
0103
0000
1000
0000
0100
0001
,
0010
1000
0001
0000
0220
0330
0220
0330
,
0001
0000
1000
0000
2002
3003
2002
3003
,
0100
0000
0010
0000
1000
0001
0100
0001
,
0100
0000
0010
1000
0100
0000
0010
0001
0100
0000
0001
0000
1000
0000
0010
0000
,
1000
0100
0010
0000
2200
3300
2200
3300
,
1000
0000
0001
0000
0022
0033
0022
0033
,
0100
0010
0000
0000
,
0000
0000
0000
0000
,
0002
0000
0000
0000
0000
0000
0000
0000
1003
0000
0100
1000
0100
0000
0010
0000
,
2000
0000
0000
0000
3001
0000
0010
0000
0100
0001
0100
0000
1000
0000
0001
0000
,
0100
0000
1000
0001
0000
0001
1000
0000
,
0100
1000
0100
0010
0001
0000
0010
0000
0100
0000
1000
0000
0100
0000
0010
0000
,
2002
0000
0000
0000
,
0000
0000
0000
0000
,
3003
0000
0000
0000
;
