
//----- song ID: tokr -----//
#TITLE:とける;
#ARTIST:かたぎり;
#TITLETRANSLIT:Tokeru;
#ARTISTTRANSLIT:Katagiri;
#GENRE:ナムコオリジナル;
#MUSIC:Tokeru.ogg;
#BANNER:Tokeru.png;
#BACKGROUND:Tokeru-bg.png;
#CDTITLE:./CDTitles/NSD A3.png;
#SAMPLESTART:28.230;
#SAMPLELENGTH:15.000;
#SELECTABLE:YES;
#OFFSET:0.000;
#BPMS:0.000=221.000
,40.000=110.500
,56.000=221.000
,280.000=110.500
,308.000=221.000
,348.000=110.500
,350.000=221.000
;
#STOPS:;
#DISPLAYBPM:110.000:221.000;
#BGCHANGES:;
#FGCHANGES:;

//--------------- dance-single - ----------------
#NOTES:
     dance-single:
     :
     Beginner:
     5:
     0,0,0,0,0:
0000
0000
0000
0000
,
0000
0000
0000
0000
,
0000
0000
0000
0000
,
0000
0000
0000
0000
,
1001
0000
0100
0000
,
0010
0000
0001
0000
,
0010
0000
0100
0000
,
0001
0000
0010
0000
,
1000
0000
0001
0000
,
0100
0000
0010
0000
,
1001
0000
0010
0100
,
1000
0000
0001
1000
,
0001
0000
0100
0000
,
0010
0001
0010
0100
,
1000
0000
0001
0000
,
0100
0000
0010
0000
,
0001
0000
1000
0000
,
0001
0000
0100
0000
,
0010
0000
0100
0000
,
1000
0000
0001
0000
,
2002
0000
0000
0000
,
3003
0000
0000
0000
,
0010
0000
0000
0000
,
0100
0000
0000
0000
,
1000
0000
0000
0000
,
0001
0000
0000
0000
,
0010
0000
0000
0000
,
0100
0000
0000
0000
,
0001
0000
0000
0000
,
0100
0000
0000
0000
,
1000
0000
0000
0000
,
0001
0000
0000
0000
,
0010
0000
0000
0000
,
0100
0000
0000
0000
,
0001
0000
1000
0000
,
0001
0000
0000
0000
0010
0000
0000
1000
0000
0000
0010
0000
0000
1000
0000
0000
,
2002
0000
0000
0000
,
0000
0000
0000
3003
,
0100
0000
0000
0001
,
0000
0000
1000
0000
,
0000
0000
0000
0010
,
0000
0010
0000
0000
,
1000
0001
0000
0010
,
0000
0000
0100
0000
,
0000
0001
1000
0010
,
0000
0000
0010
0000
,
0100
0000
0001
0000
,
0000
1000
0001
0000
,
0000
0000
0010
0000
,
1000
0000
0001
0000
,
0220
0000
0000
0000
,
0000
0330
0001
0000
,
0000
0000
1000
0000
,
0001
0000
0010
0000
,
1001
0000
0000
0000
,
0000
0000
0000
0000
,
0010
0000
0000
0000
,
0000
0000
0200
0000
,
0301
0000
0010
0000
,
0100
0000
1000
0000
,
0001
0000
0100
0000
,
0010
0000
1000
0000
,
0101
0000
0010
0000
,
0100
0000
1000
0000
,
0001
0000
1000
0000
,
0002
0000
0000
1003
,
0010
0000
0100
0000
,
0010
0000
0001
0000
,
1000
0000
0001
0000
,
1000
0001
1000
0000
,
2002
0000
0000
0000
,
0000
0000
0000
3003
,
0010
0000
0000
0000
,
0100
0000
0000
0000
,
1000
0001
0100
0010
,
0001
0010
0100
1000
,
0001
1000
0001
1000
,
0001
0010
0100
1000
,
0001
0000
0000
0000
,
0200
0000
0000
0000
,
0000
0000
0000
0300
,
0001
0000
0010
0000
,
0100
0000
1000
0000
,
0001
0000
1000
0000
,
0001
0000
0100
0000
,
0010
0000
0001
0000
,
0010
0000
0100
0000
,
0002
0000
1003
0000
,
0100
0000
0001
0000
,
1000
0000
0001
0000
,
0100
0000
0010
0000
,
0001
0000
1000
0000
,
0001
0000
0100
0000
,
0010
0000
1000
0000
,
0001
0000
1000
0000
,
0000
0000
0001
0000
,
0000
0000
0010
0000
,
0000
0000
0100
0000
,
0000
0000
0010
0000
,
0000
0000
0001
0000
,
0000
0000
1000
0000
,
0001
0000
0100
0000
,
0010
0000
0000
0000
;

//--------------- dance-single - ----------------
#NOTES:
     dance-single:
     :
     Easy:
     8:
     0,0,0,0,0:
0000
0000
0000
0000
,
0000
0000
0000
0000
,
0000
0000
0000
0000
,
0000
0000
0000
0000
,
0001
0100
2000
0000
3001
0000
0100
0000
,
0010
0100
1000
0001
,
1000
0010
0001
0010
,
0100
1000
0010
0100
,
0001
0010
0100
0001
,
1000
0100
0001
0100
,
1001
0100
0001
0010
0100
1000
0001
0010
,
0000
0100
0010
0001
0010
0100
1000
0010
,
0000
0100
0001
0010
0100
0001
1000
0001
,
1000
0010
0100
0001
0010
0100
1000
0001
,
0100
0001
0010
0100
,
0001
0010
0100
1000
,
0001
0010
0100
0001
,
0010
0100
1000
0000
,
0001
1000
0001
0100
,
0010
0100
1000
0001
,
0001
1000
0010
0000
1000
0001
0010
0000
,
2000
0000
3000
0001
,
1001
0100
0010
1000
,
0001
0100
0010
0100
,
0001
1000
0001
0100
,
0001
0010
0200
0000
,
0301
0001
1000
0001
,
0100
0010
0001
0010
,
0100
0010
1000
0001
,
1000
0001
0100
0010
,
0001
0100
1000
0000
,
0001
0100
1000
0000
,
0001
1000
0010
0000
0100
0000
0000
0000
,
0001
1000
0001
0000
0020
0000
0000
0000
,
1030
0100
0010
0001
,
1000
0000
0000
0000
1000
0000
0000
1000
0000
0000
0001
0000
0000
0001
0000
0000
,
2002
0000
0000
0000
,
0000
0000
0000
3003
,
0101
0000
0000
0100
0000
0000
2000
0000
,
0000
3001
0000
0010
0100
0000
0000
0001
,
1000
0000
0000
0000
0000
0000
0000
0000
0000
0001
0000
0000
0100
0000
0000
0000
0000
0000
0000
0000
0000
0000
0000
0000
0001
0000
0000
0000
0000
0000
0100
0000
0000
0000
0000
0000
0000
0000
0000
0000
0000
0000
0001
0000
0000
0000
2000
0000
,
0000
0000
0000
0000
3001
0000
0000
0000
0010
0000
0001
0000
0000
1000
0000
0000
,
0100
0000
0000
0000
0001
0000
0000
0000
1000
0001
0000
0000
0010
0000
0100
0000
,
0000
0000
0000
0000
0001
0000
0000
0000
0000
1000
0000
0000
0000
0000
0000
0020
0000
0000
0000
0000
0000
0000
0000
0000
0130
0000
0000
0000
0000
0000
1000
0000
0000
0000
0000
0000
0001
0000
0000
0000
0000
0000
0100
0000
0000
0000
0000
0000
,
0000
0000
0010
0000
0100
1000
0000
0002
,
0000
0000
0000
1003
0000
0000
0000
0000
0000
0000
0000
0000
0100
0000
0000
0000
0100
0000
0000
0000
0001
0000
0000
0000
,
1001
0000
0100
0000
0001
0000
1000
0001
,
0020
0000
0000
0000
0130
0000
0001
0000
1000
0000
0000
0000
0000
0010
0100
0000
,
0000
0000
0000
0001
0000
0000
0000
0000
0000
1000
0000
0000
0000
0000
0000
0000
0000
0000
0000
0000
0000
0000
0000
0000
0010
0000
0000
0000
0000
0000
0001
0000
0000
0000
1000
0000
0000
0000
0001
0000
0000
0000
0000
0000
0000
0000
0000
0000
,
0200
0000
0000
0000
0000
0000
0000
0000
0000
0000
0000
0000
0000
0000
0000
0000
0000
0000
0000
0000
0000
0000
0000
0000
0310
0000
0000
0000
0000
0000
0000
0000
0000
0001
0000
0000
0000
0000
0000
0000
0000
1000
0000
0000
0000
0000
0000
0000
,
0001
0000
0000
0000
0000
0000
1000
0000
0000
0000
0000
0000
0020
0000
0000
0000
0000
2030
0000
0000
0000
0000
0000
3200
,
0000
0000
0000
0000
0000
0000
0000
0300
0000
0000
0000
0000
0001
0000
0000
0010
0000
0000
0100
0000
0000
0001
0000
0000
,
0000
0000
0000
0001
0100
0001
0000
0000
,
1000
0000
0001
1000
0010
0000
0100
0000
,
1001
0000
0100
0000
,
0001
0000
1000
0000
,
0001
0000
0100
0000
,
0010
0000
0002
0000
,
1003
0000
0100
0000
,
0010
0000
0001
0000
,
1000
0000
0001
0000
,
1000
0000
0001
0100
,
0110
0000
0001
0000
,
1000
0000
0001
0100
,
0010
0000
0001
0000
,
2000
0000
0000
3000
,
0001
0000
0010
0000
,
0001
0000
1000
0000
,
0001
0000
1000
0000
,
0001
1000
0001
0000
,
0110
0010
0000
0010
,
0000
0100
0000
0100
,
0000
1000
0000
0001
,
0000
1000
0100
0100
,
0001
1000
0001
0010
,
0100
0010
0001
0010
,
1000
0001
0100
0010
,
1000
0000
0001
0010
0100
0000
1000
0010
,
0001
0100
1000
0001
,
2002
0000
0000
0000
,
0000
0000
0000
3003
,
0100
0001
0100
0000
,
0010
1000
0001
0000
,
0100
0000
0001
0000
,
0010
0100
0001
0000
,
1000
0000
0001
0000
,
1000
0001
0100
0000
,
0101
0100
1001
0000
,
0100
0000
0010
0001
,
0010
0000
0100
1000
,
0001
0000
0100
0000
,
0010
0000
0001
0000
,
1000
0000
0001
1000
,
0001
0000
0100
0000
,
0010
0000
0001
0000
,
1000
0000
0001
1000
,
0001
0000
0100
0000
,
0010
0000
0001
0000
,
0010
0000
0100
1000
,
0001
0000
0100
0000
,
0010
0000
0001
0010
,
0100
0000
1000
0001
,
1000
0001
0000
0000
;

//--------------- dance-single - ----------------
#NOTES:
     dance-single:
     :
     Medium:
     13:
     0,0,0,0,0:
0000
0000
0000
0000
,
0000
0000
0000
0000
,
0000
0000
0000
0000
,
0000
0000
0000
0000
,
0010
0100
2000
0000
3002
0000
0013
0000
,
1000
0000
0010
0100
1000
0000
0001
0000
,
1001
0010
0100
1000
,
0001
0100
0010
0001
,
0010
0100
1000
0001
,
0010
0000
0100
0000
1000
0000
0001
0100
,
1001
0001
0100
0010
1000
0001
0100
0000
,
0010
1000
0001
0100
0001
0010
0101
0000
,
1000
0001
0100
0010
0001
0010
0100
0000
,
1000
0001
0100
0001
0010
0100
0001
0000
,
1000
0001
0100
0001
,
0010
0100
1000
0000
,
0001
1000
0001
0100
,
0010
0001
0010
0100
,
1000
0000
0001
0010
0100
0000
1000
0001
,
0010
0000
0100
1000
0001
0000
0010
0100
,
0010
1000
0010
0100
0010
0100
0001
0010
,
0200
0010
1000
0301
,
1001
0000
0100
0000
0010
1000
0001
0010
,
0200
0320
0032
2003
,
3010
0100
0001
1000
0002
0000
0013
1000
,
0000
0100
0001
0010
2000
0000
3002
0000
,
1003
0100
0010
1000
0001
0010
0100
0000
,
1000
0001
0100
0010
1000
0001
0010
0000
,
1000
0010
0001
0000
1000
0000
0001
0000
,
0200
0320
1030
1001
,
0200
0000
0310
1000
0001
0000
1000
0001
,
0010
0000
0100
1000
0001
0000
0010
0100
,
1000
0000
1000
0001
0010
0000
0100
0001
,
1000
0001
1010
0000
,
1000
0001
0100
0000
0010
0000
1000
0100
,
0001
0000
0000
0000
0100
0000
0000
0100
0000
0000
0010
0000
0000
0010
0000
0000
,
2002
0000
0000
0000
,
0000
0000
3003
0000
,
1001
0000
0000
0000
0000
0000
0000
0000
0000
0000
0000
0000
0000
0000
0000
0000
0000
0000
0000
0000
0000
0000
0000
0000
0000
0000
0000
0100
0000
0000
0000
0000
0000
0000
0000
0000
0001
0000
0000
0000
0000
0000
0000
0000
0000
0000
1000
0000
,
0000
0001
0100
0000
0010
0000
0000
0001
,
0000
0000
0000
1000
0000
0000
0000
0000
0000
0001
0000
0000
0100
0000
0000
0000
0000
0000
0000
0000
0000
0000
0000
0000
1000
0000
0000
0000
0000
0000
0001
0000
0000
0000
0000
0000
0010
0000
0000
0000
0000
0000
0001
0000
0000
0000
1000
0000
,
0000
0000
0010
0000
0000
0000
0100
0000
0000
0000
0000
0000
0001
0000
0000
0000
0000
0000
1000
0000
0000
0000
0000
0000
0001
0000
0000
0000
0000
0000
1000
0000
0000
0000
0000
0000
0000
0000
0000
0001
0000
0000
0000
0000
0000
0000
0000
0000
,
0100
0000
0000
0000
0010
0000
0000
0100
0000
1000
0000
0000
0001
0000
1000
0000
,
0000
0000
0000
0000
0001
0000
0000
0000
0000
1000
0000
0000
0000
0000
0000
0002
0000
0000
0000
0000
0000
0000
0000
0000
1003
0000
0000
0000
0000
0000
0100
0000
0000
0000
0000
0000
0010
0000
0000
0000
0000
0000
0001
0000
0000
0000
0000
0000
,
0000
0000
0000
0000
1000
0001
0000
0000
1000
0000
0010
0000
0002
0000
0000
0000
,
0000
0000
0000
1003
0000
0000
0000
0000
0000
0001
0000
0000
0100
0000
0000
0000
0001
0000
0000
0000
1000
0000
0000
0000
,
0100
0000
0010
0000
1000
0000
0001
1000
,
0002
0000
0000
0000
1003
0000
0010
0000
0100
0000
0000
0000
0000
0001
1000
0000
,
0000
0000
0000
0001
0000
0000
0000
0000
0000
0010
0000
0000
0000
0000
0000
0000
0000
0000
0000
0000
0000
0000
0000
0000
1000
0000
0000
0000
0000
0000
0001
0000
0000
0000
1000
0000
0000
0000
0001
0000
0000
0000
0000
0000
0000
0000
0000
0000
,
0200
0000
0000
0000
0000
0000
0310
0000
1000
0000
0000
0001
0000
0000
1000
0000
,
0001
0000
0000
0000
0000
0000
2000
0000
0000
0000
0000
0000
3020
0000
0000
0000
0000
0032
0000
0000
0000
0000
0000
0203
,
0000
0000
0000
0000
0000
0000
0020
0300
0000
0000
0000
0000
1030
0000
0000
0001
0000
0000
1000
0000
0000
0001
0000
0000
,
0000
0000
0010
0000
0000
0000
0000
0000
0000
0000
0000
0000
0000
0000
1000
0000
0000
0000
0000
0000
0000
0000
0000
0000
0010
0000
0000
0000
0000
0000
1000
0000
0000
0000
0000
0000
0000
0000
0000
0010
0000
0000
0000
0000
0000
0000
0000
0000
,
0100
1000
0100
0001
1000
0010
0002
0000
,
2003
0000
3001
0100
,
1000
0001
0100
0010
,
2000
0000
3001
0010
,
0100
0001
0020
0000
,
0130
1000
0001
0100
,
0010
0001
0010
0100
,
1000
0001
1000
0001
,
0010
0100
0001
0010
,
1010
0001
0100
0010
,
1000
0010
0001
0000
0100
0000
0000
0000
,
0010
0100
1000
0000
0001
0000
0010
1000
,
0000
0010
0000
0000
0001
0000
0000
1000
0000
0000
0001
0000
0200
0000
0000
0000
,
0310
0000
1000
0000
0001
0100
0001
0000
,
1000
0010
1000
0001
0010
0100
1000
0001
,
0100
0010
1000
0001
,
0100
0001
0010
0100
,
1002
0100
0000
0100
,
2003
0100
0000
0100
,
3002
0010
0000
0010
,
0103
0000
1000
0000
0100
0100
0001
0000
,
1000
0100
0001
0010
0100
1000
0001
0010
,
0100
0001
0010
0100
1000
0001
0100
0010
,
1000
0001
0100
0010
0001
0010
0100
1000
,
0001
0000
1000
0001
1000
0000
0001
1000
,
0001
0100
1000
0010
,
0100
0000
0010
0000
1000
0000
0001
0010
,
0100
0000
0010
1000
0100
0000
0010
0000
,
1001
0000
0100
1000
0010
0100
0010
0100
,
0001
1000
0001
0010
0100
1000
0100
0000
,
0100
0010
0001
0100
0001
0000
0010
0000
,
0100
0010
0001
0100
0001
0000
0001
0000
,
0100
1000
0100
0010
0100
1000
0001
0100
,
0001
0100
0010
0100
0001
0010
0100
1000
,
0020
0000
0230
0000
0301
1000
0001
0000
,
0200
0000
0310
0001
1000
0100
1000
0000
,
0001
0000
0100
0000
1000
0001
0100
0010
,
1000
0000
1000
0000
0010
0001
1000
0010
,
1000
0001
0010
0001
0010
0100
0010
0100
,
1000
0010
0100
0000
1000
0100
1000
0010
,
1000
0001
0100
0001
1000
0100
1000
0001
,
0010
0100
1000
0000
0001
0000
0100
0000
,
1000
0001
0010
0000
0100
0000
1000
0000
,
0001
0010
0100
0000
0001
0000
0010
0000
,
0100
0001
0010
0000
1000
0000
0001
0000
,
0100
0010
1000
0000
0001
0010
0100
0000
,
1000
0001
0010
0100
,
0001
0000
0010
0000
0100
0001
1000
0000
,
0001
0010
0100
0000
0010
1000
0001
0000
,
0010
1000
0001
0000
0000
0000
0000
0000
;

//--------------- dance-single - ----------------
#NOTES:
     dance-single:
     :
     Hard:
     17:
     0,0,0,0,0:
0000
0000
0000
0000
,
0000
0000
0000
0000
,
0000
0000
0000
0000
,
0000
0000
0000
0000
,
0001
0000
0010
0000
0100
0000
1000
0000
0001
0000
0010
0000
0100
0000
0001
0010
,
0100
1000
0100
0001
0010
0100
1000
0001
,
0100
0010
0100
0010
0001
0100
0010
1000
,
0001
0010
0001
0100
0010
0100
0001
0010
,
0001
1000
0100
1000
0100
1000
0001
0010
,
0001
0010
0100
1000
0002
0000
0000
0000
,
1003
0000
0010
0001
0100
0000
1000
0000
0001
0000
0010
0100
1000
0010
0002
0000
,
1003
0000
0000
0000
0100
0000
0001
0000
0020
0000
0000
0000
2030
0000
0000
0000
3001
0000
0000
0000
0010
0000
0100
0000
1000
0100
0001
0000
0010
0000
1000
0000
,
0002
0000
1000
0000
0103
0000
0010
0100
1000
0000
0010
0000
0001
0100
1000
0001
,
0100
0000
0000
0000
0001
0000
1000
0000
0010
0000
0000
0000
1000
0000
0001
0000
0100
0000
0000
0000
1000
0000
0001
0100
0010
0000
0100
0001
1000
0000
0100
0000
,
0001
0100
0010
1000
0100
0010
0100
0010
,
0001
0010
0100
1000
0010
1000
0100
0010
,
0100
1000
0100
1000
0001
1000
0001
0100
,
0010
0100
0010
1000
0100
0010
0100
1000
,
0100
1000
0010
0100
0001
0100
0010
0100
,
0001
1000
0001
0100
0001
0100
0010
0100
,
0010
0100
0010
1000
0010
1000
0100
1000
0001
0010
0001
0010
0001
1000
0010
0100
,
0020
0000
0000
0130
,
1002
0000
0000
0000
0023
0000
0000
0000
0130
0000
1000
0100
0001
0000
0010
0000
,
1000
0000
0000
0000
0100
0000
0000
0000
0010
0000
0000
0000
0001
0000
0000
1000
0000
0000
0010
0000
0000
0100
0000
0000
1000
0000
0000
0000
0000
0000
0001
0000
0000
0000
0000
0000
0010
0000
0000
1000
0000
0000
0100
0000
0000
0001
0000
0000
,
0100
0010
0100
0010
0001
0010
0100
1000
0001
0000
0100
0000
0001
0010
0100
1000
,
0010
0000
0001
0000
1000
0100
0001
0010
1000
0000
0200
0000
0320
0000
0032
0000
,
1003
0000
0100
0000
0010
0100
0001
0010
1000
0100
0001
0010
0100
0000
1000
0000
,
0001
0000
0000
1000
0001
0010
0100
1000
0010
0000
0000
1000
0100
0000
0001
0000
,
0100
0010
0100
1000
0001
0010
0100
1000
,
0010
1000
0100
1000
0100
0010
0100
0010
,
0001
1000
0010
0001
0100
0000
1000
0000
0010
0001
0100
0000
0010
0000
0100
0000
,
0010
0100
1000
0010
0001
0000
0100
0000
0001
0010
0100
0000
0010
0000
0100
0000
,
0001
1000
0010
0100
0010
1000
0010
1000
,
0001
1000
0100
0010
0001
0200
0000
0000
,
0310
0000
0001
0100
1000
0000
0100
0000
0010
0000
0100
0001
1000
0000
0100
0000
,
1000
0100
0010
0000
0200
0300
0000
0200
0300
0000
0020
0030
0000
0020
0030
0000
,
1002
0203
2300
3002
,
0203
0000
0320
0000
2030
0000
0002
3003
,
0110
0000
0000
0000
0000
0000
0000
0000
0000
0000
0000
0000
1000
0000
0000
0000
0000
0000
0001
0000
0000
0000
0000
0000
0000
0000
0000
1000
0000
0000
0000
0000
0000
0000
0000
0000
0010
0000
0000
0000
0000
0000
1000
0000
0000
0000
0001
0000
,
0000
0000
1000
0000
0000
0000
0001
0000
0000
0000
0000
0000
0100
0000
0000
0000
0000
0000
0010
0000
0000
0000
0000
0000
1000
0000
0000
0000
0000
0000
0100
0000
0000
0000
0000
0000
0000
0000
0000
0001
0000
0000
1000
0000
0000
0000
0000
0000
,
0000
0000
0000
0010
0000
0000
0000
0000
0000
1000
0000
0000
0100
0000
0000
0000
0000
0000
0000
0000
0000
0001
0000
0000
0100
0000
0000
0000
0000
0000
1000
0000
0000
0000
0000
0000
0001
0000
0000
0000
0000
0000
0010
0000
0000
0000
1000
0000
,
0000
0000
0001
0000
0000
0000
0100
0000
0000
0000
0000
0000
0010
0000
0000
0000
0000
0000
1000
0000
0000
0000
0000
0000
0001
0000
0000
0000
0000
0000
0100
0000
0000
0000
0000
0000
0000
0000
0000
1000
0000
0000
0000
0000
0000
0000
0000
0000
,
0010
0000
1000
0000
0100
0000
0001
0000
0100
0001
0000
0000
1000
0000
0002
0000
,
0000
0000
0000
0000
1003
0000
0000
0000
0000
0100
0000
0000
0000
0000
0000
0010
0000
0000
0100
0000
0000
0010
0000
0000
0100
0000
0000
0000
0000
0000
1000
0000
0000
0000
0000
0000
0001
0000
0000
0000
0000
0000
0010
0000
0000
0000
0000
0000
,
1000
0000
0001
0000
0100
0001
0000
0000
1000
0000
0001
0000
0000
0000
0010
0000
,
0000
0000
0000
1000
0000
0000
0001
0000
0000
1000
0000
0000
0010
0000
0000
0000
0100
0000
0000
0000
0010
0000
0000
0000
,
0101
0000
0000
1000
0000
0000
0001
0000
0100
1000
0000
0000
0001
0000
0010
0000
,
0200
0000
0000
0000
0301
0000
0010
0000
0100
0000
0000
0000
0000
1000
0001
0000
,
0010
0000
0000
1000
0000
0000
0000
0000
0000
0001
0000
0000
1000
0000
0000
0000
0000
0000
0000
0000
0000
0000
0000
0000
0010
0000
0000
0000
0000
0000
1000
0000
0000
0000
0001
0000
0000
0000
1000
0000
0000
0000
0001
0000
0000
0000
0000
0000
,
0100
0000
0000
0000
0001
0000
0000
0000
1000
0000
0000
0000
0000
0000
0010
0000
0000
0000
0000
0100
0000
0000
0000
0000
1000
0000
0000
0000
0000
0000
0000
0000
0002
0000
0000
0000
0000
0000
0000
0000
0000
0000
0000
0000
2003
0000
0000
0000
0000
0000
0000
0000
0000
0000
0000
0000
3001
0000
0000
0000
0010
0000
0000
0000
,
0100
0000
0000
1000
0000
0000
0010
0000
0000
0100
0000
0000
2000
0000
0000
0000
0000
3002
0000
0000
0000
0000
0000
2003
,
0000
0000
0000
0000
3000
0001
1000
0001
1000
0000
0001
0000
0100
0000
1000
0000
,
0000
0000
0001
0000
0000
0000
0100
0000
0000
0000
0000
0000
0000
0000
1000
0000
0000
0000
0001
0000
0000
0000
0000
0000
0100
0000
0000
0000
0000
0000
0001
0000
0000
0000
0000
0000
0000
0000
0000
0001
0000
0000
0000
0000
0000
0010
0000
0000
,
0100
0001
1000
0000
0010
0000
0001
0000
0010
0000
0100
0000
2000
0000
0000
0000
,
3001
0100
0001
0010
0100
1000
0100
0010
,
0001
1000
0100
0010
0100
1000
0001
0010
,
0001
1000
0100
1000
0010
0100
0010
1000
,
0010
1000
0100
0010
0200
0000
0000
0000
,
0301
0000
0100
0000
0010
0000
0001
0000
0010
1000
0000
0001
0100
0000
0010
0000
,
1000
0100
0000
0000
0001
0010
0000
0000
0100
1000
0001
0000
0100
0000
0000
0000
,
0010
1000
0100
0010
0001
0010
0100
1000
,
0001
1000
0001
1000
0001
0100
0010
1000
0010
0100
0000
0000
,
0101
0000
0001
0010
0100
0010
0001
0010
,
0100
1000
0010
0100
0001
0010
0001
0100
,
0001
1000
0010
0100
0010
1000
0010
1000
,
0010
0100
0000
0001
0100
0000
1000
0100
0000
0001
0100
0000
1000
0000
0001
0000
,
0101
0000
0001
0100
0001
1000
0010
0100
,
0001
0010
0001
0100
0010
1000
0010
0100
,
0010
0000
0100
0000
0001
0000
1000
0000
0010
0000
1000
0000
0010
0000
1000
0100
,
0001
0010
0100
0010
0001
1000
0100
0010
,
0002
2003
3020
0230
0302
2003
3200
0320
,
0032
0203
0320
2030
3002
0203
0320
2030
,
3001
0010
0100
0000
0101
0000
1000
0001
0010
0100
1000
0000
1001
0000
0100
0001
,
0010
0000
0100
0000
1000
0000
0000
0000
1001
0000
0000
0000
0100
0000
0000
0000
0010
0000
0001
0000
0100
0000
0001
0000
1000
0100
0010
0000
0100
0000
0001
1000
,
0100
1000
0100
0010
0001
1000
0100
0010
,
0100
1000
0001
0100
0010
0100
0010
1000
,
0001
1000
0010
0001
0100
0010
1000
0001
0100
0010
1000
0001
0100
0010
0100
1000
,
0100
0000
0100
0000
0001
0000
0001
0000
0010
0100
0001
1000
0100
1000
0100
0001
,
0020
2030
3002
0103
,
1001
0000
0002
0000
2003
0000
3002
0203
,
0000
2300
3002
0000
1003
0100
1010
0000
,
0100
1000
0001
0100
0001
0100
0010
0100
,
0001
1000
0010
0100
0001
1000
0100
1000
,
0100
1000
0010
0100
0001
1000
0100
0010
,
0100
1000
0001
0100
0001
0010
0001
0100
,
0010
0100
0001
0100
0010
1000
0001
0010
,
0100
1000
0001
0100
0010
0100
0001
1000
,
0020
0000
0000
0000
2030
0000
0000
0000
3200
0000
0000
0000
0000
0300
0001
0100
1000
0000
0000
0000
0100
0000
0010
0000
1000
0000
0000
0000
0010
0000
0000
0000
,
1000
0001
0100
0010
0001
0100
0001
0100
,
0010
1000
0001
1000
0100
1000
0010
0100
,
0001
1000
0001
0010
0001
1000
0100
1000
,
0100
0010
0100
0010
0001
0100
0001
1000
,
0001
0010
0100
0010
2000
0000
3002
0000
,
0203
0000
0000
0000
0310
0000
0000
0000
1000
0001
0100
0010
0100
0001
0010
0100
,
1000
0100
0010
1000
0001
0000
0010
0000
0100
0000
0000
0000
0000
0000
0000
0000
0001
0000
0000
0000
0010
0000
0000
0000
0001
0000
0000
0000
0100
0000
0000
0000
,
0010
0100
0010
1000
0100
0010
0001
0010
,
0001
0100
0001
0010
0100
0010
0001
0010
,
0100
1000
0001
0100
0010
0100
0001
1000
,
0100
0010
0100
1000
0010
1000
0010
0100
,
0001
0010
0001
0010
0100
0010
0001
0100
,
0010
0100
0010
0100
0001
1000
0100
1000
,
0100
1000
0010
0100
0010
1000
0100
1000
,
0001
1000
0010
0000
0000
0000
0000
0000
;
