
//----- song ID: srshs -----//
#TITLE:スラッシュ//シスターズ;
#ARTIST:はるなば with すずしろ & 桃箱;
#TITLETRANSLIT:Thrash//Sisters;
#ARTISTTRANSLIT:Harunaba with Suzushiro & Momobako;
#GENRE:Boo! Trick or Treat!;
#MUSIC:Thrash Sisters.ogg;
#BANNER:Thrash Sisters.png;
#BACKGROUND:Thrash Sisters-bg.png;
#CDTITLE:./CDTitles/SDVX IV HEAVENLY HAVEN.png;
#SAMPLESTART:63.994;
#SAMPLELENGTH:15.000;
#SELECTABLE:YES;
#OFFSET:0.000;
#BPMS:0.000=210.000;
#STOPS:;
#BGCHANGES:;
#FGCHANGES:;

//--------------- dance-single - ----------------
#NOTES:
     dance-single:
     :
     Beginner:
     7:
     0,0,0,0,0:
0000
0000
0000
0000
,
0000
0000
0000
0000
,
0000
0000
0000
0000
,
0000
0000
0000
0000
,
0000
0000
0000
0000
,
0000
0000
0000
0000
,
1000
0000
0001
0000
0100
0000
0000
0001
,
0000
1000
0001
0100
,
0020
0000
1030
0000
,
0010
0001
1000
0000
0100
0000
0001
0000
,
1000
0000
0001
0000
,
0100
0000
1000
0000
,
0001
0000
0100
0000
,
0010
1000
0001
0000
,
0100
0000
1000
0000
,
0001
0000
0100
0000
,
0010
0000
0100
0000
1000
0000
0000
0001
,
0000
1000
0000
0001
0000
0000
0000
0000
,
1000
0000
0001
0000
,
0010
0100
1000
0000
,
0001
0000
0010
0000
,
0100
0000
0010
0000
,
0001
1000
0001
0000
,
0100
0000
0010
0000
,
0100
1000
0001
0000
,
0100
0000
0010
0000
,
1000
0001
0100
0000
,
0010
0000
0100
0000
,
2000
0000
3001
0000
,
0100
0000
0001
0100
,
0010
0000
0100
0000
,
1000
0000
0001
0000
,
0100
0010
0001
0000
,
1000
0000
0001
0000
,
0100
0000
0010
0000
,
0100
0000
1000
0000
,
0001
0000
0100
0000
,
0010
0100
1000
0000
,
0001
0000
0001
0000
,
1000
0001
0100
0000
,
0010
0000
0100
0000
,
1000
0001
0100
0000
,
0020
0000
0030
0000
,
0100
0000
0001
0000
,
2000
0000
3000
0000
,
0001
0000
0100
0000
,
0002
0000
0003
0000
,
0010
0000
0000
0100
,
1000
0000
0001
0000
,
0000
0000
0100
1000
,
0001
0000
0100
0000
,
0010
0000
0100
0000
,
1000
0000
0001
0000
,
0100
0010
0100
0000
,
1000
0000
0000
0000
,
0001
0000
0010
0000
,
1001
0000
0100
0000
,
0010
0001
0010
0000
,
0100
0000
1000
0000
,
0001
0000
0100
0000
,
0010
0000
0100
0000
,
1000
0000
0001
0000
,
0100
0000
0010
0000
,
0001
0000
0000
0000
,
1001
0000
0100
0000
,
0010
0000
1000
0000
,
0001
0000
0100
0000
,
0010
0100
1000
0000
,
0001
0000
0000
0000
,
1000
0000
0000
0000
,
0002
0000
0000
0000
,
0103
0000
0000
0000
,
1000
0000
0100
0000
,
0010
0000
0000
0000
,
0001
0000
0010
0000
,
0100
0000
0000
0000
,
1000
0000
0001
0000
,
0100
0000
0000
0000
,
0010
0000
0100
0000
,
1000
0000
0000
0000
,
0001
0000
0000
0000
,
1000
0000
0000
0000
,
0001
0000
0000
0000
,
0100
0000
0000
0000
,
0010
0000
0000
0000
,
0100
0000
0000
0000
,
1000
0000
0001
0000
,
0010
0000
0000
0000
,
1000
0000
0000
0000
,
0001
0000
0000
0000
,
0010
0000
0000
0000
,
0100
0000
0000
0000
,
0010
0000
0000
0000
,
0100
0000
0000
0000
,
1000
0000
0001
0000
,
0100
0000
0000
0000
,
0010
0000
0000
0000
,
0100
0000
0000
0000
,
1000
0000
0000
0000
,
0001
0000
0000
0000
,
0010
0000
0100
0000
,
1000
0000
0000
0000
,
0001
1000
0001
0000
,
0100
0000
0010
0000
,
0100
0000
0000
0000
;

//--------------- dance-single - ----------------
#NOTES:
     dance-single:
     :
     Easy:
     10:
     0,0,0,0,0:
0000
0000
0000
0000
,
0000
0000
0000
0000
,
0000
0000
0000
0000
,
0000
0000
0000
0000
,
0000
0000
0000
0000
,
0000
0000
0000
0000
,
0001
0000
1000
0000
0010
0000
0000
1010
,
0000
0101
1000
0010
,
0200
0000
0301
0000
,
0100
1000
0001
0000
0010
0000
1000
0000
,
0001
0010
1000
0100
,
0010
0100
0001
0010
,
1000
0001
0010
1000
,
0100
0001
1000
0110
,
0010
1000
0001
0010
,
1000
0100
0010
1000
,
0100
0000
0010
0000
0001
0000
0100
1000
,
0000
0001
0000
1000
0100
0001
1000
0000
,
0001
0100
1000
0001
,
0100
0010
0001
0100
,
1000
0001
0100
1000
,
0010
0001
0100
0000
,
1000
0001
1000
0100
,
0020
0000
0130
1000
,
0010
0001
1000
0100
,
0010
0001
0100
0010
,
0001
1000
0010
0000
,
0100
1000
0010
1000
,
0001
0000
1000
0000
,
0010
0001
1000
0010
,
0100
0001
0010
1000
,
0001
0000
1000
0100
,
0010
0100
1000
0010
,
0001
0100
2000
0000
,
3010
0000
1100
0000
,
0010
0000
0101
0000
,
1000
0001
0010
1000
,
0100
0010
0001
0000
,
1000
0000
1001
0000
,
0001
1000
0110
0000
,
0100
0000
0010
0000
,
0001
1000
0010
0001
,
0200
0000
0000
0001
0300
0000
1000
0000
,
0010
0000
1000
0000
,
0002
0000
0000
1000
0003
0010
0000
0100
,
1000
0000
0010
0001
,
2000
0000
0000
0010
3000
0000
0100
0000
,
0100
1000
0000
0001
0000
0000
0010
0000
,
0001
0000
0000
0000
1000
0000
0000
0010
,
0000
0000
0010
0001
,
1000
0000
0010
0000
,
0100
1000
0010
0000
,
0001
0100
1000
0000
,
0010
0100
0010
0000
,
0001
1000
0001
0000
,
1000
0001
0100
0000
,
1001
0100
0010
0001
,
0100
1000
0100
0001
,
0010
1000
0001
0100
,
1000
0100
0010
0001
,
0100
1000
0010
1000
,
0001
0010
1000
0100
,
0010
0001
0100
0001
,
1000
0010
0200
0300
,
1001
1000
0010
0000
,
0100
0100
0001
0000
,
1000
0001
0010
0000
,
0100
0010
0001
0100
,
1000
0000
0100
0000
,
0001
0000
0100
0000
,
2000
0000
0000
0000
,
3010
0000
1000
0000
,
0001
1000
0010
0000
,
0100
0000
0010
0000
,
1000
0001
0100
0000
,
0010
0000
1000
0000
,
0001
0010
1000
0000
,
0010
0000
0001
0000
,
0100
1000
0010
0000
,
0001
1000
0001
0000
,
1000
0000
0100
0000
,
0001
0000
0010
0000
,
1000
0001
1000
0000
,
0010
1000
0001
0000
,
0100
0000
1000
0000
,
0010
0000
0000
0000
0001
1000
0010
0000
,
0001
0000
0010
0000
1000
0001
0000
2000
,
0000
0000
0000
0000
,
3001
0010
0001
0000
,
1000
0100
0001
0000
,
0100
0010
1000
0000
,
0010
0001
1000
0000
,
0100
0001
1000
0000
,
0010
0100
0001
0000
,
0001
0100
1000
0000
,
0010
1000
0001
0000
,
0100
0010
0100
0000
,
0010
0000
1000
0000
,
0001
0100
1000
0010
,
1000
0000
0100
0000
,
0100
0001
0010
0000
,
0001
1000
0001
0000
,
1000
0001
1000
0000
,
0010
1000
0100
0000
,
0110
0000
0000
0000
;

//--------------- dance-single - ----------------
#NOTES:
     dance-single:
     :
     Medium:
     13:
     0,0,0,0,0:
0000
0000
0000
0000
,
0000
0000
0000
0000
,
0000
0000
0000
0000
,
0000
0000
0000
0000
,
0000
0000
0000
0000
,
0000
0000
0000
0000
,
0001
0100
1000
0000
0110
0000
1000
1010
,
0000
0101
1001
0110
,
0001
0100
1000
0010
0001
0000
0010
0000
,
0100
1000
0001
0000
0010
0000
1001
0000
,
0001
1000
0010
0000
1000
0001
0100
0000
,
0010
1000
0100
0000
0001
0100
0010
0000
,
1000
0100
0001
0000
0010
0001
1000
0000
,
0100
1000
0001
0000
1001
0000
0110
0000
,
0010
0000
1000
0100
0001
0000
0010
0001
,
1000
0000
0100
1000
0010
0000
1000
0001
,
0100
0000
0010
1000
0001
0000
0100
1000
,
0000
0001
0000
1000
0100
0001
1000
0000
,
1001
0000
0100
0001
1000
0000
0001
0000
,
0100
1000
0010
0000
0001
0000
0100
0000
,
1000
0010
0001
0000
0100
0000
1000
0000
,
0010
1000
0001
0000
0100
0000
0001
0000
,
1000
0010
0001
0000
1000
0000
0100
1000
,
0020
1000
0130
1000
,
0010
0100
0001
0000
1000
0001
0100
0000
,
0010
1000
0001
0000
0100
0001
0010
0000
,
0001
0000
1000
0000
0010
0000
1000
0001
,
0100
1000
0010
1000
,
0002
0000
0103
0000
1000
0000
0001
1000
,
0010
0000
0001
0000
1000
0001
0010
0000
,
0100
1000
0001
0000
0010
0100
1000
0000
,
0001
0000
0010
0000
1000
0001
0100
1000
,
0010
0000
0100
0000
1000
0001
0010
0100
,
0001
0100
2000
0001
,
3010
0000
0001
0000
1100
0000
0000
1000
,
0010
0001
0101
0010
,
1000
0000
0001
1000
0010
0000
1000
0001
,
0100
1000
0010
0000
0001
0000
0010
0000
,
1000
0001
0100
0000
1001
0000
0100
1000
,
0001
1000
0110
0001
,
0100
1000
0001
0000
0110
0000
1000
0100
,
0001
1000
0010
0001
,
0210
0000
0000
0001
0300
0000
1000
0100
,
0010
0001
1000
0100
,
0002
0000
0000
1000
0003
0010
0000
0100
,
1000
0001
0010
0001
,
2000
0000
0000
0010
3000
0000
0100
0001
,
0100
1000
0000
0001
1000
0000
0010
1000
,
0001
0000
0010
0000
1000
0001
0000
0010
,
0000
1000
0100
1000
0010
0000
0001
0000
,
1000
0001
0100
0000
0010
0000
0001
0000
,
0100
0000
1000
0100
0010
0000
1000
0000
,
0001
0000
0100
0001
1000
0000
0001
0000
,
0010
1000
0100
0000
0010
0000
1000
0000
,
0001
0100
1000
0000
0001
1000
0100
0000
,
1000
0100
0000
0001
0100
0000
0110
0000
,
1001
0000
0100
1000
0010
0000
0001
0000
,
0100
0001
1000
0000
0100
0000
0001
0000
,
0010
0100
1000
0000
0001
0010
0100
0000
,
1000
0100
0010
0001
,
0100
0001
1000
0000
0010
0000
1000
0000
,
0001
0100
0010
0000
1000
0000
0100
0000
,
0010
1000
0001
0000
0010
0100
0001
0000
,
1000
0010
0200
0301
,
1001
0000
1000
0100
0010
0000
1000
0000
,
0100
0001
0100
0000
0001
0000
0010
0000
,
1000
0001
0010
1000
,
0100
0010
0001
0100
,
1000
0000
0001
1000
0100
0000
1000
0000
,
0001
0000
0010
1000
0100
0000
0001
0000
,
2000
0000
0000
0000
,
3010
0001
1000
0100
,
0001
0100
1000
0000
0010
0000
0001
0000
,
0100
0001
1000
0000
0010
0000
0100
0000
,
1000
0100
0001
0000
0100
0000
0001
0000
,
0010
0001
0100
0000
1000
0000
0100
0000
,
0001
0100
0010
0000
1000
0000
0001
0000
,
0010
0100
1000
0000
0001
0000
0010
0000
,
0100
0001
1000
0000
0010
0000
1000
0000
,
0001
0010
1000
0000
0001
0000
0010
0000
,
1000
0010
0000
0001
0000
1000
0000
0001
,
0000
0100
0000
1000
0000
0001
0100
0000
,
1000
0000
0001
0010
1000
0100
0000
0010
,
0000
1000
0000
0001
0000
0010
0000
1000
,
0110
0000
0001
0000
1000
0000
0001
0100
,
0010
0000
0100
0000
0001
1000
0010
0100
,
0001
0000
0010
0100
1000
0001
0100
2000
,
0000
0000
0000
0000
,
3001
0000
0010
1000
0001
0000
0010
0000
,
1000
0000
0100
0010
0001
0000
1000
0000
,
0100
0000
0010
0001
1000
0000
0100
0000
,
0010
0000
0001
0010
1000
0000
0001
0000
,
0100
0000
0001
0010
1000
0000
0001
0000
,
0010
0000
0100
1000
0001
0000
1000
0000
,
0001
0000
0100
0001
1000
0000
0001
0000
,
0010
1000
0001
0010
,
0100
1000
0010
0000
0100
0000
1000
0000
,
0010
0100
0001
0000
1000
0000
0010
0000
,
0001
0010
0100
0000
1000
0000
0010
0000
,
1000
0010
0001
0000
0100
0000
1000
0000
,
0100
1000
0001
0000
0010
0000
1000
0000
,
0001
0100
1000
0000
0001
0000
0100
0000
,
1000
0100
0001
0000
1000
0001
0100
0000
,
0010
0001
1000
0000
0100
1000
0001
0000
,
0220
0000
0330
0000
;

//--------------- dance-single - ----------------
#NOTES:
     dance-single:
     :
     Hard:
     17:
     0,0,0,0,0:
0000
0000
0000
0000
,
0000
0000
0000
0000
,
0000
0000
0000
0000
,
0000
0000
0000
0000
,
0000
0000
0000
0000
,
0000
0000
0000
0000
,
1000
0100
0001
0000
1000
0001
0100
0000
0001
0000
0100
0010
0100
0000
1001
0000
,
0100
0010
0100
0000
1000
0001
0100
0000
0001
0000
1000
0100
0010
0000
0001
0000
,
0010
0000
0100
0000
1000
0000
0001
0000
0100
0001
0010
0000
1000
0100
0001
0000
,
0100
0000
0010
0000
1000
0001
0100
0000
1000
0000
0100
0010
0001
1000
0100
0000
,
1001
0100
0010
0001
1000
0001
0100
0010
,
0100
0000
0010
1000
0100
0000
0001
0000
0010
0000
0001
0100
1000
0000
0001
0000
,
0010
0000
0100
0000
0010
0001
0100
1000
0010
0000
0001
0000
0100
0000
0010
1000
,
0100
0000
0001
0000
1000
0001
0100
0000
1000
0001
0100
0000
2000
0000
0000
0000
,
3010
0000
0100
0001
0010
0000
0100
0000
1000
0000
0100
0000
0010
0000
0001
0100
,
1000
0000
0010
0000
1000
0000
0100
0001
1000
0000
0100
0000
0010
0000
0100
0001
,
1000
0010
1000
0001
0010
0001
1000
0101
,
0000
0000
1001
0000
0000
0000
0100
0000
0010
0000
1000
0000
0001
1000
0100
0000
,
0010
0001
1000
0000
0010
0000
0100
0000
0001
1000
0010
0000
0100
0000
0010
1000
,
0001
0000
0010
0000
0100
0001
1000
0000
0100
0000
0010
0000
0001
0000
0100
0010
,
0001
0000
0010
0000
0100
0000
0010
1000
0001
0000
1000
0000
0001
0010
0100
0000
,
0000
0000
0100
0000
0010
0000
0100
0000
0001
1000
0010
0001
0100
0000
1000
0000
,
0100
0000
1000
0000
0100
1000
0010
0000
0001
0000
0100
0000
0001
0000
0100
0000
,
0010
0100
1000
0001
0100
0000
0010
0001
0100
0010
1000
0000
0001
0000
1000
0000
,
0001
0000
0100
1000
0001
0000
0010
0000
0100
0000
0010
0000
0001
0000
1000
0010
,
0001
0000
1000
0000
0100
0000
0010
0001
0100
0000
1000
0000
0100
0000
0010
0000
,
0001
1000
0001
0100
0010
0100
0001
1000
,
0100
0000
0010
0000
0100
0000
0010
1000
0001
0000
0100
0000
0010
0100
1000
0000
,
0001
0000
0010
0000
0001
0000
0100
0000
0001
1000
0010
0000
0100
0000
0010
0000
,
0001
0000
0100
0001
0010
0000
1000
0000
0010
0000
1000
0000
0010
0000
0100
0000
,
0001
1000
0010
0100
0001
0000
1000
0000
0010
0000
1000
0000
0100
0000
0010
0001
,
0100
0000
0010
0000
0001
0000
1000
0010
0001
0000
0100
0000
0010
0000
0100
0000
,
0010
0000
1000
0000
0100
0001
1000
0000
0001
0000
1000
0000
0001
0000
2002
0000
,
0000
0000
3003
0000
1000
0001
0100
0000
0010
1000
0001
0000
0010
0100
1000
0001
,
0100
0000
0001
0000
0010
1000
0100
0000
0010
0000
0100
0000
0010
0000
0001
0010
,
0100
0000
0001
0000
0100
1000
0001
0000
0010
0000
0100
0000
0010
0000
0001
0000
,
0010
0000
0100
0000
1000
0001
0010
1000
0100
0000
0010
0000
0100
0000
0001
0000
,
1000
0000
0100
0000
1000
0000
0010
0000
1000
0010
0000
0100
0010
0000
0001
0000
,
1000
0100
0001
0000
0010
0000
0100
0001
1000
0000
0100
0000
0010
0000
0100
1000
,
0010
0000
0001
0000
0010
1000
0000
0001
0100
0000
0010
0000
0100
1000
0010
0000
,
0100
0010
0001
0000
1000
0000
0010
0000
0100
0000
0001
0000
0010
0000
0001
0010
,
0100
0010
0100
0010
1000
0001
0010
0001
,
0101
0000
0000
0000
0100
0000
0110
0000
0000
0000
1000
0001
0100
0010
0100
1000
,
0001
0020
0000
0000
0000
0000
0000
0000
,
1030
0100
1000
1001
0000
0101
0000
1001
,
0000
0100
1000
0100
1000
0100
0010
0100
,
0101
0000
0010
0110
0000
0010
1010
0000
,
0100
1010
0000
0010
0101
0000
1001
0000
,
0010
0100
0010
0100
0010
1000
0001
1000
,
0001
0100
0001
0100
0010
0100
0010
1000
,
0110
0000
1000
1001
0000
1000
1010
0000
,
0010
1001
0000
0100
0101
0000
0001
0100
,
0010
1100
0101
1010
,
0101
1010
0110
1001
,
0100
0010
0100
0010
0001
0010
0001
1000
,
0020
0000
0000
0130
,
0100
0000
0010
1000
0001
0000
0010
0000
0001
0100
1000
0000
0010
0000
0100
0000
,
0001
1000
0010
0100
0001
0000
0100
0000
0001
0000
0010
0001
0100
0000
1000
0000
,
0010
0001
1000
0000
0100
1000
0010
0000
0100
0000
1000
0000
0001
0000
1000
0001
,
0010
1000
0100
0000
0010
0000
1000
0000
0010
0001
1000
0010
0100
0000
1000
0000
,
0100
0000
0010
0000
0100
1000
0000
0010
0001
0000
0010
0000
0001
0000
0100
0000
,
0010
0000
1000
0000
0010
0100
0000
0001
0010
0000
1000
0000
0001
0000
0100
0000
,
0010
0100
0000
1000
0001
0000
0010
0000
0100
0000
0010
0000
0100
0000
1000
0000
,
0001
0100
0000
1000
0001
0000
0100
0000
0001
0000
1000
0000
0100
0000
1000
0000
,
0100
0000
0010
1000
0100
0000
0010
0000
0001
0000
0010
0000
0001
0000
0100
1000
,
0001
0100
0010
0000
0100
0000
1000
0010
0001
0000
1000
0000
0100
0001
1000
0000
,
0100
0000
0010
0000
0001
0100
1000
0000
0010
0000
0100
0001
0010
0000
0100
0000
,
0010
0000
1000
0001
0100
0000
0010
0000
0001
0000
1000
0000
0001
0000
1000
0000
,
0010
0100
1000
0000
0100
0000
0010
1000
0001
0000
0100
0000
0010
0100
0000
1000
,
0010
0000
1000
0000
0010
0000
0100
0010
0001
0000
0100
0000
0001
0000
0100
0000
,
2000
0000
0000
3001
0000
0100
1000
0000
,
0002
0000
0203
1300
,
0100
0000
1000
0000
0001
0000
0010
0000
0100
1000
0000
0001
0100
0000
0010
0000
,
0001
0000
1000
0000
0001
0000
0100
0000
0010
0001
1000
0000
0001
0000
0010
0000
,
0100
0000
0010
0000
0100
0000
0010
0000
0001
0100
0000
1000
0001
0000
0100
0000
,
0001
0000
0100
0000
0010
0000
0100
0000
0010
0100
1000
0000
0001
0000
1000
0000
,
0001
0000
0100
0000
0001
0100
0000
1000
0010
0000
0100
0000
0001
0000
0010
0000
,
0001
0000
1000
0000
0010
0100
0000
1000
0001
0000
0100
0000
0010
0000
1000
0000
,
0100
0000
1000
0000
0010
0100
0000
1000
0100
0000
0010
0000
0100
0000
1000
0000
,
0100
0000
0010
0000
0001
0000
0010
1000
0001
0000
0100
0000
0010
0000
1000
0000
,
0200
0000
0000
0010
0000
0010
0000
0010
,
0000
0000
0010
0000
0000
0000
0010
0000
0000
0000
0310
0000
1000
0010
0001
0000
,
0200
0000
0000
0001
0000
0001
0000
0001
,
0000
0001
0000
0001
0000
0001
0000
0301
,
1000
0001
0100
0000
0010
0000
1000
0000
0100
0001
0000
1000
0010
0000
1000
0001
,
0000
0010
0100
0000
1000
0000
0010
0000
0100
0000
0010
0000
0100
0000
0010
0100
,
1000
0000
0001
0000
0010
0000
0001
1000
0010
0000
0100
0001
0010
0000
2000
0000
,
0000
0000
0000
0000
0000
0000
3001
0010
,
0100
1000
0001
0000
0100
0000
0010
0000
1000
0001
0100
0000
0010
0000
0100
0001
,
1000
0000
0100
0000
0010
1000
0001
0000
0010
0000
0100
0000
1000
0000
0010
0100
,
1000
0000
0100
0000
0010
0000
0100
0001
1000
0000
0001
0000
1000
0100
0010
0000
,
0000
0000
0010
0000
0100
0000
0010
0000
1000
0001
0100
1000
0010
0000
0001
0000
,
0010
0000
0001
0000
0010
0001
0100
0000
1000
0000
0010
0000
1000
0000
0010
0000
,
0100
0010
0001
1000
0010
0000
0100
1000
0010
0100
0001
0000
1000
0000
0001
0000
,
1000
0000
0010
0001
1000
0000
0100
0000
0010
0000
0100
0000
1000
0000
0001
0100
,
1000
0000
0001
0000
0010
0000
0100
1000
0010
0000
0001
0000
0010
0000
0100
0000
,
1000
0001
1000
0010
0100
0010
1000
0001
,
0010
0000
0100
0000
0010
0000
0100
0001
1000
0000
0010
0000
0100
0010
0001
0000
,
1000
0000
0100
0000
1000
0000
0010
0000
1000
0001
0100
0000
0010
0000
0100
0000
,
1000
0100
0001
0010
0100
1000
0001
0000
,
0010
0001
1000
0000
0010
0000
0100
0000
0001
1000
0010
0000
0100
0000
0010
1000
,
0001
0000
0010
0000
0100
0001
1000
0000
0100
0000
0010
0000
0001
0000
0100
0010
,
0001
0000
0010
0000
0100
0000
0010
1000
0001
0000
1000
0000
0001
0010
0100
0000
,
0000
0000
0100
0000
0010
0000
0100
0000
0001
1000
0010
0001
0100
0000
1000
0000
,
2002
0000
3003
0000
;
