#TITLE:The Power of Love;
#SUBTITLE:TVアニメ「カンフー・ソック」;
#SUBTITLETRANSLIT:TV Anime「Kung Fu Sock」;
#GENRE:キッズ;
#MUSIC:The Power of Love.ogg;
#BANNER:The Power of Love.png;
#BACKGROUND:The Power of Love-bg.png;
#CDTITLE:./CDTitles/NSD A3 (Chinese).png;
#SAMPLESTART:30.399;
#SAMPLELENGTH:15.000;
#SELECTABLE:YES;
#OFFSET:0.000;
#BPMS:0.000=142.029;
#STOPS:;
#BGCHANGES:;
#FGCHANGES:;

//--------------- dance-single - ----------------
#NOTES:
     dance-single:
     :
     Beginner:
     1:
     0,0,0,0,0:
0000
0000
0000
0000
,
0000
0000
0000
0000
,
1000
0000
0000
0000
,
1000
0000
0000
0000
,
0001
0000
0000
0000
,
0001
0000
0000
0000
,
0010
0000
0000
0000
,
0010
0000
0000
0000
,
0100
0000
1000
0000
,
0001
0000
0000
0000
,
2000
0000
0000
0000
,
3000
0000
0000
0000
,
0002
0000
0000
0000
,
0003
0000
0000
0000
,
0020
0000
0030
0000
,
0200
0000
0300
0000
,
0010
0000
1000
0000
,
0001
0010
0100
0000
,
1001
0000
0100
0000
,
0010
0000
0001
0000
,
0000
1000
0000
0000
,
0001
0000
0010
0100
,
1000
0000
0000
0000
,
0001
0000
0000
0000
,
0010
0000
0100
0000
,
1000
0001
0010
0000
,
1001
0000
0000
0000
;

//--------------- dance-single - ----------------
#NOTES:
     dance-single:
     :
     Easy:
     5:
     0,0,0,0,0:
0000
0000
0000
0000
,
0000
0000
0000
0000
,
1000
0000
0000
0000
,
1000
0000
0000
0000
,
0001
0000
0000
0000
,
0001
0000
0000
0000
,
0001
0000
0000
0000
,
0010
0000
0000
0000
,
0100
0000
0010
0000
,
0100
0000
1000
0000
,
0001
0000
0000
0000
,
0010
0000
0000
0000
,
0100
0000
0000
0000
,
0010
0000
0100
0000
,
1000
0000
0000
0000
,
0001
0000
0010
0000
,
2000
0000
0000
3000
0000
0002
0000
0000
,
1003
0000
0000
0000
,
1001
0000
0100
0000
,
0010
0001
0010
0000
,
1000
0000
0001
0000
,
0010
0100
1000
0000
,
0010
0000
0100
0000
,
1000
0000
0001
0000
,
0010
0000
0100
0000
,
1000
0001
1000
0000
,
1001
0000
0000
0000
;

//--------------- dance-single - ----------------
#NOTES:
     dance-single:
     :
     Medium:
     7:
     0,0,0,0,0:
0000
0000
0000
0000
,
0000
0000
0000
0000
,
1000
0100
0001
1000
,
0001
0010
0100
0001
,
0010
0100
0001
1000
,
0001
0100
0010
0100
,
1000
0001
0100
0010
,
1000
0001
0100
0010
,
1000
0001
0100
0010
,
2000
0000
3002
0000
,
1003
0000
0100
0000
,
0010
0000
0001
0000
,
0010
0000
0100
0000
,
1000
0001
2002
3003
,
0100
0000
0010
0000
,
1000
0001
0100
0000
,
0001
1000
0001
0100
,
0010
1000
0001
0100
0000
0000
0000
0000
,
1001
0000
0100
0000
0010
1000
0001
0000
,
0100
0000
0010
0000
0001
1000
0001
0000
,
0100
0000
0010
0000
1000
0001
0100
0000
,
0010
1000
0001
0100
,
0010
0000
0001
0000
1000
0001
0100
0000
,
0100
0000
0010
0000
1000
0001
0100
0000
,
0010
0110
1000
0110
,
0001
0000
0110
0000
1000
0001
1000
0000
,
1001
0000
0000
0000
;

//--------------- dance-single - ----------------
#NOTES:
     dance-single:
     :
     Hard:
     10:
     0,0,0,0,0:
0000
0000
0000
0000
,
0000
0000
0000
0000
,
1000
0000
0001
0010
0100
1000
0000
0002
,
0000
0000
0103
0000
0010
0100
0000
0001
,
1000
0000
0010
0001
0100
1000
0000
0001
,
0010
2000
0002
3003
,
0010
0100
1000
0001
0100
1000
0010
0000
,
0010
0100
1000
0001
0010
0000
0100
0000
,
0010
1000
0001
0000
0100
0010
0100
0000
,
2000
3002
0200
0303
,
1000
0001
0100
0000
0010
0100
1000
0000
,
0001
1000
0001
0000
0100
0010
0100
0000
,
1000
0001
1000
0000
0001
0100
0010
0000
,
0100
1000
0001
0000
0100
0001
0100
0000
,
1000
0001
0100
0000
0010
0100
1000
0000
,
0001
1000
0001
0000
0100
0010
0100
0000
,
1000
0001
0100
0010
0100
1000
0001
0010
,
2000
0010
0001
3001
,
0001
1000
0001
0000
0100
0010
0100
0000
,
1000
0001
0100
0010
0001
0000
0010
0000
,
0100
1000
0001
0010
0100
0000
1000
0000
,
0001
1000
0001
0100
0010
0100
1000
0001
,
0100
0000
0010
0000
0100
1000
0001
0010
,
0100
0000
0010
0000
1000
0001
0100
0010
,
0100
0000
1000
0001
0100
0000
1000
0001
,
0100
0000
0010
0000
0100
1000
0001
0000
,
1001
0000
0000
0000
;

//--------------- dance-single - ----------------
#NOTES:
     dance-single:
     :
     Challenge:
     11:
     0,0,0,0,0:
0000
0000
0000
0000
,
0000
0000
0000
0000
,
1000
0100
0001
0010
0100
1000
0010
0002
,
1000
0000
0103
0000
0010
0100
0010
0001
,
1000
0100
0010
0001
0100
1000
0010
0001
,
0010
0100
2000
0000
0002
0000
3003
0000
,
0010
0100
1000
0001
0100
1000
0010
0001
,
0010
0100
1000
0001
0010
1000
0100
0001
,
0010
1000
0001
1000
0100
0010
0100
0001
,
2000
3002
0200
0303
,
1000
0001
0100
0001
0010
0100
1000
0100
,
0001
1000
0001
1000
0100
0010
0100
0001
,
1000
0001
1000
0100
0001
0100
0010
1000
,
0100
1000
0001
0010
0100
0001
0100
0010
,
1000
0001
0100
0000
0010
0100
1000
0000
,
0001
1000
0001
0000
0100
0010
0100
0001
,
1000
0010
0001
0000
0100
1000
0010
0000
0100
0001
1000
0000
0001
0100
0010
0000
,
2000
0010
0001
3001
,
0001
1000
0001
0010
0100
0010
0100
0001
,
1000
0001
0100
0010
0001
1000
0010
0001
,
0100
1000
0001
0010
0100
0001
1000
0100
,
0001
1000
0001
0100
0010
0100
1000
0001
,
0100
1000
0010
0001
0100
1000
0001
0010
,
0100
1000
0010
0100
1000
0001
0100
0010
,
0100
0001
1000
0001
0100
0010
1000
0001
,
0100
1000
0010
0001
0100
1000
0001
0010
,
1001
0000
0000
0000
;

//--------------- dance-single - URA-CHALLENGE ----------------
#NOTES:
     dance-single:
     URA-CHALLENGE:
     Edit:
     14:
     0,0,0,0,0:
0000
0000
0000
0000
,
0000
0000
0000
0000
,
1000
0000
0100
0000
0001
1000
0010
0000
0100
0000
1000
0001
0010
0000
0002
0000
,
1000
0000
1000
0000
0103
0010
1000
0000
0010
0001
0100
0000
0010
1000
0001
0100
,
1000
0000
0100
0000
0010
1000
0001
0000
0100
0000
1000
0000
0010
1000
0001
0000
,
0010
0001
0100
0000
1000
0100
0000
0010
0002
0000
1000
0000
1003
0000
0010
0000
,
0010
0000
0100
0001
1000
0000
0001
0000
0100
0001
1000
0000
0010
1000
0001
0000
,
0010
0001
0000
0010
1000
0000
0001
0000
0010
0001
1000
0010
0100
0010
0001
1000
,
0010
0000
1000
0010
0001
0000
1000
0000
0100
1000
0010
0000
0100
0000
0001
0010
,
2000
3002
0200
0303
,
1000
0001
0100
0001
0010
0100
1000
0100
,
0001
0000
1000
0000
0001
0000
1000
0000
0100
0000
0010
0000
0100
0000
0001
0010
,
1000
0001
1000
0100
0001
0100
0010
1000
,
0100
0001
1000
0000
0001
0000
0010
0000
0100
0000
0001
0000
0100
0000
0010
0000
,
1000
0010
0001
0000
0100
0000
1000
0000
0010
0001
0100
0000
1000
0000
0010
0000
,
0001
0100
1000
0000
0001
0000
0010
0000
0100
1000
0010
0000
0100
0000
0001
0000
,
1000
0010
0001
0000
0100
1000
0010
0000
0100
0001
1000
0010
0001
0100
0010
0100
,
2000
0010
0001
3001
,
0001
0000
1000
0010
0001
0000
0010
1000
0100
0000
0010
0000
0100
0000
0001
0000
,
1000
0000
0001
0010
0100
0000
0010
0000
0001
0010
1000
0000
0010
1000
0001
0010
,
0100
0000
1000
0000
0001
0100
0010
0000
0100
1000
0001
0000
1000
0010
0100
0000
,
0001
0000
1000
0010
0001
0000
0100
0000
0010
0000
0100
0001
1000
0000
0001
0010
,
0100
0000
1000
0100
0010
0000
0001
0000
0100
0010
1000
0000
0001
1000
0010
0000
,
0100
0000
1000
0001
0010
0000
0100
0001
1000
0000
0001
0000
0100
0000
0010
0000
,
0100
0010
0001
0100
1000
0000
0001
0000
0100
0001
0010
0100
1000
0000
0001
0000
,
0100
0001
1000
0100
0010
1000
0001
0010
0100
0000
1000
0000
0001
1000
0010
0100
,
1001
0000
0000
0000
;
