#TITLE:That 2 Mouse;
#ARTIST:NAMCO Sound Team "Xenon";
#GENRE:SEGAのごちゃまぜMix UP!;
#MUSIC:That 2 Mouse.ogg;
#BANNER:That 2 Mouse.png;
#BACKGROUND:That 2 Mouse-bg.png;
#CDTITLE:./CDTitles/NSD A3.png;
#SAMPLESTART:88.250;
#SAMPLELENGTH:15.000;
#SELECTABLE:YES;
#OFFSET:0.000;
#BPMS:0.000=155.000;
#STOPS:;
#BGCHANGES:;
#FGCHANGES:;

//--------------- dance-single - ----------------
#NOTES:
     dance-single:
     :
     Beginner:
     4:
     0,0,0,0,0:
0000
0000
0000
0000
,
0000
0000
0000
0000
,
0000
0000
0000
0000
,
0000
0000
0000
0000
,
0000
0000
0000
0000
,
0001
0000
1000
0000
,
0001
0000
0010
0000
,
0010
0100
1000
0001
,
0000
0000
0000
0110
,
1001
0100
0010
0000
,
0001
0010
0100
0000
,
1000
0100
0010
0000
,
0001
0001
0001
0000
,
1000
0100
0010
0000
,
0001
0010
0100
0000
,
1000
0001
1100
0000
,
0100
0000
0010
0000
,
0110
0000
1000
0000
,
0100
0010
0001
0000
,
0001
0010
0100
0000
,
1000
0000
0001
0000
,
0010
0100
0010
0000
,
1000
0001
0100
0000
,
0001
0010
0100
1000
,
1001
0000
0110
0000
,
1000
0000
0100
0000
,
0010
0000
0001
0000
,
0010
0000
0100
0000
,
1000
0000
0100
0000
,
0001
0010
0100
0000
,
1000
0100
0010
0000
,
0001
0010
0100
0000
,
1001
0000
0000
0000
,
0110
0000
1000
0000
,
0001
0000
1000
0000
,
0001
0000
0010
0000
,
0100
0000
0010
0000
,
1000
0000
0100
0000
,
0010
0000
0001
0000
,
0010
0000
0100
0000
,
1000
0000
0001
0000
,
2002
0000
0000
0000
,
0000
0000
0000
0000
,
0000
0000
0000
0000
,
0000
0000
0000
3003
,
0110
0000
0000
0000
,
0001
0000
0000
0000
,
1000
0000
0000
0000
,
0001
0000
0000
0000
,
2002
0000
0000
3003
,
0110
0000
0000
0000
,
2002
0000
0000
3003
,
0110
0000
0000
0000
,
2000
0000
0100
0000
,
0010
0000
3001
0000
,
0002
0010
0100
1003
,
0110
0000
0000
0000
,
0110
0000
1000
0000
,
0001
0000
0010
0000
,
0100
1000
0001
0000
,
0100
0010
0001
0000
,
1001
0000
0100
0000
,
0010
0100
1000
0000
,
0001
0000
1000
0000
,
0001
1000
0001
0000
,
0010
0000
0100
0000
,
0010
0000
0100
0000
,
1000
0000
0001
0000
,
0010
0000
0100
0000
,
1000
0000
0001
0000
,
0010
0000
0100
0000
,
1000
0000
0001
0000
,
0010
0100
1000
1001
;

//--------------- dance-single - ----------------
#NOTES:
     dance-single:
     :
     Easy:
     5:
     0,0,0,0,0:
0000
0000
0000
0000
,
0000
0000
0000
0000
,
0000
0000
0000
0000
,
0000
0000
0000
0000
,
0000
0000
0000
0000
,
1000
0001
0100
1000
,
0001
0010
0100
1000
,
0001
1000
0001
0000
1000
0001
1000
0000
,
0220
0000
0330
0110
,
1001
0000
0100
1000
0100
0000
0001
1000
,
0001
0000
0100
0010
0100
0000
0010
0000
,
1000
0000
0001
1000
0001
0000
0100
0010
,
0100
0110
0110
1000
,
1001
0000
0100
1000
0010
0000
0001
0000
,
1000
0000
0001
0000
0100
0010
0100
0000
,
1001
0000
1001
0000
,
0110
0000
0001
0000
,
1001
1000
0100
0010
,
0001
0010
0100
1000
,
0001
1000
0001
0100
,
0010
0100
1000
1001
,
0100
0010
0001
0010
,
0100
1000
0001
0100
,
0110
1000
0001
0010
,
0110
0000
0000
0000
,
1000
0001
1000
0000
0001
1000
0001
0000
,
0001
0010
0100
1000
,
0001
1000
0001
0000
1000
0001
1000
0000
,
0100
0010
0001
0010
,
0110
0000
1000
0000
0001
1000
0001
0000
,
0010
0100
0010
0000
1000
0001
1000
0000
,
0100
0010
0001
1000
,
2002
0000
0000
3003
,
0110
1000
0100
0010
,
0001
0010
0100
1000
,
1001
0100
0010
0001
,
0010
0100
1000
1001
,
0110
0001
1000
0001
,
0100
0010
0001
1000
,
0110
1000
0001
0100
,
0010
0100
1000
0001
,
2002
0000
0000
0000
,
0000
0000
0000
0000
,
0000
0000
0000
0000
,
0000
0000
0000
3003
,
2000
0100
0010
3001
,
0002
0010
0100
1003
,
2000
0100
0010
3001
,
0002
0010
0100
1003
,
0220
0000
0000
0000
0330
0000
0000
0001
,
1000
0100
0010
0000
,
2002
0000
0000
0000
0000
0000
3003
0100
,
0001
0100
0001
0000
,
1000
0100
0010
0001
,
0010
0100
1000
0001
,
0110
0000
1001
0000
,
0110
0000
0000
0000
,
1001
0100
0010
0001
,
0010
0100
1000
0000
,
0001
1000
0001
0000
,
0100
0010
0100
0000
,
1001
0000
0100
0000
,
0001
0010
0100
0000
,
1000
0100
0010
0000
,
0001
0010
0100
0000
,
1000
0100
1000
0000
,
0001
0010
0001
0000
,
0001
1000
0001
0000
,
0010
0100
0010
0000
,
1000
0100
0010
0000
,
0001
0010
0100
0000
,
1000
0100
0010
0001
,
0010
0100
1000
0100
;

//--------------- dance-single - ----------------
#NOTES:
     dance-single:
     :
     Medium:
     10:
     0,0,0,0,0:
0000
0000
0000
0000
,
0000
0000
0000
0000
,
0000
0000
0000
0000
,
0000
0000
0000
0000
,
0000
0000
0000
0000
,
1000
0001
1000
0000
0100
0010
0100
0000
,
1000
0001
1000
0000
0001
1000
0001
0000
,
0110
1001
0110
1001
,
0000
0000
0000
0110
,
1001
0100
0001
0100
1000
0100
0001
0010
,
0001
0000
0001
0100
0010
1000
0001
0100
,
1000
0000
0001
0100
1000
0100
0001
0010
,
0101
0110
1010
0110
,
1001
0000
0001
0100
1000
0100
0001
0010
,
0001
0000
0001
0100
0010
1000
0001
0100
,
1000
0000
0001
0100
1000
0100
0001
0010
,
0001
0000
1000
0100
0010
0001
1000
0100
,
0001
0000
0010
0000
1000
0001
1000
0000
,
0100
0000
0010
0000
0001
1000
0001
0000
,
0100
0000
0010
0000
0001
1000
0001
0000
,
0100
0010
0001
1000
,
0100
0000
1000
0000
0001
1000
0001
0000
,
0010
0000
0100
0000
1000
0001
1000
0000
,
0100
0010
0001
0010
,
1001
0110
1001
0110
,
0001
0100
1000
0100
0001
0010
0001
0000
,
0001
0100
0010
1000
0001
0100
1000
0000
,
0001
0100
1000
0100
0001
0010
0001
0000
,
1000
0100
0010
0001
1000
0100
0001
0000
,
0200
0010
0010
0301
,
1000
0100
0010
0100
1000
0100
0010
0001
,
0200
0010
0010
1000
,
0301
0000
0000
0000
,
1001
0001
0010
0001
,
0010
0001
0010
0100
,
1001
0100
1000
0100
,
1000
0100
0010
0110
,
0001
1000
0001
0000
0001
1000
0001
0000
,
1000
0001
1000
0000
0001
1000
0001
0000
,
1010
1000
0100
0010
,
0001
0010
0100
1000
,
2002
0000
0000
0000
,
0000
0000
0000
3003
,
0220
0000
0000
0000
,
0000
0000
0000
0330
,
0002
0010
0100
1003
,
2000
0100
0010
3001
,
0002
0010
0100
1003
,
2000
0100
0010
3001
,
0220
0000
0000
0330
,
2000
0100
0010
3001
,
2002
0000
0000
3003
,
0002
0010
0100
1003
,
1000
0001
0100
0010
,
0100
1000
0001
0010
,
0110
1001
0110
1001
,
0220
0000
0000
0330
,
1010
0100
0010
0001
0100
0001
0100
0000
,
2000
0010
3001
1001
,
0011
0100
0010
1000
0100
1000
0100
0000
,
0002
0010
2003
0100
,
3001
0100
0010
0100
0001
0100
0010
0100
,
0001
0010
1000
0010
0001
0010
1000
0000
,
1000
0100
0010
0100
1000
0100
0010
0100
,
1000
0010
0001
0010
1000
0010
0001
0010
,
2000
0100
0010
0001
,
3002
0100
0010
1000
,
1003
0100
0010
0001
1000
0100
0010
0001
,
2000
0010
0100
0001
,
3001
0100
0010
1000
0001
0100
0010
1000
,
0002
0010
0100
1000
,
1003
0010
0001
0100
0001
0010
1000
0100
,
1000
0001
1000
0100
0001
0000
1001
0000
;

//--------------- dance-single - ----------------
#NOTES:
     dance-single:
     :
     Hard:
     16:
     0,0,0,0,0:
0000
0000
0000
0000
,
0000
0000
0000
0000
,
0000
0000
0000
0000
,
0000
0000
0000
0000
,
0000
0000
0000
0000
,
0001
0010
0100
1000
0001
1000
0010
1000
,
0001
0100
0001
0010
0001
1000
0020
0000
,
0130
1000
0100
0000
0001
0010
0100
0000
0001
1000
0100
0000
0001
0010
1000
0000
,
0020
0230
1300
1001
,
0001
0000
0100
0001
0000
1000
0000
0100
0000
0000
0010
0000
0001
0000
0100
0000
,
0010
0000
1000
0100
0000
0010
0000
0001
0000
0000
1000
0000
0100
0000
0010
0000
,
0002
0000
0000
0023
0000
0000
0130
0000
1000
0000
0000
0110
0000
0000
0000
0000
,
0101
0000
1001
0000
1002
0000
0000
0103
,
1000
0000
0100
1000
0000
0001
0000
0100
0000
0000
0010
0000
1000
0000
0100
0000
,
0010
0000
0001
0100
0000
0010
0000
1000
0000
0000
0001
0000
0100
0000
0010
0000
,
1000
0000
0000
0010
1000
0000
0000
0000
0001
0000
0000
0100
0001
0000
1000
0000
,
0001
0000
0010
0000
0100
0000
0010
0000
0001
0000
0000
1001
0000
0000
0010
0000
,
0100
0000
0001
0100
0000
0010
0000
1000
0100
0000
0001
0000
1000
0000
0100
0000
,
1000
0000
0010
0100
0000
0001
0000
1000
0001
0000
0100
0000
1000
0000
0000
0000
,
0010
0000
1000
0010
0000
0100
0000
0001
0100
0000
1000
0000
0001
0000
0010
0000
,
1100
1001
0110
0101
,
0110
0000
0001
0100
0000
0010
0000
1000
0100
0000
0001
0000
1000
0000
0100
0000
,
1000
0000
0010
0100
0000
0001
0000
1000
0001
0000
0100
0000
0010
0000
0000
0000
,
1000
0001
0210
0000
0000
0000
0000
0000
,
0301
0010
0000
1000
0100
0001
0010
0001
0100
0000
0010
0000
0100
0000
0000
0000
,
1001
0000
0000
0000
0010
0000
0100
0000
0010
0000
0100
1000
0001
0000
0100
0000
,
0010
0000
1000
0000
0010
0000
1000
0000
0010
1000
0100
0000
0001
0000
0100
0000
,
0001
0000
0010
0000
0001
0000
0010
0000
0100
0000
0010
0001
0100
0000
1000
0000
,
0010
0100
1000
0000
0100
0000
1000
0001
0010
0000
0100
1000
0002
0000
0000
0000
,
0103
1000
0100
1000
0020
0000
0000
0000
1030
0000
0001
0000
0100
0000
0001
0000
,
1000
0000
0100
0010
0001
1000
0000
0010
1000
0100
0001
0100
2000
0000
0010
0000
,
3001
0010
0100
0000
0000
0000
1000
0001
0000
0010
0100
1000
0010
0001
0010
1000
,
0002
0000
0000
0000
0000
0000
1003
0100
1000
0100
0000
0010
,
2001
0000
0000
3001
0010
1000
0100
0001
0100
1000
0000
0100
,
1000
0010
0000
1001
0000
0100
0010
1000
0010
0100
0001
0100
,
0020
0000
0000
1030
0010
0001
0010
0100
1000
0010
0100
0001
,
0010
0001
0010
0100
1000
0010
0100
0001
0010
1000
0010
0001
,
0200
0000
0000
0000
1300
0000
0100
0000
0001
1000
0100
0000
0001
0000
0001
0010
,
1000
0000
0001
0000
0110
0000
0000
0001
1000
0000
0001
0010
1000
0000
0010
0100
,
0020
0000
0000
0000
0031
0000
0100
1000
0001
0000
1000
0000
0001
0000
0010
1000
,
0001
0000
1000
0100
0010
0000
0100
0000
0001
0000
1000
0000
0100
0000
0010
0000
,
2002
0000
0000
0000
,
0000
0000
0000
0000
,
0000
0000
0000
0000
,
0000
0000
0000
3003
,
1001
0000
0000
0000
0110
0000
0000
0000
1001
0000
0000
0001
0100
0000
1000
0000
,
0001
0000
0000
0000
0110
0000
0000
0000
0010
0001
0000
1000
0001
0000
0100
0000
,
0010
0000
0101
0000
1010
1010
1010
0000
,
1001
0110
1001
0101
,
2002
0000
0000
0000
0000
0000
3003
0110
,
1001
0000
0200
0000
0000
0301
1000
0001
,
2002
0000
0000
0000
0000
0000
3003
0110
,
1001
0210
0000
0320
,
0031
0000
1000
0100
1000
0100
1000
0001
0000
1000
0000
0010
0000
0100
0010
0100
,
0010
0100
0000
0001
0000
1000
0000
0001
0000
1000
0100
1000
0000
0001
0010
0100
,
0001
0100
1000
0000
1000
0010
1000
0000
0010
0100
0001
0000
1000
0100
0001
0000
,
1000
0000
0001
0000
0000
0110
0000
0000
1001
0000
0000
0000
0110
0000
0000
0000
,
1001
0000
0000
0000
1000
0010
0100
0000
0001
0000
0010
0001
0010
0001
1000
0001
,
0000
0001
0100
0000
0010
1000
0010
0000
2000
0000
0100
0000
3001
0000
0100
0000
,
0002
0000
0000
0000
0013
0100
0010
0000
1000
0000
0100
0010
0100
0010
0001
0010
,
0001
0001
1000
1000
0020
0100
1030
0000
,
1000
0010
0000
0100
0001
0010
0100
1000
0100
0000
1000
0001
1000
0001
1000
0000
,
0001
0010
0001
0000
0100
0000
0010
0000
0200
0000
0010
0000
0301
0000
1000
0000
,
0001
0010
0100
0000
1000
0010
0100
0000
0001
0010
0100
0000
1000
0010
0100
0000
,
0010
0000
0000
0010
0000
0000
0010
0100
0010
0000
1000
0000
0001
0000
0100
0000
,
0110
0000
0000
0000
0100
0000
1000
0000
0001
0000
1000
0100
0000
0100
0010
0100
,
0000
0010
0001
0000
1000
0000
0001
0000
0200
0000
0010
0000
0301
0000
1000
0000
,
1001
0000
0000
0000
0001
1000
0100
0000
0010
0000
0001
0010
0000
0010
0100
0010
,
0200
0000
1000
0000
0320
0000
0001
0000
0130
0000
1000
0001
1000
0000
0001
0000
,
1000
0100
1000
0001
1000
0010
1000
0001
,
0100
0010
1000
0100
0010
0100
0010
0100
,
1000
0100
0001
0000
0010
1000
0001
0000
0100
0001
0010
0000
0100
0010
0001
0100
,
1000
0001
0100
1000
0010
0000
2002
0000
,
3003
0000
0000
0000
;
