
//----- song ID: teku -----//
#TITLE:テクノでコアみの深い曲;
#ARTIST:NAMCO Sound Team "DJ Kurara";
#TITLETRANSLIT:Techno de Core mi no fukai kyoku;
#GENRE:ナムコオリジナル;
#MUSIC:Techno de Core mi no fukai kyoku.ogg;
#BANNER:Techno de Core mi no fukai kyoku.png;
#BACKGROUND:Techno de Core mi no fukai kyoku-bg.png;
#CDTITLE:./CDTitles/NSD A3.png;
#SAMPLESTART:58.837;
#SAMPLELENGTH:15.000;
#SELECTABLE:YES;
#OFFSET:0.000;
#BPMS:0.000=190.000
,180.000=240.000
,212.000=480.000
,213.000=960.000
,216.000=240.000
,221.000=480.000
,222.000=960.000
,224.000=240.000
;
#STOPS:213.000=0.188;
#DISPLAYBPM:190.000:240.000;
#BGCHANGES:;
#FGCHANGES:;

//--------------- dance-single - ----------------
#NOTES:
     dance-single:
     :
     Beginner:
     6:
     0,0,0,0,0:
0000
0000
0000
0000
,
0000
0000
0000
0000
,
0000
0000
0000
0000
,
0000
0000
0000
0000
,
0000
0000
0000
0000
,
0001
0000
0010
0000
,
1100
0000
0100
0000
,
0010
1000
0001
0010
,
0200
0000
0000
0301
,
1001
0100
1000
0000
,
0001
0100
0010
0000
,
1000
0100
0010
0000
,
1000
0001
0100
0002
,
0013
0100
1000
0000
,
0001
0010
0001
0000
,
1000
0001
0100
0000
,
1000
0000
0001
0100
,
0010
0000
0100
0000
,
0001
0000
0100
0000
,
0010
0000
1000
0000
,
0001
0010
0100
0000
,
1000
0000
0001
0000
,
0100
0000
0010
0000
,
1000
0000
0001
0000
,
2002
0000
0000
3003
,
1001
0000
0010
0000
,
0100
1000
0001
0200
,
0310
0000
0100
0000
,
1000
0001
0000
0010
,
0100
0000
1000
0000
,
0001
0000
0010
0100
,
1000
0000
0001
0000
,
0100
0010
0100
0000
,
1001
0000
0100
0000
,
0010
0000
1000
0001
,
0100
0000
0010
0000
,
0100
0000
1000
0000
,
0001
0000
0100
0000
,
0010
0000
0100
1000
,
0001
0000
0100
0000
,
1000
0001
0100
0010
,
1000
0000
0000
0000
,
0001
0000
0000
0000
,
0010
0000
0100
0000
,
1000
0100
0010
0000
,
1001
0000
0000
0000
,
0000
0000
0000
0000
,
0010
0000
0100
0000
,
1000
0000
0001
0000
,
0010
0000
0100
0000
,
1000
0001
0100
0000
,
0010
0000
0100
0000
,
1000
0000
0001
0000
,
0200
0300
0000
0000
,
0001
0000
1000
0000
,
0001
0000
0000
0000
,
1000
0010
0001
0000
,
1000
0001
0100
0000
,
0010
0100
1000
0000
,
0001
0000
0000
0100
0000
0000
1000
0000
0100
0000
0000
0010
0000
0000
0001
0000
,
0100
0000
0010
0000
,
0100
1000
0001
0000
,
0100
0000
0010
0000
,
0100
1000
0001
0100
,
0010
0000
0100
0000
,
0010
0000
1000
0000
,
0001
0000
0100
0000
,
0010
0000
1000
0000
,
0001
0000
0100
0000
,
0010
0000
0100
0000
,
1000
0000
0001
0000
,
0100
0000
0010
0000
,
1000
0000
0001
0000
,
0100
0000
0010
0000
,
0100
0000
1000
0000
,
0001
0000
0100
0000
,
0010
0000
0001
0000
,
1000
0000
0001
0000
,
0100
1000
0001
0000
,
0200
0000
0000
0300
,
0010
0000
1000
0000
,
0001
0000
0010
0000
,
0100
0000
1000
0000
,
0001
0000
0100
0000
,
0001
0000
1000
0000
,
0001
0000
0100
0000
,
0010
0000
1000
0000
,
0001
0000
0100
0000
,
1000
0000
0001
0000
,
0100
0000
0010
0000
,
1000
0000
0001
0000
,
0100
0000
0010
0000
,
1000
0000
0001
0000
,
0010
0000
0100
0000
,
1000
0001
0100
0010
,
1000
0000
0000
0000
,
1001
0000
0100
0000
,
0001
0000
0100
0000
,
0010
0000
0100
0000
,
1000
0000
0001
0000
,
0100
0000
0010
0000
,
0001
0000
1000
0000
,
0002
0000
0003
0000
,
2000
0000
3000
0000
,
0010
0000
0100
0000
,
1000
0000
0001
0000
,
0100
0000
0010
0000
,
1000
0000
0001
0000
,
0100
0000
0010
0000
,
0100
0000
1000
0000
,
0001
0100
0000
0000
,
1000
0001
0100
0000
,
0000
2002
0000
0000
,
0000
0000
0000
0000
,
3003
0000
0000
0000
;

//--------------- dance-single - ----------------
#NOTES:
     dance-single:
     :
     Easy:
     10:
     0,0,0,0,0:
0000
0000
0000
0000
,
0000
0000
0000
0000
,
0000
0000
0000
0000
,
0000
0000
0000
0000
,
0000
0000
0000
0000
,
0001
0000
0100
0000
1000
0000
0001
0010
,
0100
0000
0010
0000
1000
0000
0001
1000
,
0100
0010
1000
0001
,
0100
0001
1000
0000
0001
0010
0100
0000
,
1001
0100
0010
0100
,
1000
0000
0010
0000
0100
0000
0001
1000
,
0010
0100
1000
0100
,
0010
0000
0000
0000
0100
0000
0000
0010
0000
0000
1000
0000
0001
0000
0000
0000
,
1000
0001
1000
0010
,
0100
0000
0001
0000
1000
0000
0010
0001
,
1000
0000
0000
0000
0001
0000
0000
0100
0000
0000
1000
0000
0010
0000
0001
0000
,
0100
0000
0001
1000
0100
0000
0020
0000
,
1030
0100
1000
0010
,
1000
0000
0010
0000
0100
1000
0001
0010
,
0100
0001
0100
0010
,
1000
0100
0010
0000
0001
0000
0100
1000
,
0100
0000
0000
0000
0010
0000
0000
0100
0000
0000
1000
0000
0001
0000
0000
0000
,
1000
0000
0000
0000
0010
0000
0000
0100
0000
0000
0010
0000
0001
0000
0100
0000
,
1000
0000
0001
0000
,
0200
0000
0000
0000
,
0310
1000
0001
0100
,
0010
0100
1000
0002
,
0013
0100
0001
1000
,
0001
0100
0010
1000
,
0001
0100
1000
0001
,
0100
0010
0100
2000
,
3001
0100
0010
0100
,
1000
0000
0000
1001
,
0001
1000
0010
0100
,
0001
1000
0100
0010
,
1000
0001
0100
0010
,
1000
0000
0000
0000
0001
0000
0000
0000
0100
0000
0000
0001
0000
0000
0100
0000
,
0001
1000
0001
0100
,
0010
1000
0001
0100
,
0010
0000
0000
0100
0000
0000
1000
0000
0001
0000
0000
0010
0000
0000
0100
0000
,
0001
0000
0000
1000
0000
0000
0001
0000
0100
0000
0000
0010
0000
0000
0100
0000
,
2000
0000
0000
0000
,
3001
0000
0000
0000
,
0010
0000
0100
0000
,
1000
0100
0010
0001
,
2002
0000
0000
3003
,
0000
0000
0000
0000
,
0001
0010
0100
0001
,
1000
0100
0001
1000
,
0100
0001
0010
0100
,
1000
0000
0000
0000
0100
0000
0000
0000
0001
0000
0000
0010
0000
0000
1000
0000
,
0100
0001
1000
0010
,
0001
0010
0100
0001
,
1000
0000
0000
0000
,
0001
0010
1000
0001
,
0020
0000
0000
0000
,
1030
0000
0100
0000
0001
0000
0000
0000
0100
0000
0000
0001
0000
0000
0100
0000
,
0001
0000
0000
0000
1000
0000
0000
0000
0010
0000
0000
1000
0000
0000
0010
0000
,
0100
0000
0000
0000
0010
0000
0000
0000
0100
0000
0000
0001
0000
0000
0100
0000
,
1000
0000
0000
0010
0000
0000
0001
0000
0010
0000
0000
1000
0000
0000
0010
0000
,
1000
0001
0100
0010
,
0100
0010
1000
0001
,
0100
0010
0100
1000
,
0001
0010
0100
1000
,
0001
1000
0000
0000
,
0010
0100
0000
0000
,
1000
0001
0100
0010
,
1000
0001
0100
0010
,
1000
0001
0000
0000
,
0010
0100
0000
0000
,
1000
0001
0100
0010
,
0100
1000
0001
0010
,
0100
1000
0001
0000
,
0100
0010
1000
0000
,
0001
0010
0100
0000
,
1000
0001
0100
0000
,
0010
0100
1000
0000
,
0001
1000
0010
0000
,
1000
0100
0010
0001
,
0200
0000
0000
0310
,
1000
0001
0000
0010
,
0000
0100
0000
1000
,
0000
0001
0000
0100
,
0000
0010
0000
0100
,
0000
1000
0001
0100
,
0000
0010
0000
0100
,
0000
1000
0001
0100
,
0000
0010
0000
0100
,
1000
0001
0010
0100
,
1000
0000
0001
0000
,
0010
0100
0001
1000
,
0010
0000
0100
0000
,
1000
0001
0100
0010
,
1000
0000
0001
0000
,
0010
0100
1000
0001
,
0020
0000
1030
0000
,
0001
0010
0001
0100
,
0010
0000
0100
0000
0010
0000
0100
0010
,
0001
0010
0100
1000
,
0001
0000
0010
0000
0100
0000
0010
1000
,
0100
0010
0001
0100
,
0010
1000
0100
1000
,
0100
0000
0000
0001
0000
0000
0100
0000
0000
0000
0000
0000
0000
0000
0000
0000
,
0010
0000
0000
1000
0000
0000
0010
0000
0000
0000
0000
0000
0000
0000
0000
0000
,
0001
0100
0001
1000
,
0001
0010
0100
1000
,
0001
1000
0010
0100
,
0001
0010
0100
0010
,
0100
0000
0000
0001
0000
0000
0100
0000
0000
0000
0000
0000
0000
0000
0000
0000
,
0010
0000
0000
1000
0000
0000
0010
0000
0000
0000
0000
0000
0000
0000
0000
0000
,
1000
0100
0010
1000
,
0001
1000
0010
0001
,
0010
2002
0000
0000
,
0000
0000
0000
0000
,
3003
0000
0000
0000
;

//--------------- dance-single - ----------------
#NOTES:
     dance-single:
     :
     Medium:
     12:
     0,0,0,0,0:
0000
0000
0000
0000
,
0000
0000
0000
0000
,
0000
0000
0000
0000
,
0000
0000
0000
0000
,
0000
0000
0000
0000
,
1000
0000
0010
0000
0100
0000
0001
0010
,
1000
0000
0000
0000
0010
0000
0000
0000
0100
0000
0000
0000
0010
0000
1000
0100
,
0001
1000
0010
0100
,
0001
0010
0100
0001
1000
0010
0200
0300
,
0100
0000
0010
0000
0001
0000
0100
0001
,
0010
0000
0100
0000
0010
0000
0100
0010
,
0001
0000
1000
0000
0001
0100
1000
0000
,
0001
1000
0010
0000
0100
0001
2000
0000
,
3001
0010
0100
0000
1000
0000
0100
0000
,
0010
0100
0001
0000
1000
0000
0001
1000
,
0010
0000
0100
0000
0010
0001
0100
0000
,
0010
0001
1100
0002
,
1003
0010
0100
0000
1000
0000
0100
0000
,
0010
0001
0010
0100
,
0001
0100
1000
0100
,
0010
0000
0100
0000
0001
0000
1000
0000
0000
0000
1001
0000
0000
0000
0010
0100
,
1000
0000
0001
0000
0010
0000
0000
1000
0000
0000
0100
0000
1000
0000
0010
0000
,
1000
0000
0000
0000
0100
0000
0000
0001
0000
0000
0100
0000
1000
0000
0010
0000
,
0100
0000
0001
0000
0100
0000
0010
0000
0100
1000
0001
0000
0010
0000
0100
0000
,
2000
0000
0000
0000
,
3001
0000
0000
0000
0010
0000
0000
1000
0000
0000
0010
0000
0100
0000
0000
0000
,
0010
0000
0000
0000
1000
0000
0000
0100
0000
0000
0001
0000
0010
0000
0001
0000
,
0100
0000
0000
0000
1000
0000
0000
0001
0000
0000
0100
0000
0010
0000
0100
0000
,
1000
0000
0000
1000
0000
0000
0010
0000
1000
0000
0010
0000
0100
0000
0001
0000
,
1000
0000
0000
0000
0100
0000
0000
0001
0000
0000
0010
0000
0100
0000
0001
0000
,
1000
0000
0000
0000
0001
0000
0000
0100
0000
0000
0001
0000
0010
0000
0100
1000
,
0010
0000
0000
0000
0100
0000
0000
0001
0000
0000
0100
0000
1000
0000
0000
0000
,
1000
0001
0100
0000
1000
0001
0210
0000
,
0301
0000
0000
0000
0010
0000
0000
1000
0000
0000
0010
0000
0100
0000
0010
0000
,
0100
0000
0000
0000
1000
0000
0000
0100
0000
0000
0001
0000
0010
0000
0001
0000
,
0100
0000
0001
0000
0100
0000
0000
0001
0000
0000
0100
0000
0010
0000
0100
0000
,
1000
0000
0000
1000
0000
0000
0010
0000
1000
0000
0010
0000
0100
0000
0001
0000
,
1000
0000
0000
0000
0001
0000
0000
0001
0000
0000
0010
0000
0100
0000
0001
0000
,
1000
0000
0010
0000
1000
0000
0000
0100
0000
0000
0100
0000
0010
0000
0100
0000
,
0001
0000
0000
0000
0100
0000
0000
0001
1000
0000
0010
0000
1000
0000
0100
0000
,
1000
0000
0001
0000
0100
0001
0010
0100
1000
0000
0001
0000
0010
0000
1000
0000
,
0002
0000
0000
0003
,
2000
0000
0000
3000
,
0020
0030
0200
0300
,
0001
0100
0001
1000
,
0220
0000
0330
1000
,
0010
0000
0100
0001
0010
0100
1000
0000
,
0100
0010
0100
0010
,
0100
0000
1000
0000
0001
0000
0100
1000
,
0010
0000
1000
0000
0010
0000
1000
0100
,
0001
0000
0000
0000
0010
0000
0000
0000
0001
0000
0000
0100
0000
0000
0010
0000
,
2000
0000
3001
0010
0100
0000
1000
0000
,
0100
0000
0010
0000
0001
0000
0100
0001
,
1000
0100
0000
0000
,
0001
0000
1000
0001
0010
0000
0100
0000
,
0010
1000
0200
0000
0000
0000
0000
0000
,
0310
0000
0000
0000
0100
0000
0000
0000
0010
0000
0000
1000
0000
0000
0100
0000
,
0001
0000
0000
0000
0010
0000
1000
0000
0100
0000
0000
0010
0000
0000
1000
0000
,
0010
0000
0000
0000
0001
0000
0010
0000
0100
0000
0000
1000
0000
0000
0001
0000
,
0100
0000
0000
0001
0000
0000
0100
0000
0010
0000
0000
1000
0000
0000
0010
0000
,
0100
0010
0100
0000
0001
0000
1000
0000
,
0001
0000
0100
0000
0001
1000
0010
0000
,
0001
1000
0010
0000
0001
0010
0001
0100
,
0001
0010
1000
0001
0100
0010
0200
0000
,
0301
0000
0000
0000
0100
0000
0000
0000
0001
0000
0000
0100
0000
0000
1000
0000
,
0001
0000
0100
0000
0010
0100
0010
0000
,
0001
0000
0000
0000
0100
0000
0000
0000
0001
0000
0000
1000
0000
0000
0100
0000
,
0001
0100
0001
0100
,
0001
0000
0100
0000
0001
0000
0000
0000
0010
0000
0000
1000
0000
0000
0100
0000
,
0001
0000
0010
1000
0001
0000
0010
0000
,
0100
0000
0000
0000
0010
0000
0000
0000
1000
0000
0000
0000
0010
0000
0000
0000
0000
0000
0000
0000
0001
0000
0000
0000
1000
0000
0000
0000
0000
0000
0000
0000
0000
0001
0000
0000
0000
0000
0000
0000
0000
0000
0010
0000
0000
0000
0000
0000
,
0001
1000
0001
0000
0001
0100
0010
0000
,
0010
0001
1000
0000
1000
0001
0100
0000
,
0001
0000
0100
0001
0200
0000
0000
0000
,
0310
0000
1000
0000
0001
0000
0000
0000
1000
0000
0000
0010
0000
0000
0001
0000
,
0100
0001
0100
0002
,
1003
0100
0010
1000
0000
0001
0100
0010
,
0100
0001
0010
0100
,
0001
0000
0001
1000
0000
0001
0020
0000
,
0230
0000
0000
0000
0000
0010
0301
0000
,
0010
0100
0010
0100
,
1000
0010
1000
0010
,
0100
0001
0100
0001
,
1000
0100
1000
0001
,
1000
0001
0010
0100
,
0010
1000
0001
0100
,
0010
0100
1000
0100
,
0001
0010
1000
0010
,
0100
0000
0010
0001
0000
0000
1000
0000
0100
0010
0000
0000
,
0100
0000
1000
0001
0000
0000
0100
0000
0001
0010
0000
0000
,
0100
0000
1000
0010
0000
0000
1000
0000
0010
0001
0000
0000
,
0010
0000
1000
0001
0000
0000
0100
0000
1000
0001
0000
0100
,
0010
0000
0100
1000
0000
0000
0001
0000
0010
0100
0000
0000
,
0010
0000
0001
1000
0000
0000
0010
0000
1000
0100
0000
0000
,
0010
0000
0001
0100
0000
0000
0001
0000
0100
1000
0000
0000
,
0010
0000
1000
0001
0000
0000
2002
0000
0000
3003
0000
0000
,
0100
0010
0100
1000
,
0010
0000
0100
0000
0001
0000
0100
0010
,
0001
0100
0010
1000
,
0001
0000
0010
0000
0001
0000
1000
0100
,
0010
1000
0100
0010
,
0100
0000
0010
0000
0001
0000
0010
1000
,
0100
0000
0000
1001
0000
0000
0100
0000
0001
0000
0010
0000
0100
0000
0001
0000
,
0100
0000
0000
1001
0000
0000
0110
0000
0000
0000
0001
0000
0200
0000
0000
0000
,
0301
0010
0001
0000
1000
0000
0010
0000
,
0100
0010
1000
0100
,
0010
0001
0010
0001
,
0100
0001
0100
0010
,
0100
0000
0000
1001
0000
0000
0220
0000
0000
0000
0000
0000
0330
0000
0000
0000
,
1001
0000
0000
0101
0000
0000
2020
0000
3030
0000
0000
0000
1001
0000
0000
0000
,
0100
1000
0001
0100
,
0010
0000
0000
0000
1000
0000
0000
0000
0010
0000
0000
1001
0000
0000
0110
0000
,
0000
2002
0000
0000
,
0000
0000
0000
0000
,
3003
0000
0000
0000
;

//--------------- dance-single - ----------------
#NOTES:
     dance-single:
     :
     Hard:
     17:
     0,0,0,0,0:
0000
0000
0000
0000
,
0000
0000
0000
0000
,
0000
0000
0000
0000
,
0000
0000
0000
0000
,
0000
0000
0000
0000
,
0001
0000
0100
0000
0010
0000
1000
0100
,
0001
0000
0000
0000
0100
0000
0000
0000
0010
0000
0000
0000
0100
0000
0001
0010
,
1000
0001
0100
0010
,
1000
0000
0100
0000
0010
0000
1000
0000
0001
0010
0100
0001
0020
0000
0000
0000
,
0130
0000
0001
0000
1000
0100
0001
0000
0100
0000
0010
0000
0100
0010
0001
0000
,
0010
0001
0100
0000
1000
0000
0010
0000
1000
0000
0100
1000
0010
0100
0001
0000
,
0100
0000
0010
0000
1000
0001
0010
0000
0100
1000
0001
0000
0100
0000
0001
0000
,
0100
1000
0010
0001
1000
0000
0000
0001
0000
1000
0001
0000
0020
0000
0000
0000
,
1030
0000
0100
0000
1000
0001
0100
0000
1000
0100
0010
0000
0100
0000
0001
0000
,
0010
1000
0001
0010
0100
0000
0001
0000
0010
1000
0100
0000
0010
1000
0001
0000
,
0100
0000
0010
0000
0000
1000
0000
0001
0100
0000
0010
0000
1000
0000
0001
0000
,
0010
1000
0100
0000
0010
1000
0001
0100
0010
0000
0100
0000
2000
0000
0000
0000
,
3001
0000
0100
0000
0010
0000
0001
0000
0010
0001
0100
0000
0010
1000
0100
0000
,
1000
0000
0010
0000
1000
0001
0100
0010
1000
0000
0001
0000
0100
0000
0010
0000
,
0100
0000
0010
0000
0100
1000
0001
0000
0010
0100
0001
0000
0010
0000
0001
0000
,
0100
0000
0010
0000
1000
0000
0001
0000
0000
0000
1001
0000
0000
0000
0100
0010
,
0001
0000
1000
0000
0100
0000
0000
0001
0000
0000
0010
0000
0001
0000
0100
0000
,
0001
0000
0000
0000
0010
0000
0000
1000
0000
0000
0010
0000
0001
0000
0100
0000
,
0010
0000
1000
0000
0010
0000
0100
0000
0010
0001
1000
0010
0100
1000
0010
0100
,
0002
0000
0000
0000
,
1003
0000
0000
0000
0100
0000
0000
0001
0000
0000
0100
0000
0010
0000
0100
0000
,
0010
0000
0100
0000
0001
0000
0000
0010
0000
0000
1000
0000
0100
0001
1000
0100
,
0010
0000
1000
0000
0010
0000
0000
1000
0000
0000
0010
0000
0100
0000
0010
0000
,
0001
0000
0000
0001
0000
0000
0100
0000
0001
0000
0100
0000
0010
0100
1000
0000
,
0001
0000
1000
0000
0001
0000
0000
1000
0000
0000
0100
0000
0010
0000
1000
0000
,
0001
0000
0100
0000
0001
0000
0000
0010
0000
0000
0010
0000
0100
1000
0010
0001
,
0100
0000
1000
0000
0010
0000
0000
1000
0001
0000
0100
0000
0001
0000
0010
0000
,
0001
0000
1000
0000
0010
1000
0100
0000
0001
0000
1000
0000
0120
0000
0000
0000
,
1030
0000
0000
0000
0100
0000
0000
0001
0000
0000
0100
0000
0010
0000
0100
0000
,
0010
0000
0100
0000
0001
0000
0000
0010
0000
0000
1000
0000
0100
0001
1000
0100
,
0010
0000
1000
0000
0010
0000
0000
1000
0000
0000
0010
0000
0100
0000
0010
0000
,
0001
0000
0000
0001
0000
0000
0100
0000
0001
0000
0100
0000
0010
0100
1000
0000
,
0001
0000
1000
0000
0001
0000
0000
1000
0000
0000
0100
0000
0010
0000
1000
0000
,
0001
0000
0100
0000
0001
0000
0000
0010
0000
0000
0010
0000
0100
1000
0010
0001
,
0100
0000
1000
0000
0010
0000
0000
1000
0001
0000
0100
0000
0001
0000
0010
0000
,
0001
0000
1000
0000
0010
1000
0100
0010
0001
0000
1000
0000
0100
0000
0001
0000
,
2200
0000
0000
3300
,
2002
0000
0000
3003
,
0220
0330
0220
0330
,
1001
0110
1010
0101
,
0200
0000
0000
0000
0300
0000
0001
1000
,
0100
0000
0010
0001
0010
0000
1000
0000
0100
0000
0010
0000
1001
0000
0000
0000
,
0100
0010
0100
1000
0001
1000
0001
0010
,
0100
0010
0100
1000
0100
0010
0001
0010
,
0100
1000
0100
0010
0100
1000
0001
1000
,
0100
0000
0010
0000
0100
0000
0010
0000
0100
1000
0000
0001
0010
0000
0100
0000
,
0002
0000
1003
0100
0010
0100
0001
0100
,
0001
1000
0001
0100
0010
0100
0010
1000
,
0001
0010
0000
0000
,
0001
0100
0010
0001
1000
0001
0010
0001
,
0100
0000
1000
0001
0020
0000
0000
0000
0000
0000
0000
0000
0000
0000
0000
0000
,
0130
0000
0001
0000
0010
0000
0001
0000
0010
0000
0000
1001
0000
0000
0110
0000
,
1000
0000
0001
0000
0100
0000
0001
0000
0010
0000
0000
0110
0000
0000
1001
0000
,
0100
0000
0010
0000
1000
0001
0100
1000
0010
0000
0000
1001
0000
0000
0101
0000
,
0010
0000
0000
1001
0000
0000
0110
0000
1000
0000
0000
1001
0000
0000
0100
0000
,
0010
0100
0010
0100
1000
0001
1000
0100
,
1000
0010
0100
0001
0100
0010
0100
0010
,
1000
0001
0100
0001
1000
0100
1000
0010
,
1000
0100
0001
0100
0010
0001
1000
0010
1000
0000
0100
0000
0020
0000
0000
0000
,
1030
0000
0100
0000
0010
0000
0100
0000
1000
0000
0000
0010
0000
0000
0001
0000
,
1000
0001
1000
0001
0100
0010
0100
0010
,
1000
0000
0100
0000
0010
0000
0001
0000
0010
0000
0000
1000
0000
0000
0010
0000
,
1000
0001
0010
0001
1000
0100
0010
0001
,
1000
0000
0010
0000
1000
0000
0100
0000
0010
0000
0000
1000
0000
0000
0010
0000
,
1000
0010
0100
0001
0100
0001
0100
0010
,
1000
0000
0000
0000
0100
0000
0000
0000
0001
0000
0000
0000
0100
0000
0000
0000
0000
0000
0000
0000
1000
0000
0000
0000
0001
0000
0000
0000
0000
0000
0000
0000
0000
0010
0000
0000
0000
0000
0000
0000
0000
0000
0100
0000
0000
0000
0000
0000
,
1000
0000
0001
0100
1000
0000
0010
0001
1000
0000
0010
0000
0100
1000
0001
0000
,
0100
1000
0001
1000
0001
1000
0010
0100
,
0010
0100
0010
1000
0020
0000
0000
0000
,
0130
0001
1000
0010
0100
0010
0100
0001
,
0010
0100
1000
0001
0010
0100
2000
0000
,
3001
0010
0100
0001
0000
1000
0010
0100
,
0010
0001
1000
0001
0200
0000
0320
0000
,
1030
0000
0000
0000
1000
0000
0001
0000
0000
0000
1000
0000
0001
0010
0001
0010
,
0002
0000
0000
1003
,
0100
0010
0100
0010
,
0001
0100
0001
0100
,
0010
1000
0010
1000
,
0001
0010
0001
1000
,
0010
0000
0100
1000
0000
0000
0001
0000
0010
0100
0000
0000
,
0010
0000
0001
1000
0000
0000
0010
0000
1000
0100
0000
0000
,
0010
0000
0001
0100
0000
0000
0001
0000
0100
1000
0000
0000
,
0100
0000
0001
1000
0000
0000
0010
0000
0001
1000
0000
0010
,
0001
0000
0100
0010
0000
0010
0001
0000
0100
1000
0000
0010
,
0100
0000
0001
1000
0000
0100
0001
0000
0100
1000
0000
0010
,
0001
0000
0010
0100
0000
0010
0001
0000
0100
1000
0000
0010
,
0001
0000
0010
1000
0000
0001
0100
0000
0001
0100
0000
0010
,
0001
0000
0010
1000
0000
0001
0100
0000
0100
0010
0000
0100
,
0010
0000
0100
1000
0000
0001
0010
0000
0100
0010
0000
0010
,
0100
0000
0001
1000
0000
0010
0001
0000
0100
1000
0010
0100
,
0010
0000
1000
0001
0000
0000
2002
0000
0000
3003
0000
0000
,
0001
1000
0100
0010
0001
1000
0001
0010
,
0001
1000
0010
1000
0010
0100
0001
1000
,
0001
1000
0100
1000
0100
0010
0100
0010
,
0001
0010
0001
1000
0100
0010
0100
1000
,
0010
0100
0001
0100
0001
0010
0001
0100
,
0010
0100
0010
1000
0100
0010
0001
0010
,
0100
0000
0000
1001
0000
0000
0110
0000
1000
0001
0100
0010
0100
0000
1000
0000
,
0010
0000
0000
1001
0000
0000
0110
0000
0000
0001
1000
0100
0020
0000
0000
0000
,
1030
0100
0010
0100
1000
0010
1000
0100
,
0010
0100
0010
0001
1000
0100
0010
0100
,
1000
0100
1000
0001
0010
0001
0100
0001
,
0100
0010
1000
0001
1000
0010
1000
0100
,
0001
0000
0000
1001
0000
0000
0220
0000
0000
0000
0000
0000
0330
0000
0000
0000
,
1001
0000
0000
1010
0000
0000
0202
0000
0303
0000
0000
0000
1001
0000
0000
0000
,
0001
0000
1000
0000
0001
0100
0010
0001
0100
0000
1000
0000
0001
0010
0100
1000
,
0001
0000
0010
0100
1000
0000
0001
1000
0001
0000
0000
1001
0000
0000
0110
0000
,
0000
2002
0000
0000
,
0000
0000
0000
0000
,
3003
0000
0000
0000
;
