
//----- song ID: egmn -----//
#TITLE:THE ANCIENT EGGMAN IS BACK;
#ARTIST:NAMCO Sound Team "Qualia";
#GENRE:ナムコオリジナル;
#MUSIC:THE ANCIENT EGGMAN IS BACK.ogg;
#BANNER:THE ANCIENT EGGMAN IS BACK.png;
#BACKGROUND:THE ANCIENT EGGMAN IS BACK-bg.png;
#CDTITLE:./CDTitles/NSD A3.png;
#SAMPLESTART:75.789;
#SAMPLELENGTH:15.000;
#SELECTABLE:YES;
#OFFSET:0.000;
#BPMS:0.000=152.000
,100.000=76.000
,132.000=152.000
;
#STOPS:;
#DISPLAYBPM:*;
#BGCHANGES:;
#FGCHANGES:;

//--------------- dance-single - ----------------
#NOTES:
     dance-single:
     :
     Beginner:
     3:
     0,0,0,0,0:
0000
0000
0000
0000
,
0000
0000
0000
0000
,
0000
0000
0000
0000
,
0000
0000
0000
0000
,
0000
0000
0000
0000
,
0001
0010
0100
0000
,
1000
0001
0100
0000
,
0001
0010
0100
1000
,
1001
0000
0000
0000
,
0010
0100
1000
0000
,
0001
0010
0001
0000
,
1000
0100
1000
0000
,
0010
0100
0010
0000
,
1000
0001
0100
0010
,
0000
1000
0001
0100
,
0000
0010
0100
0010
,
0000
1000
0000
0001
,
0010
0100
0001
0010
,
0100
1000
0001
0000
,
0010
1000
0001
0100
,
0010
1000
0001
0000
,
0000
0100
0010
0100
,
1000
0001
0100
0010
,
0100
1000
0001
0000
,
0010
0000
1000
0000
,
1001
0000
0100
0000
0010
0100
1000
0000
,
0001
0000
0010
0000
0100
0010
1000
0000
,
0001
0010
0100
1000
,
0010
0100
0001
0010
,
0100
0000
1000
0000
0001
0010
0100
0000
,
1001
0100
0010
0001
,
0100
1000
0001
0010
,
0100
0000
1000
0000
0001
0010
0100
0000
,
1001
0010
0100
1000
,
0000
0001
0100
0010
,
0000
0100
0000
0010
,
0000
0100
0000
0010
,
0100
1000
0001
0000
,
0010
0100
1000
0000
,
1000
0100
0010
0001
,
1001
0000
0000
0000
,
0010
0100
1000
0000
,
0001
0100
0010
0000
,
0010
0000
1000
0000
,
0010
0000
0100
0000
1000
0000
0001
1000
,
0001
0000
0100
0000
,
0010
0000
0001
0000
,
0010
0000
1000
0000
,
0001
0000
0010
0000
0100
0000
1000
0001
,
0100
0000
0010
0000
,
0010
0000
0100
0000
,
0001
0000
0010
0000
,
1000
0000
0000
0000
0001
0000
0010
0100
,
1000
0000
0001
0000
,
0100
0000
0010
0000
,
0001
0010
0100
0000
,
2000
0000
0000
3000
,
1001
0000
0010
0000
,
0100
0000
0001
0000
,
0010
0000
0100
0000
,
1000
0000
0001
0000
,
0100
0000
0010
0000
,
0100
0000
1000
0000
,
0001
0000
0010
0000
,
0100
0000
0010
0000
,
1000
0001
0100
0000
,
0010
0100
0010
0000
,
1000
0001
0010
0000
,
0100
0010
1000
0000
,
0001
0000
0010
0000
,
0100
0000
0001
0000
,
1000
0100
0010
0001
,
0010
0000
0000
0000
,
1001
0000
0000
0000
;

//--------------- dance-single - ----------------
#NOTES:
     dance-single:
     :
     Easy:
     7:
     0,0,0,0,0:
0000
0000
0000
0000
,
0000
0000
0000
0000
,
0000
0000
0000
0000
,
0000
0000
0000
0000
,
0000
0000
0000
0000
,
0100
0010
0100
0010
,
0100
1000
0001
0010
,
0100
1000
0010
0000
0001
0100
1000
0000
,
0120
0000
0000
0130
,
1010
1000
0100
0010
,
0100
0000
0010
0000
0100
0000
1000
0100
,
0001
1000
0001
0100
,
0001
1000
0010
0000
0100
0001
1000
0000
,
0010
1000
0001
0100
,
0010
1000
0010
0100
,
0010
0100
1000
0000
0001
0000
0010
0000
,
0100
0001
0010
0000
0001
0000
0010
0000
,
0100
0001
1000
0000
0001
0000
0100
0000
,
0010
0000
1000
0000
0010
0000
1000
0100
,
0001
0100
0001
1000
,
0010
0001
1000
0000
0100
0001
1000
0000
,
0100
1001
0100
1000
,
0001
1000
0010
0000
0001
0000
0100
0000
,
0010
0001
0100
0000
0001
0000
0010
1000
,
0001
1000
0010
0100
,
0010
0000
0100
1000
0001
0000
1000
0001
,
0100
0000
0010
0000
0001
0100
0010
1000
,
0100
0000
0010
1000
0001
0100
1000
0010
,
0001
0000
0010
0001
0100
0010
1000
0000
,
0002
0023
0032
0203
,
0310
1000
0100
0000
0010
0001
1000
0000
,
0200
0320
0230
2300
,
3100
0001
1000
0000
0001
0010
0100
0000
,
0010
0000
1000
0000
,
0001
0000
0010
0000
,
0100
0000
0010
0000
,
1000
0000
0010
0000
,
0001
0100
0001
0010
,
0001
0010
0100
1000
,
0100
0001
1000
0000
0010
0100
1000
0000
,
0002
0000
0000
0013
,
0001
0000
1000
0000
0001
0000
0100
1000
,
0010
0000
1000
0000
0010
0000
0100
0010
,
0001
0100
0001
1000
,
0010
0001
1000
0000
0001
1000
0010
0000
,
0001
0000
1000
0000
0001
0000
0100
0001
,
0010
0000
0100
0000
0001
0000
0010
1000
,
0001
0000
0010
0000
0100
0000
0010
0001
,
0100
0000
1000
0000
0100
0010
1000
0000
,
0001
0000
0100
0000
0010
0001
1000
0000
,
0010
0000
0100
0000
0001
0100
1000
0000
,
0010
1000
0010
0100
,
0001
1000
0010
0000
0001
0010
0100
0000
,
0010
1000
0100
0010
,
0100
0000
1000
0000
0001
0000
1000
0001
,
0010
1000
0100
0010
,
0100
0001
1000
0000
0100
1000
0010
0000
,
1001
1100
0001
0010
,
0011
0000
1100
0000
0100
0000
1000
0100
,
0001
0000
1000
0000
0010
0001
0100
0000
,
0010
0000
1000
0100
0010
0000
0100
0000
,
1001
0000
0110
0000
0100
0001
1000
0000
,
0101
0000
1010
0000
0100
0001
0010
0000
,
0001
0000
1000
0000
0010
0001
1000
0000
,
0100
0000
1000
0010
0001
0000
0100
1000
,
0001
0000
0100
0000
0001
1000
0010
0000
,
0100
0000
0010
0000
0100
0001
1000
0000
,
0010
0000
1000
0001
0010
0000
0100
0000
,
0001
1000
0010
0000
0001
0100
1000
0000
,
0100
0010
0100
0010
,
0001
0100
0010
0100
,
0001
0010
0100
0000
0001
0100
1000
0000
,
0100
0010
0001
0100
,
1001
0000
0000
0000
;

//--------------- dance-single - ----------------
#NOTES:
     dance-single:
     :
     Medium:
     11:
     0,0,0,0,0:
0000
0000
0000
0000
,
0000
0000
0000
0000
,
0000
0000
0000
0000
,
0000
0000
0000
0000
,
0000
0000
0000
0000
,
0001
0010
0001
1000
,
0001
0010
0100
0010
,
0001
0100
1000
0001
0100
0010
1000
0100
,
0002
0000
0000
0000
1003
0000
0100
1000
,
0010
0000
0100
0000
0001
0000
1000
0100
,
0010
0000
0100
0000
0010
0000
0100
0010
,
0001
0000
0010
0000
0001
0100
1000
0000
,
0010
0001
0100
0000
0010
1000
0100
0001
,
0010
0000
1000
0000
0001
0000
1000
0010
,
0100
0000
1000
0100
0001
1000
0010
0100
,
0001
0000
0010
1000
0001
0000
0100
0001
,
0010
0100
1000
0000
0001
0000
1000
0100
,
0010
0000
1000
0000
0100
0001
0010
0000
,
0100
0010
1000
0100
0001
0010
0100
0000
,
0010
0000
1000
0000
0100
0001
0010
0000
,
0100
1000
0010
0100
0001
0010
1000
0010
,
0001
0000
1000
0001
0010
0000
1000
0000
,
0100
1000
0010
0000
0100
0001
0010
0000
,
0001
1000
0100
0000
0001
0100
0010
0000
,
0001
0010
1000
0100
0010
0001
0200
0000
,
0302
0000
0013
1000
0001
0100
1001
0011
,
0110
0000
1100
0000
1001
0000
0010
0000
0001
0010
0100
0001
1000
0100
0010
0000
,
0002
0000
0000
0000
0103
0000
1000
0100
0010
0000
0001
0000
1010
0000
0100
0000
,
1002
0000
0103
0000
1000
0000
0110
0000
0010
1000
0001
0000
0100
0001
1000
0100
,
0020
0000
0000
0000
0130
1000
0100
0000
0010
0001
0010
0000
1000
0100
1000
0000
,
0020
0130
1001
0110
0101
1010
1100
0101
,
0020
0000
0000
0000
0130
1000
0100
0000
0010
0001
0010
0000
1000
0001
0100
0000
,
0002
0000
0013
0000
1100
0000
0110
0000
1001
0000
0100
1000
0010
0000
0001
0010
,
0100
0000
1000
0100
,
0001
0000
0010
1000
,
0100
0000
0010
0001
,
1000
0000
0100
0000
0010
0000
1000
0100
,
0001
0100
0001
0010
,
0001
0010
0100
1000
,
0100
0001
1000
0100
0010
0100
1000
0100
,
0002
1000
0000
0013
,
1000
0000
1000
0000
0100
0000
0100
0010
,
0001
0000
0001
0000
1000
0010
0100
0001
,
1000
0010
1000
0010
0100
0001
0100
0010
,
1000
0000
0001
0100
0010
1000
0001
0100
,
1000
0100
0010
1000
0001
0010
0200
0000
,
1300
0000
1000
0100
0010
0001
1000
0010
,
0001
0010
0100
0001
0010
0100
2000
0000
,
0001
0000
3000
0001
0100
0010
0100
1000
,
0100
0001
1000
0100
0001
0100
0010
0100
,
1000
0000
0100
0010
0100
0010
0001
1000
,
0010
0100
0001
0000
1000
0000
0100
1000
,
0001
0010
0001
0100
0001
0100
0010
1000
,
0001
1000
0100
0010
0001
0010
0100
1000
,
0001
0000
1000
0100
1000
0100
0010
0001
,
0010
0100
1000
0010
1000
0001
0100
1000
,
0100
0200
0000
0000
0310
0100
0001
1000
,
0001
0010
0100
1000
0100
0010
0001
1000
,
0001
0100
0001
0010
0100
1000
0001
0100
,
0010
1000
0001
1000
0001
0100
0110
0000
,
0010
0000
1000
0001
0010
0100
1000
0010
,
1000
0000
1000
0001
0100
0001
0010
0100
,
1000
0000
0001
1000
0100
1000
0010
0100
,
0001
0000
1000
0001
0100
0001
0010
0100
,
1000
0000
0001
1000
0100
1000
0010
0100
,
0001
0010
0100
1000
0200
0000
1300
0000
,
0010
0001
0010
0001
0020
0000
0031
0000
,
0010
1000
0010
1000
0010
0000
0001
1000
,
0010
0100
0001
0010
0001
0000
1000
0001
,
0010
0000
0100
0000
1000
0000
0010
0000
1000
0000
0000
0000
1000
0000
0000
0100
,
0000
0000
0001
0000
0100
0000
0000
1000
0000
0000
0010
0000
1000
0000
0000
0010
,
1000
0100
0010
0001
0010
1000
0100
0001
,
0020
0000
0000
0130
,
0110
0000
0000
0000
;

//--------------- dance-single - ----------------
#NOTES:
     dance-single:
     :
     Hard:
     16:
     0,0,0,0,0:
0000
0000
0000
0000
,
0000
0000
0000
0000
,
0000
0000
0000
0000
,
0000
0000
0000
0000
,
0000
0000
0000
0000
,
1000
0100
0001
0010
0000
0110
0000
1001
,
0000
0000
0001
0010
0000
0110
0000
1000
,
0001
0000
0010
0000
0100
0000
1000
0000
0001
1000
0010
0100
0010
0000
1000
0000
,
0210
0000
0000
0000
0000
0000
0310
0000
1001
0000
0000
0000
0001
0000
0010
1000
,
0100
0010
1000
0010
1000
0010
0100
0001
,
1000
0000
0010
0000
0100
0000
0001
0000
0100
0000
0001
0000
1000
0000
0001
1000
,
0010
0100
1000
0100
0010
0100
1000
0010
,
1000
0000
0001
0000
0010
0000
0001
0000
0100
0000
0001
0010
0100
0000
0010
0000
,
1000
0000
0001
0100
1000
0000
0001
0000
0100
0000
0001
0000
0100
0000
0001
0000
,
0010
0000
0100
0000
0010
0000
0001
0000
1000
0000
0100
0001
1000
0000
0100
0000
,
0010
0001
1000
0001
0100
0001
1000
0100
,
0020
0000
0000
0000
1030
0000
0000
0000
1001
0000
0000
0001
0010
0000
1000
0000
,
0110
0001
0100
0010
0100
0010
0100
0001
,
1000
0000
0100
0000
1000
0000
0100
0000
1000
0000
0001
0010
0100
0000
0001
0000
,
0010
0001
0010
0100
0010
0001
0100
0010
,
0100
0000
0001
0000
1000
0000
0100
0000
0010
0000
0100
1000
0010
0000
0100
0000
,
0010
0000
0001
1000
0010
0000
0100
0000
0010
0000
0001
0000
0100
0000
0001
0000
,
1000
0000
0001
0000
1000
0000
0010
0000
1000
0000
0100
0001
0010
0000
0100
0000
,
0010
0000
0100
0000
1000
0010
0001
0000
0010
1000
0001
0000
1000
0100
0001
0000
,
0020
0000
0230
0000
2300
0000
3001
0000
0010
0100
0010
0000
1000
0000
1001
0000
,
0210
0000
0000
0000
0301
0000
0010
0000
0001
0000
0010
0000
0100
0000
1000
0000
0001
0010
0100
0000
0010
0000
0100
0000
0010
0000
0100
0010
0001
0000
1000
0000
,
0002
0000
0000
0000
1003
0000
0010
0000
0001
0000
0100
0000
0001
0000
1000
0000
0010
0001
1000
0010
0100
0000
1000
0000
0001
0000
0010
0000
0100
0000
0010
0000
,
2001
0000
0000
0000
3010
0001
1000
0100
1000
0010
0100
0010
1000
0001
0010
0001
,
0010
0001
0100
0010
1000
0000
0010
0000
0100
0000
0001
0000
0100
0000
0010
0000
0100
0000
0001
0000
0010
1000
0001
0000
1000
0001
0010
0000
1000
0001
0010
0100
,
2000
0000
0000
0000
0000
0000
0000
0000
3001
0000
0010
0000
0100
0000
2000
0000
3001
0000
0010
0000
0100
0000
0020
0000
0130
0000
1000
0100
0001
0000
1000
0000
,
0210
0000
0000
0000
0310
0000
0100
0000
0010
0000
0001
0000
1000
0000
0001
0000
0010
1000
0001
0010
0100
0000
0010
0100
1000
0100
0001
0000
1000
0100
0010
0000
,
1002
0000
0000
0000
0000
0000
0000
0000
1003
0000
0100
0000
0010
0000
0100
0000
0010
0000
0100
0000
1000
0000
0010
0000
1000
0000
0100
0000
0010
0000
0001
1000
,
0002
0000
0000
0000
0013
0000
0100
0000
1000
0000
0010
0000
0100
0000
0010
0000
1000
0100
0010
0000
1000
0000
0100
0001
1000
0000
0100
1000
0010
0100
0001
0010
,
2000
0000
0001
3020
0000
0032
0000
2003
,
0000
0000
3001
0020
0000
0230
0000
0320
,
0000
1030
0110
1001
,
0110
0011
0110
1100
,
0001
1000
0100
0010
0001
0010
0000
0100
,
1000
0000
0001
0010
0100
0010
1000
0000
,
0010
0001
0010
0000
0001
1000
0001
0000
1000
0100
1000
0000
0100
0010
0100
0000
,
0010
0001
1000
0000
1100
0000
0011
0000
,
0010
0000
0100
0000
0010
0000
1000
0000
0010
0000
0100
0000
0001
0000
0100
1000
,
0001
0000
0010
0000
0100
0000
1000
0000
0100
0000
0010
1000
0001
0000
0100
0001
,
0010
0000
0100
0000
0001
0000
0100
0000
0001
0000
0010
0100
0001
0000
1000
0000
,
0010
0000
1000
0001
0010
0000
1000
0001
0100
0000
0010
0000
0100
0000
1000
0000
,
0100
0000
0010
0000
0001
0000
1000
0010
0100
0000
1000
0000
0010
0000
0100
0000
,
0010
0001
0100
0000
0010
0000
1000
0000
0001
0000
0010
0000
0001
0000
0010
1000
,
0100
0000
1000
0000
0001
0000
1000
0000
0001
0010
1000
0000
0100
0000
0010
0000
,
0001
0000
1000
0010
0001
0000
1000
0001
0010
0000
0100
0001
0010
0000
1000
0000
,
0100
0000
0010
0000
0100
0000
1000
0000
0001
0000
1000
0000
0001
0000
1000
0010
,
0100
0000
0010
0000
0100
0000
0010
0000
0100
0000
1000
0000
0001
0000
0100
0010
,
0001
0000
0010
0000
0001
0000
0100
0000
0010
0000
0100
1000
0001
0000
1000
0000
,
0100
0000
1000
0010
0001
0000
0100
1000
0001
0000
0100
0010
0001
0000
0010
0000
,
0100
0000
0010
0000
0100
0000
1000
0000
0100
0000
0010
0000
0001
0000
0100
0001
,
0010
0000
1000
0000
0010
0000
0100
0000
0001
0000
0010
1000
0100
0000
1000
0000
,
0010
0000
1000
0001
0010
0000
1000
0001
0100
0000
0010
0001
0100
0000
0010
1000
,
0002
1000
0010
0100
,
1003
0000
0010
0000
0100
0000
0001
0000
1000
0000
0001
0000
1000
0000
0100
0001
,
1000
0000
0001
0000
0010
0000
0001
0000
1000
0000
0001
0000
0010
0000
0100
0001
,
1000
0000
0001
0000
1000
0000
0100
0000
1000
0000
0010
0000
0100
0000
0010
1000
,
0100
0000
0001
0000
0010
0000
0100
0000
0010
0000
0001
0010
1000
0000
0001
0010
,
0100
0000
0001
0000
0010
0000
0100
0000
1000
0000
0001
0000
0100
0000
0001
0010
,
1000
0000
0001
0000
1000
0000
0010
0000
1000
0000
0100
0001
0010
0000
0100
0001
,
1000
0000
0001
0000
0100
0000
0010
0000
1000
0000
0010
0000
0100
0000
0001
1000
,
0010
0000
0001
0010
0100
0000
0001
0100
1000
0000
0010
0001
0100
0000
0010
0000
,
1000
0010
1000
0100
0010
0001
0010
0100
,
1000
0001
0100
0010
1000
0010
1000
0010
,
0100
0001
0100
0010
0100
0010
1000
0010
,
0100
0001
1000
0100
0010
0001
0010
0100
,
1000
0000
0010
0000
1000
0000
0010
0000
1000
0000
0001
0000
0100
0000
0001
1000
,
0010
0000
0001
0000
0010
0000
0100
0000
1000
0000
0001
0000
1000
0000
0010
0100
,
1000
0000
0001
0010
0100
0000
0001
1000
0010
0000
0100
0001
1000
0000
0010
0000
,
0200
0000
0000
0300
,
1001
0000
0000
0000
;
