
//----- song ID: surk -----//
#TITLE:スリケンランナー ;
#ARTIST:Ninja Never DieS! ;
#TITLETRANSLIT:Suriken Runner;
#GENRE:ナムコオリジナル;
#MUSIC:Suriken Runner.ogg;
#BANNER:Suriken Runner.png;
#BACKGROUND:Suriken Runner-bg.png;
#CDTITLE:./CDTitles/NSD A3.png;
#SAMPLESTART:35.838;
#SAMPLELENGTH:15.000;
#SELECTABLE:YES;
#OFFSET:0.000;
#BPMS:0.000=185.000
,159.000=370.000
,191.000=185.000
,390.667=370.000
,395.333=185.000
;
#STOPS:;
#DISPLAYBPM:185.000;
#BGCHANGES:;
#FGCHANGES:;

//--------------- dance-single - ----------------
#NOTES:
     dance-single:
     :
     Beginner:
     6:
     0,0,0,0,0:
0000
0000
0000
0000
,
0000
0000
0000
0000
,
0000
0000
0000
0000
,
0000
0000
0000
0000
,
0000
0000
0000
0000
,
0000
0000
0000
0000
,
0001
0000
0000
0000
,
1000
0000
0000
0000
,
0010
0000
0100
0000
,
1000
0100
0010
0001
,
1001
0000
0000
0000
,
0001
0000
0010
0000
,
1001
0100
0000
1000
,
0000
0001
0010
0100
,
0000
0010
0000
0100
,
0000
1000
0100
0010
,
0000
1001
0000
0100
,
0000
0010
0001
0100
,
0000
1000
0000
0001
,
0000
0100
0010
0100
,
1000
0001
0100
0000
,
0010
0000
1000
0001
,
0100
0000
0010
0000
,
0001
0000
0010
0000
,
1000
0100
0010
0000
,
0001
0010
0100
0000
,
1000
0000
0001
0000
,
1000
0000
0000
0000
,
1001
0100
0010
0000
,
0001
0010
0100
0000
,
1000
0000
0001
0000
,
0010
0100
1000
0000
,
0001
1000
0000
0001
,
0000
0100
0010
0001
,
0010
0000
0100
0000
,
1000
0001
0100
0000
,
1000
0000
1000
0000
,
0000
0001
0000
0000
0000
0000
0000
0001
,
0000
0000
0000
0010
,
0000
0000
0000
0000
,
0000
1001
0000
0000
,
0000
0000
0000
0000
,
0000
0000
0000
0000
,
0000
0000
0000
0000
,
0000
0000
0000
0000
,
0000
0000
0000
0000
,
0000
0000
0000
0000
,
0000
0000
0000
0000
,
0010
0100
1000
0000
,
0001
0000
0100
0000
,
0010
0001
0000
0010
,
0000
0100
0000
1000
,
0001
0100
0010
0000
,
1000
0001
0100
0000
,
0010
0000
0100
0000
,
0001
0010
0100
0000
,
1001
0000
0000
0000
,
0010
0000
0000
0000
,
0100
0000
0010
0000
,
0001
0000
0000
0000
,
1000
0000
0001
0000
,
0010
0000
0100
0000
,
2000
0000
0000
0000
,
3002
0000
0000
0000
,
0103
0000
0010
0000
,
1000
0000
0000
0000
,
0001
0000
0010
0000
,
0100
0000
0000
0000
,
1000
0000
0000
0000
,
0100
0000
0000
0000
,
0010
0000
0001
0000
,
0010
0000
0000
0000
,
1000
0000
0000
0000
,
0000
0000
0000
0000
,
1001
0000
0100
0000
,
0010
0000
0001
0010
,
0100
0000
1000
0000
,
0001
0000
0010
0000
,
0100
0000
1000
0000
,
0001
0010
0100
0000
,
0001
0010
0100
0000
,
1000
0001
0100
0010
,
1000
0000
0001
0000
,
0100
0010
0100
0000
,
1000
0001
0100
0000
,
0010
0000
0001
0000
,
0010
0100
1000
0000
,
0001
1000
0001
0000
,
1000
0100
0010
0001
,
0010
0100
0001
1000
,
0001
0000
0001
0000
,
0000
1000
0000
0000
0000
0000
0000
1000
,
0000
0000
0000
0001
,
0000
0000
0001
0000
,
0001
0000
0010
0000
,
0000
0100
0000
0000
0000
0100
0000
0000
,
0000
0000
0000
1000
0000
0000
0000
0000
,
0001
0000
0000
0000
0100
0000
0000
0000
1000
0000
0000
0000
,
0000
0000
0000
0000
0000
0000
0000
0000
0000
0000
1001
0000
;

//--------------- dance-single - ----------------
#NOTES:
     dance-single:
     :
     Easy:
     8:
     0,0,0,0,0:
0000
0000
0000
0000
,
0000
0000
0000
0000
,
0000
0000
0000
0000
,
0000
0000
0000
0000
,
0000
0000
0000
0000
,
0000
0000
0000
0000
,
1000
0000
0001
0000
,
0100
0000
0010
0000
,
1000
0001
0100
0010
,
1000
0001
0100
0010
,
2000
0000
0000
0000
,
3001
0010
0100
0000
,
1001
0100
0010
0001
,
0010
0100
0001
1000
,
0001
0100
0010
0001
,
0010
0100
0001
1000
,
0001
0100
0010
0100
,
1000
0001
0100
0010
,
0001
1000
0001
0100
,
0010
0100
1000
0001
,
0020
0130
1000
0001
,
0100
0010
0100
0000
,
1000
0001
0010
0001
,
0100
0010
1000
0000
,
0001
0100
0010
0000
,
1000
0001
0100
0000
,
0010
0100
1000
0001
,
0100
0000
0000
0000
,
1001
0100
0010
1000
,
0001
0100
0010
0001
,
1000
0000
0001
0000
0100
0000
0010
0001
,
0000
1000
0001
0000
0010
0000
0100
0000
,
2000
3001
0100
0010
,
0100
1000
0001
0100
,
0010
0001
0010
0100
,
1000
0001
0100
0010
,
1000
0000
1000
0000
,
0000
0001
0000
0000
1000
0000
0000
0001
,
0000
0000
1000
0001
0000
0000
0010
0000
,
0100
1000
0001
0100
,
0000
0220
0000
0000
,
0000
0000
0000
0000
,
0000
0000
0000
0000
,
0000
0000
0000
0000
,
0000
0000
0000
0000
,
0000
0000
0000
0000
,
0000
0000
0000
0000
,
0000
0000
0000
0330
,
2000
3001
0010
0100
,
0010
1000
0001
0100
,
0010
0001
0010
0100
,
1000
0001
0100
0010
,
1000
0001
0100
0010
,
0100
1000
0001
0100
,
0010
1000
0001
0100
,
0010
0001
0010
0100
,
2001
0000
0000
0000
,
3100
0000
0010
0000
,
0001
0000
0010
0000
,
0100
1000
0001
0000
,
0100
0000
0010
0000
,
0001
0010
0100
0000
,
1000
0000
0000
0000
0001
0000
0000
0000
0100
0000
0000
0000
,
0020
0000
0000
0000
,
0130
0000
1000
0000
,
0001
0100
0010
0000
,
1000
0000
0001
0000
,
0010
0000
0100
0000
1000
0001
0010
0000
,
0100
0000
1000
0000
,
0001
0000
0010
0000
,
1000
0100
0010
0000
0000
0001
0010
0100
,
0000
2000
0000
0000
,
3001
0000
0000
0000
,
0000
0000
0000
0000
,
1010
0100
1000
0001
,
0010
0100
0001
0010
,
0100
0000
1000
0000
0001
0000
0100
0010
,
0000
0100
0010
0000
0100
0000
1000
0000
,
0002
1003
0010
0100
,
0001
0010
0100
1000
,
0001
0100
0001
0010
,
0100
0000
1000
0000
0001
0010
0100
0000
,
2000
3001
0010
0100
,
0010
0001
0010
0100
,
0001
0000
1000
0000
0001
0000
0010
0001
,
0000
0100
1000
0000
0001
0000
0010
0000
,
0100
1000
0001
0100
,
0010
0001
0010
0100
,
1000
0001
0010
0000
0100
1000
0001
0000
,
0010
0100
1000
0001
,
0010
0000
0010
0000
,
0000
1000
0000
0000
0000
0000
0000
1000
,
0000
0000
0001
0010
,
0000
0100
0000
1000
,
0000
0000
1000
0000
0000
0000
0000
0001
,
0000
0000
0000
0010
0000
0000
0100
0000
,
0000
1000
0001
0010
,
0100
0000
0000
0000
1000
0000
0000
0000
0001
0000
0000
0000
,
0000
0000
0000
0000
0000
0000
0000
0000
0000
0000
1001
0000
;

//--------------- dance-single - ----------------
#NOTES:
     dance-single:
     :
     Medium:
     12:
     0,0,0,0,0:
0000
0000
0000
0000
,
0000
0000
0000
0000
,
0000
0000
0000
0000
,
0000
0000
0000
0000
,
0000
0000
0000
0000
,
0000
0000
0000
0000
,
0001
0010
0100
1000
,
0001
0100
0010
1000
,
0001
0010
0100
0000
1000
0001
0010
0000
,
0100
0000
0000
1000
0000
0000
0001
0000
0000
0010
0000
0000
0100
0000
0000
1000
0000
0000
0001
0000
0010
0000
0100
0000
,
2000
0000
0000
0000
,
0000
0000
0000
3001
,
1001
0000
0110
0000
0010
0001
0100
0000
,
0010
0000
0100
1000
0001
0000
0100
0000
,
0010
0001
1000
0000
0010
0000
0100
0001
,
0010
0000
0100
0010
0001
0000
1000
0000
,
0200
0000
1300
0000
0100
0001
0010
0000
,
0001
1000
0010
0000
0001
0100
1000
0000
,
0001
1000
0010
0001
0100
0000
1000
0000
,
0100
1000
0010
0100
0001
0010
0200
0000
,
0310
0100
0010
1000
,
0100
0000
1000
0000
0100
0001
0010
0000
,
0100
1000
0010
0100
,
0001
1000
0010
0000
0100
0001
0010
0000
,
1000
0000
0001
0000
0010
1100
0000
0000
,
0011
0100
0000
1000
0001
0010
0100
0000
,
1000
0001
0010
0000
0100
0000
1000
0001
,
0010
0000
0100
0000
1000
0001
0010
0000
,
0101
0000
0010
0000
0100
1000
0001
0000
,
0010
0000
0100
0001
0010
0100
0000
0000
,
0001
0010
0100
0000
1000
0001
0010
0100
,
0000
0010
0100
0000
1001
0000
0010
0100
,
2000
0000
3001
0000
0010
0100
1000
0000
,
0001
0010
0100
0000
0001
0010
0100
0000
,
1000
0001
0010
0000
0100
1000
0001
0000
,
0010
0000
0100
1000
0001
0000
0010
0000
,
0100
1000
0001
0000
0010
0100
1000
0001
,
0000
0010
0100
0001
0010
0100
0000
1000
,
0001
0010
0100
0001
1000
0000
0001
0010
,
0100
1000
0001
0010
0100
0000
0000
0000
,
0000
2002
0000
0000
,
0000
0000
0000
0000
,
0000
0000
0000
0000
,
0000
0000
0000
0000
,
0000
0000
0000
0000
,
0000
0000
0000
0000
,
0000
0000
0000
0000
,
0000
0000
0000
3003
,
0001
0000
0110
0110
0110
0000
1100
0000
,
0101
0110
1010
0010
,
1000
0100
0000
0001
0000
1001
0000
0010
,
0100
0000
1000
0001
0010
0100
0020
0000
,
0130
1001
0101
1010
,
0110
0000
0000
0101
0000
0000
1000
0100
0010
0001
0000
0000
,
1000
0001
0010
0000
0100
1000
0001
0010
,
0100
0001
0010
0100
1000
0001
0010
0000
,
0200
0000
0000
0000
,
0320
0000
0032
0000
,
2003
0000
0000
3200
,
0320
0000
0000
0000
,
0031
0010
0100
1000
,
0001
0100
0010
1000
,
0001
0000
0001
0000
0001
0000
0001
0000
1000
0000
1000
0000
,
2000
0000
0000
0000
,
3001
0010
0100
1000
,
0001
0000
0100
0010
1000
0000
0001
0000
,
0100
0001
0010
0100
,
1000
0001
0010
0000
0100
0000
1000
0000
,
0001
0010
0100
0000
1000
0000
0001
0000
,
0100
1000
0001
0000
0010
0000
0100
0000
,
1000
0001
0010
0100
1000
0001
0010
0100
,
0002
0000
0000
0000
,
1003
0000
0000
0000
,
0010
0000
0100
0000
,
1001
0000
0010
0000
0100
1000
0001
0000
,
0010
0000
0100
0001
0010
0100
0000
0000
,
0001
0010
0100
0000
1000
0001
0010
0100
,
0000
0010
0100
0000
1001
0000
0010
0100
,
2000
0000
3001
0000
0010
0100
1000
0000
,
0001
0010
0100
0000
0001
0010
0100
0000
,
1000
0001
0010
0000
0100
1000
0001
0000
,
0010
0000
0100
1000
0001
0000
0010
1000
,
0200
0000
0301
1000
0010
0100
1000
0001
,
1000
0010
0100
0001
0010
0100
0001
1000
,
0001
0010
0100
0001
1000
0010
0001
0010
,
0000
1000
0001
0010
0100
1000
0002
0000
,
0103
0010
1000
0000
0100
0010
0001
0010
,
1000
0001
0010
1000
0001
0010
0100
0001
,
0010
0000
0100
0000
1000
0000
0001
0000
0010
0000
0100
0000
0001
0000
0010
1000
,
0100
0010
0001
0010
1000
0001
0010
0100
,
0100
1000
0001
0000
0010
0100
0001
0010
,
0000
0100
1000
0001
0010
0100
0000
1000
,
0001
0010
0100
0001
1000
0000
0001
0010
,
0100
0001
0010
0100
1000
0000
0001
1000
,
0010
0000
1000
0001
1000
0001
0000
0010
,
0100
0001
0010
0100
0000
1000
0001
0010
,
0100
0001
0010
0000
0100
1000
0001
0010
,
0100
0000
0000
0000
1001
0000
0000
0000
0110
0000
0000
0000
,
0000
0000
0000
0000
0000
0000
0000
0000
0000
0000
1001
0000
;

//--------------- dance-single - ----------------
#NOTES:
     dance-single:
     :
     Hard:
     16:
     0,0,0,0,0:
0000
0000
0000
0000
,
0000
0000
0000
0000
,
0000
0000
0000
0000
,
0000
0000
0000
0000
,
0000
0000
0000
0000
,
0000
0000
0000
0000
,
1001
0000
0101
0000
,
1010
0000
0101
0000
,
0001
0000
0000
1000
0000
0000
0001
0000
0000
0010
0000
0000
0100
0000
0000
1000
,
0000
0000
0000
0000
0000
0000
0001
0000
0000
0000
0000
0000
0000
0000
0000
0010
0000
0000
0000
0000
0000
0000
0000
0000
1000
0000
0000
0000
0000
0000
0001
0000
0000
0000
0000
0000
0010
0000
0000
0000
0001
0000
0000
0000
0010
0000
0000
0000
,
0002
0000
0000
0000
,
1000
1000
1000
1003
,
1001
0000
0000
0000
0110
0000
0000
0000
1000
0100
0010
0000
0100
0010
0001
0000
,
1000
0000
0000
0000
0001
0100
0010
0000
0100
0010
1000
0000
0001
0010
0100
0010
,
0001
0000
0000
0000
1001
0000
0000
0000
1000
0010
0100
0000
0010
0100
0001
0000
,
1000
0000
0000
0000
0001
0010
0100
0000
0010
0100
1000
0000
0010
0000
0001
0000
,
0100
0000
0000
0000
1001
0000
0000
0000
0001
0010
0100
0000
0010
0100
1000
0000
,
0001
0000
0000
0000
1000
0010
0100
0000
0010
0100
0001
0000
1000
0100
0010
0100
,
1000
0100
0000
0000
1010
1001
0000
0000
,
0001
1000
0001
1000
0001
0010
0000
0100
1000
0000
0001
0000
0010
0000
0100
0000
,
1000
0000
0002
0000
0000
0000
0000
0000
1003
0000
0100
0010
0000
0001
0010
0000
,
0100
0000
1000
0000
0100
1000
0000
0010
0001
0000
0100
1000
0000
0001
0010
0100
,
1000
0000
0200
0000
0000
0000
0000
0000
0301
0000
0010
0000
0000
1000
0001
1000
,
0001
0000
0010
0000
1000
0100
0010
0001
0010
0000
1000
0001
0000
0010
0100
0000
,
1000
0100
0010
0001
0100
0010
1000
0001
,
0010
0100
1000
0010
0100
0001
0010
0100
,
1000
0000
0000
0010
0000
0000
0001
0000
0000
0000
0100
0000
0000
0000
1000
0000
,
0010
0000
0000
0101
0000
0000
0011
0000
0000
1100
0000
0000
1001
0000
0000
0000
,
0110
0100
0010
1000
0010
0001
0010
1000
,
0100
0000
0001
0000
0100
0000
1000
0000
0010
0000
0100
0000
0010
1000
0100
0000
,
0010
0001
0100
1000
0100
0001
0010
0100
,
1000
0000
0010
0000
0001
0000
0010
0000
1000
0000
0001
0000
1000
0001
0100
0000
,
0001
0010
0100
1000
0001
0100
0010
0001
,
1000
0000
0100
0000
0010
0000
0001
0000
1000
0000
0100
0000
0001
1000
0100
0000
,
0010
0001
0100
0010
1000
0010
0001
0010
,
1000
0000
0001
0000
0100
0000
1000
0000
0001
0000
0010
1000
0200
0000
0320
0000
,
0032
1003
0010
0000
0001
0010
0100
1000
,
0000
0001
0010
0100
1000
0001
0000
1000
,
0100
0010
0001
0010
0200
0000
0310
1000
,
0001
0100
1000
0001
0010
0000
1000
0000
,
0000
2002
0000
0000
,
0000
0000
0000
0000
,
0000
0000
0000
0000
,
0000
0000
0000
0000
,
0000
0000
0000
0000
,
0000
0000
0000
0000
,
0000
0000
0000
0000
,
0000
0000
0000
3003
,
1001
0000
0000
0000
1000
0100
0010
0001
0200
0000
0000
0000
0310
1000
0001
0000
,
0100
0010
1000
0100
0001
0100
1000
0010
,
1000
0010
0100
0000
1000
0000
0001
0010
0100
0000
1000
0001
0010
0100
0001
0000
,
1000
0010
0001
0010
0100
0001
0010
0100
1000
0000
0010
0000
0100
0000
0001
0000
,
0100
0000
1000
0010
1000
0001
0010
0100
,
1000
0000
0010
0000
0001
0000
0010
0000
1000
0010
0100
0001
0010
0100
1000
0000
,
0010
0100
0001
0000
1000
0100
0010
0001
0100
0010
0001
0000
0020
0000
0031
0010
,
0100
0001
0010
0000
0001
0100
0010
1000
0001
0100
0010
0000
1000
0000
0000
0000
,
1001
0000
0010
0000
,
1000
0001
0100
0000
,
0010
0000
0100
0000
,
1000
0001
0100
0010
,
1000
0010
0001
0100
,
1000
0001
0100
0010
,
1000
0000
1001
0000
0101
0000
1010
0000
0101
0000
1001
0000
,
0220
0000
0000
0330
,
1000
0100
0010
0000
0001
0100
0010
0000
,
0010
1000
0001
0000
1000
0001
0100
0000
,
0110
0000
2002
3003
0010
0001
1000
0100
,
0010
0000
0001
0000
1000
0000
0001
0000
0100
0000
0001
0010
0001
0100
0010
1000
,
0001
0010
0100
0000
1000
0010
0100
0000
,
0100
0001
1000
0000
0001
1000
0010
0000
,
0000
0000
1000
0000
0001
0000
1000
0000
0010
0000
1000
0100
1000
0010
0100
0001
,
0020
0000
0000
0130
1000
0100
1000
0100
1000
0100
1000
0100
,
2000
0000
0000
0000
,
0000
0000
0000
3010
,
0001
0000
1000
0001
0100
0000
0001
0000
0010
0100
1000
0000
0010
0100
0010
0000
,
0001
0010
0000
0000
0100
0010
0000
0000
0100
0000
0001
0000
1000
0000
0100
0000
,
1000
0000
0001
1000
0100
0000
1000
0000
0010
0100
0001
0000
0010
0100
0010
0000
,
0100
1000
0000
0000
0001
0010
0000
0000
0001
0100
0001
0000
0100
0000
0010
1000
,
0001
0000
0010
0000
0001
0000
0100
0010
1000
0000
0001
0000
0010
0000
0100
1000
,
0010
0000
1000
0000
0001
0000
1000
0100
0010
0000
0001
0000
1000
0000
0001
0100
,
0001
0000
1000
0001
1000
0000
0100
1000
0100
0000
0010
0100
1000
0100
0010
0001
,
0010
0001
1000
0100
1000
0010
0100
0010
1000
0001
0010
0100
0000
0000
1000
0100
,
1000
0000
0001
1000
0100
0000
1000
0000
0010
0100
0001
0000
0010
0100
0010
0000
,
1000
0010
0000
0000
0100
0010
0000
0000
0100
0000
1000
0000
0001
0000
0100
0000
,
0001
0000
1000
0001
0100
0000
0001
0000
0010
0100
1000
0000
0010
0100
0010
0000
,
0100
0001
0000
0000
1000
0010
0000
0000
1000
0100
1000
0000
0100
0000
0010
0001
,
1000
0000
0010
0000
1000
0000
0100
0010
0001
0000
1000
0000
0010
0000
0100
0001
,
0010
0000
0001
0000
1000
0000
0001
0100
0010
0000
1000
0000
0001
0000
1000
0100
,
1000
0000
0001
1000
0001
0000
0100
0001
0100
0000
0010
0100
0001
0100
0010
1000
,
0010
0100
0001
1000
0001
0010
0001
0010
0001
1000
0010
0100
0001
0010
0001
0010
,
0001
1000
0010
0000
0001
0010
0100
1000
,
0000
0001
0010
0100
1000
0001
0000
1000
,
0100
0010
0001
0010
0200
0000
0310
1000
,
0001
0100
1000
0001
0020
0000
1030
0100
,
0001
0000
0002
1003
0010
1000
0000
0010
,
0100
1000
0010
0001
0000
0100
1000
0001
,
0010
1000
0200
0000
0301
0010
0100
1000
,
0010
0000
0000
0000
1001
0000
0000
0000
0110
0000
0000
0000
,
0000
0000
0000
0000
0000
0000
0000
0000
0000
0000
2002
0000
,
0000
0000
0000
0000
,
3003
0000
0000
0000
;
