#TITLE:すきに理由はいらないじゃん!;
#ARTIST:オミコシスターズ feat. Ponchi♪/WADIVE RECORD;
#TITLETRANSLIT:Suki ni Riyu wa Iranai Jan!;
#ARTISTTRANSLIT:Omiko Sisters feat. Ponchi♪/WADIVE RECORD;
#GENRE:春を呼ぶ桜の祝祭;
#MUSIC:Suki ni Riyu wa Iranai Jan!.ogg;
#BANNER:Suki ni Riyu wa Iranai Jan!.png;
#BACKGROUND:Suki ni Riyu wa Iranai Jan!-bg.png;
#CDTITLE:./CDTitles/NSD A3.png;
#SAMPLESTART:65.242;
#SAMPLELENGTH:15.000;
#SELECTABLE:YES;
#OFFSET:0.000;
#BPMS:0.000=165.000;
#STOPS:;
#BGCHANGES:;
#FGCHANGES:;

//--------------- dance-single - ----------------
#NOTES:
     dance-single:
     :
     Beginner:
     5:
     0,0,0,0,0:
0000
0000
0000
0000
,
0000
0000
0000
0000
,
0000
0000
0000
0000
,
0010
0000
0000
0100
0000
0000
0010
0000
,
0000
2002
0000
0000
0000
3003
0000
0000
,
1000
0001
0100
0000
,
0010
0100
1000
0000
,
0001
1000
0001
0000
,
0100
0000
0010
0000
,
1001
0100
1000
0000
,
0001
0100
0010
0000
,
1000
0001
0100
0000
,
1000
0000
0001
0000
,
2002
0000
0000
0000
,
3003
0000
0000
0000
,
0001
0000
1000
0000
,
0001
0000
0010
0000
,
0100
0000
1000
0000
,
0001
1000
0001
0000
,
0100
0000
0010
0000
,
0100
0000
1000
0000
,
0001
0000
0010
0000
,
0100
1000
0001
0000
,
0100
0000
0000
0000
,
0010
0000
0000
0000
,
0100
0000
0000
0000
,
0010
0010
0001
0000
,
0010
0000
0100
0000
,
1000
0000
0001
0000
,
0010
0000
0100
0000
,
0010
0010
1000
0000
,
0002
0000
0003
0000
,
0200
0000
0000
0000
0300
0000
0000
1001
,
0000
0000
0000
0010
0000
0000
0000
1000
,
0000
0001
0000
1000
0000
0001
0000
0000
,
0000
1000
0001
0000
0000
0000
0010
0000
,
0000
0000
1000
0000
0100
0000
0000
0001
,
0000
0000
0010
0000
1000
0000
0000
0001
,
0000
0000
1000
0000
0001
0000
0000
0200
,
0000
0000
0320
0000
,
0030
1000
0001
0100
,
1000
0000
0000
0000
,
0001
0000
0000
0000
,
0010
0000
0100
0000
,
1000
0000
0000
0000
,
1001
0100
0010
0000
,
0001
0010
0100
0000
,
1000
0000
0001
0000
,
0100
0100
0001
0000
,
0100
0000
1000
0000
,
0001
0010
0100
0000
,
1000
0000
0001
0000
,
0100
0000
0000
0000
,
0000
1001
0100
0000
,
0010
0000
0100
0000
,
1000
0001
0100
0000
,
0010
0000
0100
0000
,
1000
0001
0100
0000
,
0010
0100
0000
1000
0000
0000
0000
0000
,
0001
0000
0100
0000
,
1000
0000
0001
0000
,
1001
0000
0000
0000
,
0100
0000
0000
0000
,
0010
0000
0100
0000
,
1000
0000
0000
0000
0000
0000
0100
0100
,
0001
0000
0000
0000
,
1000
0000
0001
1000
,
0000
0000
0100
0000
,
0010
0000
0100
1000
,
0001
0000
0000
0000
0000
0100
0000
0100
,
0000
0000
0000
0010
,
0000
0000
0000
0000
0000
0010
0000
0010
,
0000
0000
0000
0000
,
1000
0000
0000
0001
0000
0000
1000
0000
,
0000
0001
0000
0000
0000
0000
0000
0000
,
0000
2002
0000
0000
,
3003
0000
0000
0000
;

//--------------- dance-single - ----------------
#NOTES:
     dance-single:
     :
     Easy:
     7:
     0,0,0,0,0:
0000
0000
0000
0000
,
0000
0000
0000
0000
,
0000
0000
0000
0000
,
0010
0000
0000
0100
0000
0000
0010
0000
,
0000
2002
0000
0000
0000
3003
0000
0000
,
1000
0000
0001
0000
0000
1000
0000
0001
,
0000
0000
0100
0000
1000
0001
0100
0000
,
0001
0000
0000
0000
0000
0100
0000
0010
,
0000
0010
0001
0010
0000
0100
0100
0001
,
1001
0000
0000
0000
0000
0010
0000
0100
,
0000
0000
0100
0000
0010
0001
0010
0000
,
0000
0000
0001
0000
0000
0010
0000
0100
,
0000
0000
0001
0000
0000
1000
0000
0000
0001
0000
0000
0100
0000
0000
0010
0000
,
2002
0000
0000
0000
,
3003
0000
0000
0000
,
0001
0000
1000
0000
,
0001
0000
0010
0000
,
0100
0000
1000
0000
,
0001
1000
0001
0000
,
0100
0000
0010
0000
,
0100
0001
1000
0000
,
0001
0000
0010
0000
,
0100
0000
1000
0000
0001
0000
0010
0001
,
0100
0000
0001
0000
,
0010
0000
0001
0000
,
0100
0000
0001
0000
,
0010
0000
0010
0000
0001
1000
0001
0000
,
0010
0000
0001
0010
0100
0000
0001
0000
,
1000
0000
0100
1000
0001
0000
1000
0000
,
0010
0000
0000
0001
0000
0000
1000
0000
0000
0000
0000
0000
0001
0000
0000
0000
,
0010
0000
1000
0100
,
0002
0000
0003
0010
,
0200
0000
0000
0000
0300
0000
0000
1001
,
0000
0000
0000
0010
0000
0000
0100
1000
,
0000
0001
0000
1000
0000
0001
0000
0000
,
0000
1000
0001
0000
1000
0000
0010
0000
,
0001
0000
1000
0000
0100
0001
1000
0001
,
0000
0000
0010
0000
1000
0000
0000
0001
,
0000
0000
1000
0000
0001
0000
0010
0200
,
0000
0000
0320
0000
,
0030
0000
1000
0010
0001
0000
0100
0000
,
1000
0001
0010
0000
0100
1000
0001
0000
,
0001
0100
1000
0001
,
0010
1000
0000
0000
0100
0001
0000
0000
,
0000
2002
3003
0000
,
1001
0000
0000
0000
0010
0000
0000
0010
,
0001
0000
0010
0000
0100
0000
0000
0010
,
1000
0100
0001
1000
,
0000
0000
0100
0000
0001
1000
0001
0000
,
0100
0000
1000
0000
,
0001
0000
0010
0100
0000
0001
0100
0010
,
1000
0000
0000
0100
0000
0000
0010
0000
0001
0000
0000
0000
1000
0000
0000
0000
,
0100
0000
1000
0001
,
0000
0000
1001
0000
0000
1000
0001
0000
,
0010
0000
0000
0000
0100
0000
0000
0001
,
1000
0000
0001
0000
0100
1000
0001
0000
,
0010
0000
0100
0001
,
1000
0000
0001
0000
0100
1000
0001
0000
,
0010
0100
0000
1000
0000
0000
0100
0000
,
0001
0000
0000
1000
0000
0000
0001
0000
0100
0000
0000
0000
0001
0000
0000
0000
,
0000
0100
0001
0010
,
1001
0000
0000
0010
0000
0000
0000
0000
,
0100
0000
0000
1000
0000
0000
0000
0000
,
0010
0000
0100
0000
,
1000
0000
0000
0000
0000
0000
0100
0100
,
0001
0000
0010
0000
,
1000
0000
0001
0000
,
0010
0000
0100
0000
,
0010
0000
0100
1000
,
0001
0000
0000
0000
0000
0100
0000
0100
,
0001
0000
0000
0000
0001
1000
0010
0000
,
0000
0000
0000
0000
0000
0010
0000
0010
,
0001
0000
1000
0000
0000
0100
0000
0000
0001
0000
0000
0010
0000
0000
0100
0000
,
1000
0000
0000
0001
0000
0000
1000
0000
,
0000
0001
0000
0000
0000
0000
0000
0000
,
0000
2002
0000
0000
,
3003
0000
0000
0000
;

//--------------- dance-single - ----------------
#NOTES:
     dance-single:
     :
     Medium:
     10:
     0,0,0,0,0:
0000
0000
0000
0000
,
0000
0000
0000
0000
,
0000
0000
0000
0000
,
0100
0000
0000
0010
0000
0000
0100
0000
,
0000
2002
0000
0000
0000
3003
0000
0000
,
0001
0000
1000
0000
0010
0001
0010
1000
,
0100
0000
0010
0000
0001
1000
0010
0100
,
1000
0000
0001
0000
1000
0010
0001
0100
,
0001
0100
1000
0100
0000
0100
0100
0001
,
1001
0000
0010
1000
0001
0100
0001
0010
,
1000
0000
0010
0000
0100
1000
0100
0010
,
0001
0000
1000
0000
0010
0100
1000
0010
,
0001
0000
1000
0000
0000
0001
0000
0000
1000
0000
0000
0010
0000
0000
0100
0000
,
2002
0000
0000
0000
,
3003
0000
0000
0000
,
1000
0010
0001
0100
,
1000
0010
0001
0000
0100
0001
1000
0000
,
0010
0000
0100
0000
0001
1000
0010
0000
,
1000
0000
0001
0000
1000
0001
0100
1000
,
0010
0000
0001
0000
0100
0001
1000
0000
,
0010
0000
1000
0100
0001
0000
0010
0000
,
1000
0010
0001
0000
0100
0010
1000
0000
,
0010
0000
0001
0000
1000
0000
0100
1000
,
0010
1000
0001
0000
1000
0001
0010
0000
,
0100
0010
0001
0000
1000
0001
0100
0000
,
0010
1000
0001
0000
1000
0001
0010
0000
,
0100
0001
0100
0000
1000
0001
1000
0000
,
0100
0000
1000
0100
0010
0000
1000
0010
,
0001
0000
0010
0001
1000
0000
0001
0000
,
0100
0000
0000
1000
0000
0000
0001
0000
0000
0000
0010
0000
1000
0000
0000
0000
,
0100
0000
0100
0000
0001
1000
0010
0000
,
2000
0000
0000
0000
3001
0000
0100
1000
,
0020
0000
0000
0000
0130
0000
0000
1001
,
0000
0100
0001
0100
0000
1000
0010
0001
,
0000
1000
0000
0001
0000
1000
0000
0010
,
0000
0001
1000
0000
0001
0000
0100
0000
,
1000
0010
0001
0000
0010
1000
0001
1000
,
0000
0000
0100
0000
0001
0000
0010
1000
,
0000
0000
0001
0000
1000
0000
0100
0020
,
0000
0000
0230
0000
,
0300
0000
0001
0100
1000
0001
0010
1000
,
0001
1000
0100
0000
0010
0001
1000
0000
,
1000
0010
0001
1000
,
0100
0001
1000
0100
0010
1000
0001
0100
,
0001
2002
3003
0000
,
1001
0000
0010
0000
0100
1000
0001
0100
,
1000
0000
0100
0001
0010
0000
1000
0100
,
0001
0100
0010
0000
1000
0000
0001
0000
,
0010
1000
0010
0000
1000
0001
1000
0000
,
0010
1000
0100
0000
0001
1000
0010
0000
,
1000
0001
0100
0010
0000
1000
0010
0100
,
0001
0000
0000
0010
0000
0000
0100
0000
1000
0000
0000
0000
0001
0000
0000
0000
,
0010
0100
1000
0010
0001
0000
1000
0000
,
0010
0100
1001
0000
0010
0001
1000
0000
,
0100
1000
0001
0000
0010
0000
0100
1000
,
0001
0000
1000
0000
0010
0001
1000
0000
,
0100
0010
1000
0000
0010
0100
1000
0000
,
0001
0000
1000
0000
0010
0001
1000
0000
,
0100
0010
0000
0001
0000
1000
0010
0100
,
1000
0000
0000
0001
0000
0000
1000
0000
0010
0000
0000
0000
1000
0000
0010
0000
,
0001
0000
0010
0000
1000
0001
0100
0000
,
1001
0000
0000
0100
0000
0000
1000
0000
,
0010
0000
0000
0001
0000
0000
0010
0000
,
0100
1000
0010
1000
,
0001
0000
1000
0001
0000
0000
0100
0100
,
0001
0000
0001
0000
0100
0000
1000
0010
,
0001
0100
1000
0002
,
0203
0010
0010
0301
,
0100
0000
0001
0000
0100
0100
0001
0000
,
1000
0000
0100
0000
0001
0010
1000
0010
,
1000
0000
0001
0000
1000
0001
0100
1000
,
0010
0000
1000
0000
0001
0100
0001
0100
,
1000
0000
0001
0000
0000
0010
0000
0000
1000
0000
0000
0100
0000
0000
0010
0000
,
0001
0000
0100
1000
0000
0010
0001
0000
,
0100
0220
0000
0000
0000
0000
0000
0000
,
0330
2002
0000
0000
,
3003
0000
0000
0000
;

//--------------- dance-single - ----------------
#NOTES:
     dance-single:
     :
     Hard:
     15:
     0,0,0,0,0:
0000
0000
0000
0000
,
0000
0000
0000
0000
,
0000
0000
0000
0000
,
1001
0000
0000
0110
0000
0000
0101
0000
,
0000
2002
0000
0000
0000
3003
0000
0000
,
0010
0100
0001
0010
0100
0010
0100
1000
,
0010
1000
0001
1000
0010
0100
0010
1000
,
0010
0100
0001
1000
0001
0010
0100
1000
,
0010
1000
0100
0010
0001
0100
2000
0000
,
3010
0001
0100
0010
0100
0001
0100
0010
,
1000
0010
0100
0010
1000
0001
1000
0010
,
0100
0001
1000
0001
0100
0001
0100
0001
,
0000
0000
1001
0000
0000
0101
0000
0000
1001
0000
0000
0000
1001
0000
0000
0000
,
0220
0000
0000
0330
,
0000
0000
0002
0000
0000
0000
0000
0000
0000
0000
0000
1003
0000
0000
0001
0000
,
0100
0000
1000
0000
0001
0000
0000
0000
1000
0000
0000
0001
0000
0000
0100
0000
,
0010
0000
0000
1000
0000
0000
0002
0000
0000
0000
1003
0000
0200
0000
0000
0000
,
1300
0010
0001
1000
0100
0001
1000
0001
,
0100
0000
0000
0010
0000
0000
1000
0000
0001
0000
1000
0000
0002
0000
0000
0000
,
0023
0000
0130
1000
0001
0100
0001
1000
,
0001
0000
0100
0000
0010
0000
0000
2002
0000
0000
3003
0000
0100
0000
0001
0100
,
1000
0001
0100
0020
0000
0000
1000
0030
,
1000
0000
0000
0001
0000
0000
1000
0000
0010
0000
0001
0000
0100
0000
0000
0000
,
0010
1000
0001
0000
0100
0000
0010
0000
1000
0001
0100
0000
0010
0000
1000
0000
,
0001
1000
0001
0000
0010
0000
0100
0000
0010
0001
1000
0000
0010
0000
1000
0000
,
0100
0001
0010
0000
0001
0000
1000
0000
0010
0001
1000
0000
0010
0000
0100
0000
,
0001
1000
0001
0010
0100
0010
0001
0100
,
0001
0100
1000
0001
0100
0001
1000
0001
,
0010
1000
0100
0001
0010
0100
1000
0001
,
0100
0000
0000
0010
0000
0000
0200
0000
0000
0000
0301
0000
1000
0000
0002
0000
,
0000
0000
0000
0000
0000
0000
0000
0000
1003
0000
0000
0000
0100
0000
0001
1000
,
0001
0100
1000
0001
0200
0000
1300
0010
,
0001
0000
0100
1000
0000
0000
0001
0000
0000
0000
1000
0000
0001
0000
0110
0000
,
0000
1000
0100
0001
1000
0010
0100
1001
,
0000
0110
0000
0110
0000
2002
0000
3003
,
0000
0000
1000
0000
0001
0000
0010
1000
0000
0100
0001
0000
1000
0000
0010
0000
,
0001
0000
1000
0100
0000
0001
2000
0000
0000
0000
3001
0000
0010
0000
1001
0000
,
0000
0001
1000
0100
0010
0001
1000
1001
,
0000
0010
0001
0100
0010
1000
0001
2000
,
0000
0000
0000
0000
0000
0000
3001
0010
0200
0000
0000
0000
0000
0000
0000
0000
,
0310
0000
0001
1000
0001
0100
1000
0020
,
0000
0000
1030
0000
0100
1000
0001
0010
,
0100
0000
1000
0000
0020
0000
0000
0000
0130
0000
0010
0000
0001
0100
1000
0000
,
0001
0000
0010
1000
0001
0000
0100
0000
0010
0000
0100
0000
0001
0000
0010
0000
,
1001
0220
0000
0330
,
1001
0000
0100
1000
0001
0100
0010
1000
,
0001
1000
0010
0100
0001
0100
0010
1000
,
0010
0100
0010
1000
0001
0010
0100
0010
,
0100
0010
0001
0100
0010
0100
0010
1000
,
0010
0000
1000
0000
0100
0000
0010
1000
0001
0000
0010
0000
0100
0000
0010
0001
,
0100
0000
1000
0000
0001
0000
1001
0000
0000
0000
0100
0000
0001
0100
1000
0000
,
0101
0000
0000
1001
0000
0000
0110
0000
0000
0000
1000
0000
0001
0000
0100
0000
,
1000
0010
0100
0010
0100
0001
0010
0001
,
0020
0000
0000
0000
0031
0000
1000
0001
0100
0000
0010
0000
1000
0000
0010
0000
,
1000
0000
0010
0001
0100
0000
0001
0000
1000
0000
0100
0000
1000
0000
0010
0001
,
1000
0000
0010
0000
0100
0000
0010
0000
0100
0000
0001
0010
1000
0000
0001
0000
,
1000
0000
0100
0000
0010
0000
0100
0001
1000
0000
0100
0001
1000
0000
0010
0001
,
1000
0000
0010
0000
0100
0000
0010
0000
1000
0000
0100
0001
0010
0000
0100
0000
,
0010
0220
0330
2002
3003
0100
0100
1000
,
0100
0000
0010
1000
0001
0000
1000
0000
0100
0000
1000
0000
0010
0000
1000
0000
,
0100
0010
0100
1000
0001
0100
0001
1000
,
0002
0000
1000
1003
0000
0100
0001
0010
,
1000
0000
0001
0000
0000
0000
0110
0000
0000
0000
1000
0001
1000
0000
0010
0000
,
0010
1000
0100
0010
0100
0010
0001
1000
,
0010
0000
0000
0000
0000
0000
0100
0100
,
0001
0000
0100
0000
0010
1000
0100
0000
1000
0000
0010
0000
0100
0000
0010
0000
,
1000
0000
0100
0001
0010
0000
0100
0000
1000
0000
0010
0000
0100
0000
0001
0000
,
0010
0100
0000
1000
0010
0000
0001
0000
0010
0001
0000
0010
1000
0000
0100
0000
,
1000
0100
0010
0001
0010
0100
0100
0001
,
1001
0000
0000
0000
0100
0000
0000
0001
1000
0000
0100
0000
0010
0000
0100
0000
,
1000
0000
0000
0010
0100
0000
0001
0000
0100
0000
0001
0000
0010
0000
0100
0000
,
1000
0000
0000
0001
0100
0000
0010
0000
0100
0000
0001
0000
1000
0000
0001
0000
,
0000
0000
0100
0000
0000
0100
0000
0000
0001
0000
0000
0001
0000
0000
0001
0000
,
1000
0100
0001
0000
0001
0000
0001
1000
0100
0000
0001
0000
0010
0000
0010
0000
,
0010
0100
0100
0100
0001
1000
0001
0100
,
0010
2002
0000
0000
,
0000
0000
0000
0000
,
3003
0000
0000
0000
;
