
//----- song ID: alba -----//
#TITLE:ステップ ステップ ステップ;
#ARTIST:駄々子 Prod. by uno(IOSYS);
#TITLETRANSLIT:Step Step Step;
#ARTISTTRANSLIT:Dadaco Prod. by uno(IOSYS);
#GENRE:ミュージックガンガン;
#MUSIC:Step Step Step.ogg;
#BANNER:Step Step Step.png;
#BACKGROUND:Step Step Step-bg.png;
#CDTITLE:/CDTitles/Music Gun Gun 3 -Shoot Away!-.png;
#SAMPLESTART:64.385;
#SAMPLELENGTH:15.000;
#SELECTABLE:YES;
#OFFSET:0.000;
#BPMS:0.000=130.000;
#STOPS:;
#BGCHANGES:;
#FGCHANGES:;

//--------------- dance-single - ----------------
#NOTES:
     dance-single:
     :
     Beginner:
     1:
     0,0,0,0,0:
0000
0000
0000
0000
,
0000
0000
0000
0000
,
0000
0000
0000
0000
,
0000
0000
0000
0000
,
0000
0000
0000
0000
,
0000
0000
0000
0000
,
0010
0100
0010
0000
,
0000
0000
0000
0000
,
0010
0100
0010
0000
,
0000
0000
0000
0000
,
1000
0000
0000
0000
,
0000
0000
0000
0000
,
1000
0000
0000
0000
,
0000
0000
0000
0000
,
0001
0000
0000
0000
,
0000
0000
0000
0000
,
0001
0000
0000
0000
,
0000
0000
0000
0000
,
0010
0000
0000
0000
,
0100
0000
0000
0000
,
0010
0000
0000
0000
,
1000
0000
0000
0000
,
0001
0000
0000
0000
,
0001
0000
0000
0000
,
0100
0000
0000
0000
,
0010
0000
0000
0000
,
1000
0000
0000
0000
,
0000
0000
0000
0000
,
0001
0000
0000
0000
,
0000
0000
0000
0000
,
1000
0000
0000
0000
,
0001
0000
0000
0000
,
0010
0000
0100
0000
,
0010
0000
0100
0000
,
0010
0000
0000
0000
,
0010
0100
0010
0000
,
1000
0000
0001
0000
,
0010
0100
0010
0000
,
1000
0000
0001
0000
,
0010
0100
0010
0000
,
0001
0000
1000
0000
,
0010
0000
0100
0000
,
1000
0001
0010
0000
,
0100
0010
0100
0000
,
0010
0000
1000
0000
,
0100
0010
0100
0000
,
0001
0000
1000
0000
,
0010
0100
0010
0000
,
1000
0000
0001
0000
,
0010
0000
0100
0000
,
0001
0010
0100
0000
,
0010
0100
0010
0000
,
0000
0000
0000
0000
,
0010
0100
0010
0000
,
0000
0000
0000
0000
,
0010
0100
0010
0000
,
0000
0000
0000
0000
,
0010
0100
0010
0000
,
0000
0000
0000
0000
,
1001
0000
0000
0000
;

//--------------- dance-single - ----------------
#NOTES:
     dance-single:
     :
     Easy:
     4:
     0,0,0,0,0:
0000
0000
0000
0000
,
0000
0000
0000
0000
,
0000
0000
0000
0000
,
0000
0000
0000
0000
,
0000
0000
0000
0000
,
0000
0000
0000
0000
,
0100
0010
0100
0000
,
1000
0000
0001
0000
,
0100
0010
0100
0000
,
1000
0000
0001
0000
,
1001
0000
0000
0000
,
0100
0000
0010
0000
,
1000
0000
0000
0000
,
0001
0000
1000
0000
,
0010
0000
0000
0000
,
0100
1000
0001
0000
,
0010
0000
0000
0000
,
0100
0000
1000
0000
,
0001
0000
0010
0000
,
0100
0000
1000
0000
,
0001
0000
0010
0000
,
0100
1000
0001
0000
,
0010
0000
0100
0000
,
0001
0010
0100
0000
,
1000
0000
0001
0000
,
0001
0010
0100
0000
,
1001
0000
0000
0000
,
0100
0000
0000
0000
,
0010
0000
0000
0000
,
1000
0000
0000
0000
,
0001
0000
0010
0000
,
0100
0000
1000
0000
,
0001
0010
0100
1000
,
0001
0010
0100
1000
,
0001
0000
0000
0000
,
0100
0010
0100
0000
,
1000
0001
0100
0000
,
0010
0100
0010
0000
,
1000
0001
0100
0000
,
0100
0010
0100
0000
,
1000
0001
0010
0000
,
1000
0000
0001
0000
,
0010
0100
1000
0000
,
0100
0010
0100
0000
,
0001
1000
0001
0000
,
0010
0100
0010
0000
,
1000
0001
0100
0000
,
0100
0010
0100
0000
,
1000
0001
0100
0000
,
0001
0000
1000
0000
,
0001
0010
0100
0000
,
0010
0100
0010
0000
,
1000
0000
0000
0000
,
0100
0010
0100
0000
,
0001
0000
0000
0000
,
0100
0010
0100
0000
,
1000
0001
0100
0000
,
0010
0100
0010
0000
,
1000
0000
0001
0000
,
0100
0000
0000
0000
;

//--------------- dance-single - ----------------
#NOTES:
     dance-single:
     :
     Medium:
     7:
     0,0,0,0,0:
0000
0000
0000
0000
,
0000
0000
0000
0000
,
0000
0000
0000
0000
,
0000
0000
0000
0000
,
0000
0000
0000
0000
,
0000
0000
0000
0000
,
0010
0100
0010
0001
,
1000
0100
0010
0001
,
0010
0100
0010
1000
,
0001
0010
0100
1000
,
1001
0010
0100
1000
,
0001
0010
0100
1000
,
0100
0001
1000
0010
,
1000
0000
0100
0010
0001
0000
0010
0000
,
0100
0001
1000
0010
,
0200
0320
0032
0023
,
1030
0100
0010
1000
,
0001
0000
1000
0000
0001
1000
0001
0000
,
0100
0000
0010
0000
0100
0000
1000
0010
,
0001
0010
0100
1000
,
0000
0100
0001
0000
0010
0000
1000
0010
,
0001
0000
0010
0100
1000
0000
0010
0000
,
1000
0000
0100
0000
0010
0001
0100
0000
,
2000
3200
0320
0032
,
1003
0000
0001
0000
0010
0001
0100
0000
,
1000
0000
0001
0000
0000
0010
0100
0000
,
0010
0100
1000
0010
,
0001
1000
0010
0001
,
0100
0000
0010
1000
0000
0010
0100
0010
,
0001
0000
0000
0010
0000
0000
1000
0000
,
0100
0001
1000
0100
,
0001
1000
0010
0001
,
0100
1000
0001
0100
,
0010
1000
0001
0100
0010
0100
1000
0000
,
1001
0000
0000
0010
,
0100
0010
0100
1000
,
0001
0000
0010
0000
1000
0001
0100
0000
,
0010
0100
0010
0100
,
1000
0000
0001
1000
0000
0010
0100
0000
,
1000
0001
1000
0001
,
0010
0100
0010
1000
,
0001
0100
1000
0001
,
0010
0100
1000
0100
,
0010
0100
0010
0100
,
1000
0000
0100
0000
0001
1000
0001
0000
,
0100
0010
0100
0010
,
1000
0000
0001
0000
0010
1000
0100
0000
,
0010
0100
0010
0001
,
1000
0001
0100
1000
,
0001
0100
1000
0100
,
0010
0100
0010
0001
,
0010
0100
0010
0000
,
1000
0100
0010
0001
,
0100
0010
0100
0000
,
0001
0010
0100
1000
,
0100
0010
0100
0000
,
1000
0001
0100
0000
,
0010
0100
0010
0001
,
1000
0100
0010
0100
,
1001
0000
0000
0000
;

//--------------- dance-single - ----------------
#NOTES:
     dance-single:
     :
     Hard:
     11:
     0,0,0,0,0:
0000
0000
0000
0000
,
0000
0000
0000
0000
,
0000
0000
0000
0000
,
0000
0000
0000
0000
,
0000
0000
0000
0000
,
0000
0000
0000
0000
,
0010
0100
0010
0000
,
2000
0000
3001
0000
,
0010
0100
0010
0000
,
1000
0000
0001
0000
,
1000
0000
0001
0010
0100
0000
1000
0000
,
0001
1000
0010
0000
0100
0000
1001
0000
,
0000
1000
0100
0010
0001
0000
0010
0000
,
0100
0010
1000
0000
0001
0010
0100
0000
,
1000
0000
0100
0001
0000
0010
0100
0000
,
2000
3200
0310
1001
,
0100
1000
0010
1000
0001
0000
0010
0100
,
1000
0000
0001
0100
0010
0000
0100
0000
,
1001
0000
0100
0000
0010
0100
1000
0000
,
0001
0010
0100
1000
0001
0000
0110
0000
,
1000
0001
0010
0100
0001
0000
0010
0000
,
0100
1000
0001
0000
0010
1100
0000
0101
,
0001
0000
0110
0000
1000
0001
0010
0000
,
2000
3200
0310
1001
,
0010
0100
1000
0000
0001
0010
0100
0000
,
1000
0001
0010
0000
0100
1000
0001
0010
,
0200
0000
0310
0000
,
2000
0000
3002
0000
,
0013
0000
1000
0001
0000
0100
1000
0010
,
0100
0000
1000
0001
0000
0100
1000
0000
,
0001
0000
0010
0100
0000
1000
0001
0100
,
0010
0000
0100
1000
0000
0001
0010
0000
,
1000
0100
0000
0000
0010
0010
0001
0000
,
0010
0100
1000
0001
0010
0100
1000
0010
,
0001
0000
0000
0000
0000
0000
0001
0010
0100
0000
0001
0000
1000
0000
0001
0000
,
1100
0000
0101
0000
1100
0000
1000
0001
,
0000
0000
0100
0000
0010
0000
0100
0000
1000
0000
0001
1000
0010
0000
0001
0000
,
1100
0000
0101
0000
1100
0000
1000
0001
,
0010
0100
1000
0001
0120
0100
0130
0000
,
1100
0000
0101
0000
1100
0000
1000
0001
,
0000
0010
0100
1000
0002
0000
0013
0100
,
1000
0000
0001
1000
0000
0000
0010
0100
1000
0000
0001
0010
0000
0000
1000
0000
,
0001
0000
0100
0000
1000
0000
0001
0000
0010
0000
0001
1000
0100
0000
0010
0000
,
1100
0000
0101
0000
1100
0000
1000
0001
,
0000
0000
0100
0000
0010
0000
0100
0000
1000
0000
0001
1000
0010
0000
0001
0000
,
1100
0000
0101
0000
1100
0000
1000
0001
,
0010
0100
1000
0001
0120
0100
0130
0000
,
1100
0000
0101
0000
1100
0000
1000
0001
,
0000
0010
0100
1000
0002
0000
0013
0100
,
1000
0000
0001
1000
0000
0000
0010
0100
1000
0000
0001
0010
0000
0000
1000
0000
,
0001
0000
0100
0000
1000
0000
0001
0000
0010
0000
0001
1000
0100
0000
0010
0000
,
1100
0000
0101
0000
1100
0000
1000
0001
,
0000
0000
0100
0000
0010
0000
0100
0000
1000
0000
0001
1000
0010
0000
0001
0000
,
1100
0000
0101
0000
1100
0000
1000
0001
,
0010
0100
1000
0001
0120
0100
0130
0000
,
1100
0000
0101
0000
1100
0000
1000
0001
,
0000
0010
0100
1000
0002
0000
0013
0100
,
1100
0000
0101
0000
1100
0000
1000
0001
,
0000
0000
0100
0000
0010
0000
0100
0000
1000
0000
0001
1000
0010
0000
0001
0000
,
1001
0000
0000
0000
;
