
//----- song ID: spte -----//
#TITLE:Space-Time Emergency;
#ARTIST:GARIN;
#GENRE:ナムコオリジナル;
#MUSIC:Space-Time Emergency.ogg;
#BANNER:Space-Time Emergency.png;
#BACKGROUND:Space-Time Emergency-bg.png;
#CDTITLE:./CDTitles/NSD A3.png;
#SAMPLESTART:53.996;
#SAMPLELENGTH:15.000;
#SELECTABLE:YES;
#OFFSET:0.000;
#BPMS:0.000=150.000;
#STOPS:;
#BGCHANGES:;
#FGCHANGES:;

//--------------- dance-single - ----------------
#NOTES:
     dance-single:
     :
     Beginner:
     3:
     0,0,0,0,0:
0000
0000
0000
0000
,
0000
0000
0000
0000
,
0000
0000
0000
0000
,
0000
0000
0000
0000
,
0000
0000
1001
0000
,
1000
0000
0000
0001
0000
0000
1000
0000
,
0000
0000
0000
0000
0000
0001
0000
0000
0000
0000
0000
0000
0000
1000
0000
0000
,
0000
0100
0000
0000
0000
0000
2002
0000
,
0000
0000
0000
0000
,
0000
0000
0000
3003
,
0000
0000
0000
0000
,
0000
0000
0000
1000
,
0000
0010
0000
0100
,
0000
1000
0000
0100
,
0000
0001
0000
0010
,
0000
2000
0000
3001
,
0000
0010
0000
0100
,
0000
1000
0000
0000
,
0001
0000
0010
0000
,
0100
0000
0000
2002
,
0000
0000
3003
0000
0000
0200
0000
0000
,
0000
0000
0000
0310
,
0000
0000
0001
0000
0000
2000
0000
0000
,
0000
3001
0000
0000
0010
1000
0200
0000
,
0000
0000
0000
0000
0000
0320
0000
0000
,
0000
0000
0000
0032
,
0000
0000
0000
0000
0003
2000
0000
0000
,
0000
0000
0000
0000
0000
0002
0000
0000
,
0000
0000
0000
0000
,
0000
0000
3003
0100
,
0000
1000
0000
0001
,
0000
0010
0000
0100
,
0000
1000
0000
0001
,
0000
0010
0000
0100
,
0001
1000
0000
0001
,
1000
0001
0000
0100
,
0010
0100
0000
1000
,
0000
0001
0000
0010
,
0000
0100
0000
1000
,
0000
0001
0000
0100
,
0000
1000
0000
0001
,
0100
1000
0001
1000
,
0000
0010
0000
0100
,
0000
0010
0000
0001
,
0000
0010
0000
0100
,
0000
1000
0000
0001
,
0000
1000
0000
0001
,
0000
0010
0000
0100
,
0000
0010
0000
1000
,
0000
0001
0000
1000
,
0000
0001
0000
2002
,
0000
0000
0000
3003
,
0000
0000
0000
0000
,
0000
0000
0010
0000
0000
1000
0000
0000
,
0001
0000
0000
0001
0000
0000
0001
0000
0000
0000
0000
0000
0000
0000
1000
0000
,
0000
0001
0000
0020
,
0000
0130
0000
1000
,
0000
0001
0000
0000
0010
0000
0000
1000
,
0000
0000
0000
0000
0000
0100
0000
0000
0000
0001
0000
0000
0000
0000
0100
0000
,
0000
0000
2002
0000
,
0000
0000
0000
0000
,
0000
0000
3003
0000
;

//--------------- dance-single - ----------------
#NOTES:
     dance-single:
     :
     Easy:
     7:
     0,0,0,0,0:
0000
0000
0000
0000
,
0000
0000
0000
0000
,
0000
0000
0000
0000
,
0000
0000
0000
0000
,
0000
0000
1001
0100
,
0001
0000
0000
0100
0000
0000
1000
0000
0000
0000
0100
0000
0001
0000
0000
0010
,
0000
0000
0100
0000
0000
1000
0000
0000
0000
0100
0000
0000
0000
0001
0000
0000
,
1000
0000
0010
0000
0000
1000
0000
0000
0001
0000
0100
0000
2002
0000
0000
0000
,
0000
0000
0000
0000
,
0000
0000
0000
3003
,
0000
0000
0000
0000
,
0000
0000
0000
0001
,
0010
0100
1000
0010
,
0100
0001
1000
0010
,
0001
1000
0010
0100
,
1000
0002
0000
1003
,
0010
0100
1000
0010
,
0100
0001
0010
0001
,
1000
0001
0100
1000
,
0010
1000
0000
2000
,
0000
0000
0000
0000
3001
0000
0000
0100
0000
0000
0020
0000
0000
0000
0000
0000
,
0000
0000
0000
0130
,
0001
0000
0000
0000
1000
0000
0000
0100
0000
0000
0002
0000
0000
0000
0000
0000
,
0000
1003
0000
0001
0100
0001
0020
0000
,
0000
0000
0000
0000
1030
0000
0000
0100
0000
0000
0200
0000
0000
0000
0000
0000
,
0000
0000
0000
2300
,
0000
0000
0000
0000
3001
0000
0000
0100
0000
0000
0002
0000
0000
0000
0000
0000
,
0000
0100
0000
0000
0000
2000
0000
0000
,
0000
0000
0000
0000
,
0000
0000
3003
0010
,
1000
0001
0100
1000
,
0001
0100
1000
0010
,
0100
0001
0010
1000
,
0001
0100
1000
0110
,
1000
0010
0001
0000
0010
0000
1000
0010
,
0001
0000
1000
0000
0001
0000
0010
1000
,
0100
0000
0010
1000
0001
0000
0001
0000
,
0100
1000
0001
0100
,
0010
0000
0010
0000
1000
0000
0001
0010
,
0100
0000
0000
0000
1000
0000
0000
0100
0000
0000
0001
0000
0010
0000
0000
0000
,
1000
0001
0100
1000
,
0010
1000
0000
0001
0000
1000
0000
0001
0000
0100
0000
0000
1001
0000
0000
0000
,
0010
0000
0100
0001
1000
0000
0010
0000
,
0001
0000
0100
0001
0100
0000
1000
0000
,
0001
0000
0100
1000
0001
0000
0010
0000
,
0100
0001
0010
1000
,
0100
0000
0001
0000
0010
0000
1000
0010
,
0001
0000
0000
1000
0000
0000
0100
0000
0000
0010
0000
0000
0001
0000
0000
0000
,
1000
0000
0000
0000
0100
0000
0000
0000
0010
0000
0000
0000
0001
0000
1000
0001
,
0000
0100
0000
0001
0000
1000
0000
0001
0000
0100
0000
0000
0001
0000
1000
0000
,
0001
0010
1000
0100
0010
0100
2002
0000
,
0000
0000
0000
3003
,
0010
0100
0010
1001
,
0000
0000
0000
0000
0100
0000
0000
1000
0000
0000
0001
0000
0000
0000
0000
0000
,
1000
0000
0000
1000
0000
0000
1000
0000
0000
0000
0000
0000
0000
0000
0001
0000
,
0000
0010
0000
0000
1000
0000
0000
0000
0000
0000
0000
0000
0200
0000
0000
0000
,
0000
0000
0000
0000
0310
0000
0000
0000
1000
0000
0000
0000
0001
0000
0000
0010
,
0000
0000
1000
0000
0000
0000
0001
0000
0100
0000
0000
1000
0000
0000
0001
0000
,
0000
0100
0000
0000
0000
0010
0000
0000
0000
1000
0000
0000
0100
0000
0010
0000
,
0000
0001
0000
0000
0010
0000
0100
0000
2002
0000
0000
0000
0000
0000
0000
0000
,
0000
0000
0000
0000
,
0000
0000
3003
0000
;

//--------------- dance-single - ----------------
#NOTES:
     dance-single:
     :
     Medium:
     11:
     0,0,0,0,0:
0000
0000
0000
0000
,
0000
0000
0000
0000
,
0000
0000
0000
0000
,
0000
0000
0000
0000
,
0000
0000
1001
0100
,
1000
0000
0000
0100
0000
0010
0001
0000
0000
0000
0100
0000
1000
0000
0000
0011
,
0000
0000
1100
0000
0000
0101
0000
0000
0000
0100
0000
0001
0000
1000
0000
0000
,
0001
0000
0010
0000
0000
0001
0000
0000
1000
0000
0100
0000
2002
0000
0000
0000
,
0000
0000
0000
0000
,
0000
0000
0000
3003
,
0000
0000
0000
0000
,
0000
0000
0000
0000
0000
0000
1000
0001
,
0010
0000
0100
1000
0001
0100
0010
0000
,
0100
0000
1000
0010
0001
0000
0010
0001
,
1000
0000
0001
1000
0010
0001
0100
0000
,
0001
0000
2010
0000
0000
0000
3001
1000
,
0010
0000
0100
1000
0001
0100
0010
0000
,
0100
0001
1000
0100
0010
0000
1000
0010
,
0001
0100
1000
0001
0100
1000
0001
0000
,
0010
1000
0020
0000
0030
0000
1002
0000
,
0000
0000
0103
0000
1000
0000
0000
0100
0000
0000
0020
0000
0000
0000
0000
0000
,
0000
0000
0000
0000
0000
1030
0100
0000
,
1000
0000
0000
0000
0001
0000
0000
0100
0000
0000
2000
0000
0000
0000
0000
0000
,
0000
3001
0010
1000
0100
1000
0020
0000
,
0000
0000
0000
0000
0031
0000
0000
0100
0000
0000
0200
0000
0000
0000
0000
0000
,
0000
0000
0000
0302
,
0000
0000
0000
0000
1003
0000
0000
0100
0000
0000
2000
0000
0000
0000
0000
0000
,
0000
0100
0000
0000
0010
0002
0000
0000
,
0000
0000
0000
0000
,
0000
0000
0000
0000
0000
0000
0000
0000
3003
0000
0000
0000
0010
0000
1000
0010
,
0001
0000
0000
0000
1000
0000
0010
0000
0100
0000
0010
1000
0001
0000
0000
0000
,
1000
0000
0001
0000
0100
0000
1000
0010
0001
0000
0000
0000
0010
0000
0001
1000
,
0100
0000
0000
0000
1000
0000
0100
0000
0010
0000
1000
0010
0001
0000
0000
0000
,
1000
0001
0100
1000
0001
0000
1001
0000
,
0001
0000
0010
0000
1000
0000
0100
0000
0010
0000
0000
0000
0001
1000
0010
0000
,
1000
0000
0010
0000
0001
0000
0010
0000
1000
0000
0000
0000
0010
1000
0001
0000
,
0100
0000
1000
0000
0010
0000
0001
0000
1000
0000
0001
0010
1000
0000
0001
0000
,
0100
0000
1000
0000
0001
0000
0010
0000
1000
0000
0001
0000
0100
1000
0001
0000
,
0010
0000
1000
0000
0010
0001
0100
0000
0001
0000
0010
0000
1000
0000
0010
0000
,
0100
0000
0000
0000
1001
0000
0000
0101
0000
0000
1000
0000
0010
0000
0100
0000
,
0001
0000
0010
0000
1000
0000
0001
0010
0100
0000
1000
0000
0001
0000
1000
0000
,
0010
0001
0000
1000
0000
0001
0000
1000
0000
0100
0000
0000
1001
0000
0000
0000
,
0010
0000
0001
1000
0100
0000
1000
0000
0001
0000
1000
0000
0010
0000
0001
0010
,
1000
0000
0001
0000
0100
0000
1000
0000
0100
0000
0010
1000
0001
0000
0010
0000
,
1000
0000
0010
0001
0100
0000
0001
0000
1000
0000
0100
0000
0010
1000
0001
0000
,
0100
0001
1010
0000
0011
0000
0001
1000
,
0100
0000
0001
0000
1000
0000
0001
1000
0010
0000
1000
0000
0001
0100
0010
0000
,
1000
0000
0000
1001
0000
0000
0110
0000
0000
0110
0000
0000
1000
0000
0100
0000
,
0001
1000
0010
0000
0100
0000
0000
0000
0010
0000
0001
0000
1000
0000
0001
1000
,
0000
0100
0000
1000
0000
0001
0000
1000
0000
0100
0000
0010
1000
0000
0001
0000
,
1000
0001
0010
0000
0001
0000
0100
1000
0010
0000
0100
0000
2002
0000
0000
0000
,
0000
0000
0000
3003
,
0010
1000
0100
0001
0010
0000
1001
0000
,
0000
0000
0000
0000
0100
0000
0000
0001
0000
0010
1000
0000
0000
0000
0000
0000
,
0001
0000
0000
0001
0000
0000
0001
0000
0000
0000
0000
0000
0000
0000
1000
0000
,
0000
0010
0000
1000
0001
0000
0000
0000
0000
0000
0000
0000
0200
0000
0000
0000
,
0000
0000
0000
0000
0310
0000
0000
0000
0001
0000
0010
0000
1000
0000
0000
0010
,
0000
1000
0001
0000
0000
0000
1000
0000
0100
0000
0000
0001
0000
0000
1000
0000
,
0000
0100
0000
0000
0000
0010
0000
0000
0000
0001
0000
0000
0100
0000
0010
0000
,
0000
1000
0000
0000
0010
0000
0100
0000
2002
0000
0000
0000
0000
0000
0000
0000
,
0000
0000
0000
0000
,
0000
0000
3003
0000
;

//--------------- dance-single - ----------------
#NOTES:
     dance-single:
     :
     Hard:
     14:
     0,0,0,0,0:
0000
0000
0000
0000
,
0000
0000
0000
0000
,
0000
0000
0000
0000
,
0000
0000
0000
0000
,
0000
0000
0000
0000
1001
0000
0010
1000
,
0001
0000
0000
0010
0000
0100
1000
0000
0001
0000
0010
0000
0001
0000
0000
1100
,
0000
0000
0011
0000
0000
1000
0000
0100
0000
0010
0001
1000
0000
0001
0000
0000
,
1010
0000
0110
0000
0000
1010
0000
0000
0101
0000
0110
0000
2002
0000
0000
0000
,
0000
0000
0000
0000
,
0000
0000
0000
3003
,
0000
0000
0000
0000
,
0000
0000
0000
0000
0000
0000
0000
0000
0000
0000
0000
0000
0001
0000
1000
0001
,
0100
0000
1000
0000
0010
0000
0001
0100
1000
0000
0010
0001
0100
0000
1000
0000
,
0010
0000
0100
0010
0001
0000
0100
0000
1000
0000
0001
0000
0100
0000
1000
0010
,
0001
0000
0010
0000
1000
0000
0001
0010
0100
0000
1000
0100
0010
0000
0001
0000
,
1000
0000
0010
0000
0002
0000
0000
0000
0000
0000
0000
0000
1003
0000
0001
0010
,
0100
0000
1000
0000
0010
0100
0001
0000
1000
0000
0010
0001
0100
0000
1000
0000
,
0010
0001
1000
0000
0001
0000
0010
0000
0100
0000
1000
0000
0001
0000
0100
0001
,
1000
0000
0010
0000
0001
0100
1000
0000
0010
0000
0001
0010
1000
0000
0010
0000
,
0100
0001
0200
0000
0300
0000
2001
0000
,
0000
0000
3100
0010
0002
0000
0000
0023
0000
0000
0230
0000
0000
0000
0000
0000
,
0301
0000
0020
0000
0000
0000
0000
0000
0130
1000
0001
0000
0020
0000
0000
0000
,
0031
0000
0000
0000
1000
0000
0000
0010
0000
0000
0002
0000
0000
0000
0000
0000
,
0000
0000
1003
0000
0100
0000
0001
1000
0010
0000
0002
0000
0023
0000
0000
0000
,
0000
0000
0130
0001
1000
0000
0000
0010
0000
0000
0002
0000
0000
0000
1003
0100
,
0020
0032
0000
0000
0013
0100
2000
0000
,
0000
0000
0000
0000
3001
0000
0000
0010
0000
0000
0001
0000
0000
0000
1000
0001
,
0100
0000
0010
0000
0000
0100
0000
0000
0100
0000
2002
0000
0000
0000
0000
0000
,
0000
0000
0000
0000
,
0000
0000
0000
0000
0000
0000
0000
0000
3003
0000
0000
0000
0100
0000
0001
0100
,
1000
0000
0010
0000
0001
1000
0100
0000
0010
0000
0100
0001
1000
0000
0010
0000
,
0001
0100
1000
0000
0010
0000
0001
0100
1000
0000
0001
0000
0100
0000
1000
0001
,
0010
0000
1000
0000
0001
1000
0010
0000
0100
0000
0001
0100
1000
0000
0010
0000
,
0001
1000
0010
0001
1000
0100
1001
0000
,
1000
0000
0100
0010
0001
0000
0010
0000
0100
0000
0001
0000
1000
0001
0100
0000
,
0001
0000
0100
0001
1000
0000
0100
0010
0001
0000
0010
0000
0100
0001
1000
0000
,
0010
0000
0001
0000
0100
0010
1000
0000
0001
0000
1000
0100
0001
0000
1000
0000
,
0010
0000
0001
0010
1000
0000
0100
0010
0001
0000
1000
0001
0010
0000
1000
0000
,
0100
0000
0001
0000
0100
1000
0010
0000
1000
0000
0100
0000
0001
0000
0100
0000
,
0010
0000
0000
0000
1001
0000
0000
1010
0000
0000
0001
0000
0100
0000
0010
0001
,
1000
0000
0100
0000
0001
0000
1000
0100
0010
0000
0001
0000
1000
0000
0001
0000
,
0100
1000
0000
0001
0000
1000
0000
0001
0000
0010
0000
0000
1001
0000
0000
0000
,
0100
0000
1000
0001
0010
0000
0001
0000
1000
0000
0001
0010
0100
0000
1000
0100
,
0001
0000
1000
0000
0010
0000
0001
1000
0010
0000
0100
0001
1000
0000
0100
0010
,
0001
0000
0100
1000
0010
0000
1000
0000
0001
0000
0010
0000
0100
0001
1000
0000
,
0010
0000
1000
0010
0001
0000
0100
0001
1000
0000
0100
0001
1000
0000
0001
0000
,
0010
0000
1000
0000
0001
0000
1000
0001
0100
0000
0001
0000
1000
0010
0100
0000
,
0001
0000
0000
1001
0000
0000
0110
0000
0000
0110
0000
0000
0001
0000
0010
0100
,
1000
0001
0100
0000
0010
0000
0001
1000
0100
0000
1000
0000
0001
0000
1000
0001
,
0000
0010
0000
0001
0000
1000
0000
0001
0000
0010
0000
0100
0001
0000
0010
0000
,
0001
1000
0010
0000
1000
0100
0010
0001
0100
0000
0010
0000
2002
0000
0000
0000
,
0000
0000
0000
3003
,
0100
1000
0001
0000
0010
0000
1000
0001
0100
0000
0000
0000
1001
0000
0000
0000
,
0000
0000
0000
0000
0110
0000
0000
1000
0000
0100
0001
0000
0000
0000
0000
0000
,
1010
0000
0000
1100
0000
0000
1010
0000
0000
0000
0000
0000
0000
0000
1001
0000
,
0000
0100
0000
0001
1100
0000
0000
0000
0000
0000
0000
0000
0010
1000
0001
0000
,
1000
0010
0001
0000
0100
0000
0010
0000
1000
0000
0100
0000
0001
0000
0000
0100
,
0000
0001
1000
0000
0100
0000
0001
0000
0010
0000
0000
1000
0000
0000
0001
0000
,
0000
0010
0000
0001
0000
0100
0000
0010
0000
1000
0000
0000
0010
0000
0100
0000
,
0000
0001
0000
0000
0100
0000
0010
0000
2002
0000
0000
0000
0000
0000
0000
0000
,
0000
0000
0000
0000
,
0000
3003
0220
0000
,
0000
0000
0330
0000
;
