
//----- song ID: s1tg -----//
#TITLE:Sou1 XXtage;
#ARTIST:NAMCO Sound Team "Master of Cats";
#GENRE:ナムコオリジナル;
#MUSIC:Sou1 XXtage.ogg;
#BANNER:Sou1 XXtage.png;
#BACKGROUND:Sou1 XXtage-bg.png;
#CDTITLE:./CDTitles/NSD A3.png;
#SAMPLESTART:66.196;
#SAMPLELENGTH:15.000;
#SELECTABLE:YES;
#OFFSET:0.000;
#BPMS:0.000=290.000
,114.000=580.000
,115.000=290.000
,138.000=145.000
,146.000=290.000
,162.000=580.000
,163.000=290.000
,208.000=72.500
,216.000=36.280
,217.000=145.000
,245.000=72.500
,246.000=145.000
,248.000=290.000
,312.000=72.500
,320.000=145.000
,336.000=290.000
,360.000=36.250
,362.000=72.500
,366.000=290.000
,398.000=72.500
,402.000=290.000
;
#STOPS:114.000=0.103
,162.000=0.103
;
#BGCHANGES:;
#FGCHANGES:;

//--------------- dance-single - ----------------
#NOTES:
     dance-single:
     :
     Beginner:
     8:
     0,0,0,0,0:
0000
0000
0000
0000
,
0000
0000
0000
0000
,
0000
0000
0000
0000
,
0000
0000
0000
0000
,
0000
0000
0000
0000
,
0000
0000
0000
0000
,
0000
0000
0000
0000
,
0000
0000
0000
0000
,
0000
0000
0000
0000
,
0000
0000
0000
0000
,
0010
0000
0100
0000
,
1000
0000
0001
0000
,
0010
0000
0100
0000
,
0001
0000
1000
0000
,
0001
0000
0100
0000
,
0010
0000
1000
0000
,
0001
0000
1000
0000
,
0002
0000
0000
0000
,
1003
0000
0000
0100
,
0000
0000
0010
0000
,
0000
0000
0000
0000
,
0001
0000
0000
0010
,
0000
0000
0200
0000
,
0000
0320
0000
0000
,
1030
0000
0100
0000
,
0001
0000
0100
0000
,
0000
0000
0010
0000
,
0100
0000
1000
0000
,
0001
0000
0000
1001
,
0000
0010
0000
0000
,
0000
0000
1000
0000
,
0001
0000
0100
0000
,
0010
0000
0100
0000
,
1000
0000
0001
0000
,
0100
0000
0020
0000
,
1030
0000
0020
0000
,
0130
0000
1001
0000
,
0100
0000
0010
0000
,
0001
0000
1000
0000
,
0001
0000
0100
0000
,
0010
0000
0000
0100
,
0000
0010
0000
0100
,
0000
1000
0000
0001
,
0000
1000
0000
0000
,
0000
0000
2000
0000
,
3000
0000
0000
0000
,
0002
0000
0003
0000
,
0000
0000
0000
2000
,
0000
3001
0000
0000
,
0010
0000
0000
0100
,
0010
0000
1000
0000
,
0001
0000
0100
0000
,
0020
0000
0030
0000
,
0200
0000
0300
0000
,
2002
3003
0010
0000
0000
0000
0000
0000
,
0001
0100
0000
0000
,
0010
0100
0000
0000
,
0000
0001
0000
1000
,
0000
0001
0000
0100
,
0000
0010
0000
0001
,
0000
0200
0000
0300
,
0020
0030
1000
0000
,
0100
0000
0010
0000
,
1000
0000
0000
0000
,
0001
0000
1000
0000
,
0001
0000
0000
0000
,
0100
0000
0010
0000
,
0001
0000
0000
0000
,
1000
0000
0000
0000
,
0001
0000
0000
0000
,
0100
0000
0010
0000
,
0001
0000
0000
0000
,
1000
0000
0001
0000
,
1000
0000
0000
0000
,
0100
0000
0000
0000
,
0001
0000
0000
0000
,
0100
0000
0000
0000
,
0010
0000
0100
0000
,
0020
0000
0030
0000
,
1000
0000
0001
0000
,
1000
0000
0100
0000
,
0010
0000
0001
0000
,
1000
0000
0001
0000
,
0110
0000
0000
0000
,
1001
0000
0100
0000
,
0010
0000
0000
0000
,
1000
0000
0001
0000
,
0100
0000
0000
0000
,
0010
0000
0001
0000
,
1000
0000
0000
0000
,
0010
0100
0010
0100
,
1000
0001
1000
0000
,
0001
0000
0100
0000
,
0010
0000
0001
0000
,
0010
0000
0100
0000
,
1000
0000
0001
0000
,
0100
0000
0010
0000
,
0000
0000
0001
0000
,
1000
0000
0001
0000
,
0000
0000
0100
0010
,
0100
0010
1000
0000
,
0001
0000
1000
0000
,
0001
0000
0100
0000
,
0010
0000
0001
0000
,
0010
0000
0100
0000
,
1000
0000
0001
0000
,
0100
0000
0010
0000
,
0100
0000
0000
0000
,
1000
0000
0000
0000
,
0001
0000
1000
0000
,
0001
0000
0000
0000
,
1000
0001
1000
0000
,
0100
0000
0010
0000
,
0100
0000
1000
0000
,
0001
0000
0100
0000
,
1001
0000
0000
0000
,
0000
0000
0000
0000
,
0000
0000
0000
0000
,
0000
0000
0000
0000
,
0110
0000
0000
0000
;

//--------------- dance-single - ----------------
#NOTES:
     dance-single:
     :
     Easy:
     12:
     0,0,0,0,0:
0000
0000
0000
0000
,
0000
0000
0000
0000
,
0000
0000
0000
0000
,
0000
0000
0000
0000
,
0000
0000
0000
0000
,
0000
0000
0000
0000
,
0000
0000
0000
0000
,
0000
0000
0000
0000
,
0000
0000
0000
0000
,
0000
0000
0000
0000
,
0100
0000
0000
0001
0000
0000
0100
0000
,
1000
0000
0001
0000
0100
0000
0000
1000
,
0000
0010
1000
0001
,
0100
0000
0000
0010
0000
0000
1000
0000
,
0001
0000
0010
0000
0100
0000
0000
0010
,
0000
1000
0001
0100
,
0010
1000
0001
0100
,
0020
0000
0000
0000
,
0130
0000
1000
0000
,
0001
0010
0100
0000
,
1000
0000
0001
0000
,
0100
0010
1000
0001
,
0000
0100
0020
0000
,
0000
2030
0000
0000
,
3001
0000
0010
0000
,
0100
1000
0001
0100
,
0000
0010
0100
0000
,
1000
0001
0100
0010
,
1000
0001
0000
1000
,
0001
0100
0020
0000
,
0000
0000
0130
1000
,
0001
0100
0010
0000
,
0100
1000
0001
0000
,
0010
0100
1000
0001
,
0010
0100
0010
0001
,
0100
0010
1000
0001
,
0100
1000
0001
0100
,
0010
0000
1000
0001
,
0100
0000
0010
0100
,
1000
0001
0010
0100
,
1000
0001
0000
0100
,
1000
0001
0100
0010
,
0100
1000
0001
0100
,
0010
0100
2000
0000
,
0000
0000
3001
0000
,
0000
0001
0000
0000
,
0200
0310
0000
0010
,
0000
0100
0000
2000
,
0000
3001
0000
0000
,
0010
0000
1000
2000
,
3001
0000
0010
0000
,
0100
0000
1000
0000
,
0002
0103
2000
3001
,
0020
0130
2000
3010
,
2002
3003
0100
0000
1000
0000
0001
0000
,
0000
0100
1000
0001
,
0010
0100
0000
0010
,
0001
1000
0000
0001
,
1000
0100
0010
1000
,
0001
0100
0010
0001
,
0010
1000
0100
1000
,
0001
0020
0200
0330
,
1000
0000
0001
0000
,
0010
0000
0100
0000
,
1000
0001
0100
0000
,
0010
0000
0100
0000
,
1000
0000
0001
0000
,
0100
0000
0010
0000
,
0001
0010
0100
1000
,
0001
0000
0010
0000
,
0100
0000
1000
0000
,
0001
0000
0100
0010
,
1000
0000
0001
0000
,
0100
0000
0010
0000
,
0001
0000
1000
0000
,
0001
0100
0010
0000
,
0100
1000
0001
0000
,
0100
0010
0100
0000
,
1002
0000
1003
0000
,
2000
0000
3001
0000
,
0010
0100
0001
0000
,
0010
0100
1000
0000
,
0001
0000
1000
0000
0001
1000
0001
0000
,
0100
0000
0010
0000
0001
0010
0100
0000
,
1001
0000
0100
0000
,
0001
1000
0001
0000
,
0100
0000
0010
1000
,
0001
0100
0010
0000
,
0001
0010
0100
0000
,
1000
0001
0100
0000
,
0020
0000
0200
0330
1000
0000
0001
0000
,
0100
1000
0001
0000
0100
0000
0000
0000
,
1000
0000
0001
0000
,
0100
0000
0010
0100
,
1000
0000
0001
1000
,
0001
0100
0010
0000
,
0100
0000
1000
0000
,
0001
0010
0100
1000
,
0001
0000
0100
0000
,
0010
0000
2000
0100
,
3002
0103
1000
0000
,
0001
0000
0100
0010
,
1000
0001
0100
0010
,
0100
0000
1000
0100
,
0001
0100
0010
1000
,
0001
0100
0010
0100
,
1000
0001
0100
0010
,
0100
0001
1000
0000
,
1000
0001
0100
0000
,
0010
0100
0001
0010
,
0100
1000
0001
0000
,
0100
1000
0001
0000
,
0100
0010
0100
0000
,
1000
0001
0100
0010
,
0100
0000
1000
0000
,
2002
0000
0000
0000
,
0000
0000
0000
0000
,
0000
0000
0000
0000
,
3003
0000
0110
0000
,
1001
0000
0000
0000
;

//--------------- dance-single - ----------------
#NOTES:
     dance-single:
     :
     Medium:
     15:
     0,0,0,0,0:
0000
0000
0000
0000
,
0000
0000
0000
0000
,
0000
0000
0000
0000
,
0000
0000
0000
0000
,
0000
0000
0000
0000
,
0000
0000
0000
0000
,
0000
0000
0000
0000
,
0000
0000
0000
0000
,
0000
0000
0000
0000
,
0000
0000
0000
0000
,
0010
0000
0000
1000
0001
0000
0010
0000
,
0001
0000
1000
0000
0010
0000
0000
0001
,
1000
0100
0001
1000
,
0010
0000
0000
0100
1000
0000
0001
0000
,
1000
0000
0100
0000
0010
0000
0000
0100
,
0010
0001
1000
0010
,
0100
0001
1000
0010
,
0200
0000
0000
0000
,
0310
0000
0001
0100
,
1000
0000
0100
0000
0010
0000
0000
0001
,
0000
0000
1000
0100
,
0010
0100
0001
1000
,
0000
0010
0200
0000
,
0000
0302
0000
0000
,
1003
0000
0100
0000
,
0010
0000
0001
0000
1000
0000
0000
0100
,
0000
0100
0010
1000
,
0001
1000
0010
0100
,
0001
1000
0000
0001
,
1000
0010
0200
0000
,
0000
0000
0310
0001
,
1000
0001
0010
1000
0100
0000
1000
0000
,
0010
0100
0001
0100
1000
0000
0001
0000
,
0100
1000
0010
0100
0001
0010
1000
0000
,
0100
0000
0000
0010
0000
0000
0200
0000
0000
0301
1000
0100
,
0001
0010
1000
0200
0000
0000
0302
0000
0103
1000
0100
0001
,
0010
0101
1000
0010
,
0100
0010
1000
0010
0001
0000
1000
0000
,
0010
0100
1000
0001
0100
0000
0010
0000
,
0001
0010
1000
0001
0100
1000
0010
0100
,
0001
0010
1000
0000
0000
0000
0010
1000
,
0001
0000
1000
0100
0010
0000
0100
0000
,
0010
0001
1000
0010
,
0100
0010
0002
0000
,
0000
0000
0000
0000
0000
0000
0000
0000
1003
0000
0000
1000
0000
0000
1000
0000
,
1000
0000
0000
0000
0001
0000
0000
0001
0000
0000
0001
0000
0001
0000
0000
0000
,
0020
0000
0000
0000
0130
0000
0120
0000
0000
0000
0000
0000
0130
0000
0000
0100
,
0000
0000
0100
0000
0010
0000
0000
0010
0000
0000
0010
0000
0002
0000
0000
0000
,
0000
0000
0000
0000
1003
0000
0000
1000
0000
0000
1000
0000
0001
0000
0000
0000
,
0100
0000
0000
0100
0000
0000
1000
0000
0001
0000
0000
0000
0020
0000
0000
0000
,
1030
0000
1010
0000
0000
0000
0000
0000
0100
0000
0000
0100
0000
0000
0100
0000
,
0010
0000
0000
0010
0000
0000
0010
0000
0002
0000
0000
0000
0000
0000
0000
0000
,
2003
0000
0000
0000
3010
0001
0000
0100
0002
0000
0000
0000
1003
0100
0000
0010
,
0200
0000
0000
0000
0310
1000
0000
0100
0002
0000
0000
0000
0103
0000
0010
0000
,
2002
3003
0010
0000
0001
0000
1000
0001
,
0100
1000
0010
0000
0001
0100
1000
0010
,
0100
0000
0010
1000
0000
0010
0100
0001
,
1000
0010
0002
0000
0103
0000
1001
0000
,
0101
0000
0010
1000
0100
0000
0001
0000
,
1000
0100
0010
0001
0100
0000
1000
0000
,
0100
0000
0001
1000
0010
0000
0001
0100
,
1000
0001
0200
0000
0020
0000
0330
0000
,
0001
0100
1000
0001
,
0100
1000
0010
0100
,
0001
0100
1000
0100
0010
0000
1000
0000
,
0100
0001
0010
1000
,
0001
0100
0010
0000
1000
0000
0100
0000
,
0010
0000
0001
0010
0100
0000
0001
0000
,
1000
0000
0100
1000
0010
0000
0001
0000
,
1000
0100
0001
0000
0100
0000
1000
0000
,
0010
0100
1000
0000
0001
0000
0100
0000
,
1000
0001
0010
0100
,
0001
0000
1000
0000
0100
0000
0001
0000
1000
0000
0100
0000
,
0010
0000
0001
0010
0100
0000
0001
0000
,
1000
0010
0100
0000
0001
0000
0100
0000
,
1000
0001
0010
0000
0100
0000
0001
0000
,
0010
1000
0001
0000
1000
0000
0100
0000
,
0010
0001
0100
0000
0010
0001
0100
0000
,
2001
0000
0010
0000
3001
0000
0100
1000
,
0002
0000
0100
0010
1003
0100
0010
0001
,
0100
0000
0010
0000
1000
0100
0001
0000
,
0100
1000
0010
0000
0001
0010
0100
0000
,
1000
0100
0001
0010
1000
0001
1000
0100
,
0010
0001
0100
0010
1000
0100
0010
0000
,
1001
0000
0100
0000
0010
0000
0100
0001
,
1000
0000
0001
0000
1000
0000
0100
0001
,
0010
0001
0100
0001
,
1000
0100
0010
0000
0100
0010
0001
0000
,
1000
0000
0100
0001
0010
0000
1000
0000
,
0001
0000
1000
0100
0010
0000
1000
0000
,
0200
0000
0020
0330
0001
0000
1000
0000
,
0010
0001
1000
0000
0010
0000
1000
0000
,
0001
0100
1000
0100
,
0010
0001
0100
0010
,
0001
0100
1000
0001
,
1000
0010
0100
1000
,
0010
0100
0001
0100
,
1000
0000
0000
0100
0000
0000
0010
0000
0001
0000
0100
0000
,
1000
0000
0000
0000
0001
0000
0000
0000
0100
0000
0000
0000
0010
0000
0000
0000
0000
0000
0001
0000
0000
0010
0000
0000
,
0100
1000
0002
0010
,
2003
0000
3010
0100
0001
0000
0100
0000
,
1000
0010
0001
0000
0010
0000
0100
0000
,
0001
0000
1000
0000
0010
1000
0100
0000
,
0010
0000
0100
0010
0001
0000
0010
0000
,
1000
0000
0010
0000
0100
0010
0001
0000
,
1000
0000
0010
0000
0100
1000
0010
0000
,
0001
0100
1000
0100
0010
0001
0100
0000
,
0010
0000
1000
0010
0001
0000
0100
0000
,
0001
0000
1000
0000
0010
0001
1000
0010
,
0100
0000
0010
0001
1000
0010
0100
0000
,
0010
0000
0001
0100
1000
0010
0100
0010
,
0100
0010
0000
0001
1000
0000
0100
0000
,
0010
0100
0000
0100
0010
0000
0000
0000
,
0001
0100
1000
0001
0010
0000
0100
0000
,
0010
0000
1000
0010
0001
0010
0100
0000
,
2002
0000
0000
0000
,
0000
0000
0000
0000
,
0000
0000
0000
0000
,
3003
0010
0110
0000
,
1001
0000
0000
0000
;

//--------------- dance-single - ----------------
#NOTES:
     dance-single:
     :
     Hard:
     17:
     0,0,0,0,0:
0000
0000
0000
0000
,
0000
0000
0000
0000
,
0000
0000
0000
0000
,
0000
0000
0000
0000
,
0000
0000
0000
0000
,
0000
0000
0000
0000
,
0000
0000
0000
0000
,
0000
0000
0000
0000
,
0000
0000
0000
0000
,
0000
0000
0000
0000
,
0100
0000
0010
1000
0001
0000
0100
0010
,
0001
0100
1000
0010
0100
0000
0010
0001
,
1000
0000
0010
0100
0001
0010
1000
0001
,
0100
0000
1000
0010
1000
0000
0001
0100
,
1000
0001
0010
1000
0100
0000
1000
0010
,
0100
0000
0001
0010
1000
0001
0100
1000
,
0010
0100
0001
0010
1000
0001
0100
1000
,
0020
0000
0000
0000
,
0230
0000
0000
0302
0000
0000
0013
0000
,
1000
0100
0010
0000
0200
0000
0000
0302
,
0000
0000
0000
0000
0000
0000
0013
1000
,
0100
0010
0002
2003
,
0000
3200
0320
0000
,
0000
0032
0000
0000
,
1003
0000
0100
0001
0000
0000
0010
0000
,
0100
0000
0001
0000
1000
0000
0000
0010
,
0000
0010
0100
1000
,
0001
0000
1000
0001
0100
1000
0010
0100
,
0001
0010
1000
0010
0000
0000
1001
0000
,
1000
0000
0100
0000
1000
0001
0100
0000
,
1000
0001
0010
1000
0100
1000
0001
0010
,
1000
0001
0100
1000
0010
0100
1000
0001
,
0100
0010
0001
0010
1000
0010
0001
0100
,
0010
1000
0100
0010
0001
0100
1000
0100
,
0010
0000
0000
1000
0000
0000
0100
0000
0000
0001
0000
0000
0020
0000
0000
0000
0000
0000
0031
0000
1000
0000
0010
0000
,
0001
0100
1000
0020
0000
0000
0032
0000
0013
1000
0010
0001
,
0100
0000
0011
0000
1000
0001
0100
0001
,
0010
0100
1000
0100
0001
0010
1000
0010
,
0100
0010
1000
0001
0010
1000
0100
0010
,
0001
0100
1000
0001
0010
1000
0100
0010
,
0001
0100
1000
0100
0000
0000
0100
1000
,
0001
0010
1000
0010
0100
1000
0010
0001
,
0100
0010
0001
0100
1000
0010
0100
1000
,
0010
1000
0100
0010
0002
0000
0000
0000
,
0000
0000
0000
0000
0000
0000
0000
0000
1003
0000
0000
1000
0000
0000
1000
0000
,
1000
0000
0000
0000
0001
0000
0000
0001
0000
0000
0001
0000
0001
0000
0000
0000
,
0200
0000
0000
0000
0310
0000
0010
0000
0000
0000
0000
0000
0010
0000
0000
0010
,
0000
0000
0010
0000
0100
0000
0000
0100
0000
0000
0100
0000
0001
0000
0010
0000
,
0100
0000
0001
0000
1000
0000
0000
1000
0000
0000
1000
0000
0001
0000
0000
0000
,
0010
0000
0000
0010
0000
0000
1000
0000
0001
0000
0000
0000
0200
0000
0000
0000
,
1300
0000
1200
0000
0000
0000
0000
0000
0310
0000
0000
0010
0000
0000
0010
0000
,
0100
0000
0000
0100
0000
0000
0100
0000
0001
0000
0010
0000
0100
0000
0001
0000
,
2000
0000
0000
0000
0000
0000
0000
0100
0000
3001
0000
0010
0000
0100
0000
1000
0020
0000
0000
0000
0000
0000
0000
0031
0000
0000
0000
0100
0000
1000
0000
0000
,
0100
0000
0000
0000
0010
0000
0000
0001
0100
0000
0000
0000
0100
0000
0000
1000
0002
0000
0000
0000
0000
0000
0000
0000
2003
0000
0000
0000
0000
0000
0000
0000
,
0002
0000
0000
0000
0000
3003
0000
0000
0100
0000
0000
0000
0000
0000
0010
0000
0000
0000
0000
0000
0100
0000
0000
0000
1000
0000
0000
0000
0001
0000
0000
0000
,
0010
0000
1000
0000
0100
0000
0000
1000
0001
0000
0010
0000
1000
0000
0100
0000
,
0010
0001
0100
1000
0000
0100
0010
0001
,
1000
0100
0002
0000
0013
0000
1001
0000
,
0011
0000
0100
1000
0010
0100
0001
0000
,
1000
0010
0100
0001
0010
0100
1000
0100
,
0010
0000
0000
0000
0000
0000
0100
0000
0000
0000
0000
0000
0001
0000
0000
0010
0000
0000
0100
0000
0000
1000
0000
0000
0000
0000
0000
0100
0000
0000
0010
0000
0000
0000
0000
0000
0001
0000
0000
0000
0010
0000
0000
0000
0100
0000
0000
0000
,
1000
0100
0001
0020
0000
0000
0200
0000
0000
0330
0000
0000
,
1000
0000
0000
0000
0100
0000
0010
0000
0001
0000
0000
1000
0000
0000
0001
0000
,
0010
1000
0100
0010
0001
1000
0010
0100
,
1000
0001
0010
0100
1000
0010
0001
0100
,
0010
1000
0010
1000
0100
1000
0001
0010
,
1000
0000
0100
0000
0010
0000
0000
0000
0001
0000
0000
1000
0000
0000
0010
0000
,
0001
0100
1000
0001
0010
1000
0010
0100
,
0001
0100
0001
0100
1000
0100
0001
0010
,
1000
0010
0001
0100
0010
0001
1000
0000
,
0001
0000
0000
0000
0010
0000
0100
0000
1000
0000
0000
0001
0000
0000
1000
0000
,
0100
0001
0010
0100
1000
0001
0100
0010
,
0001
0000
1000
0000
0100
0000
0001
0000
0100
0000
0001
0000
,
0100
0001
0100
0001
0010
0001
1000
0100
,
0001
0000
0000
0000
0100
0000
0000
0000
1000
0000
0000
0001
0000
0000
0100
0000
,
1000
0010
0001
1000
0100
0001
0100
0010
,
1000
0010
1000
0010
0001
0010
1000
0100
,
0001
0010
1000
0100
0001
0100
1000
0001
,
2000
0000
0000
0100
0000
0000
0000
0000
3001
0000
0000
0100
0000
0000
1000
0000
,
0002
0000
0010
0100
1003
0010
0100
0001
,
0010
1000
0100
0001
1000
0010
0001
0100
,
0010
1000
0100
0010
0001
0100
0010
0100
,
1000
0010
0001
0100
1000
0001
1000
0010
,
0100
0001
0010
0100
1000
0010
0100
0010
,
1000
0100
0010
1000
0100
1000
0010
0001
,
1000
0000
0001
0000
1000
0000
0010
0001
,
0100
1000
0001
0100
0010
1000
0001
0010
,
1000
0010
0100
0000
0010
0100
0001
0000
,
1000
0000
0010
0001
0100
0010
1000
0100
,
0001
0010
1000
0010
0100
0001
1000
0100
,
0020
0000
0200
0330
0001
0100
1000
0010
,
0100
0001
1000
0010
0100
0010
1000
0100
,
0001
0000
0010
0000
1000
0100
0010
0001
,
0100
0000
0001
1000
0010
0001
0100
1000
,
0001
0000
0010
0100
1000
0010
0001
0100
,
1000
0001
0100
1000
0010
0100
1000
0001
,
0100
1000
0010
0100
0001
1000
0010
0001
,
1000
0000
0000
0100
0000
0000
0010
0000
0000
0001
0000
0000
0100
0000
0000
0000
0001
0000
0000
0000
0010
0000
0000
0000
,
1000
0000
0000
0000
0001
0000
0000
0000
0010
0000
0000
0000
0100
0000
0000
0010
0000
0000
0001
0000
0000
0100
0000
0000
,
0010
0100
1000
0010
0002
0010
0100
1000
,
0023
0000
0130
0010
0001
1000
0010
0000
,
1000
0100
0001
0010
0100
1000
0010
0100
,
0001
0010
1000
0000
0100
1000
0010
0001
,
0100
0000
0010
0100
0001
1000
0100
0001
,
1000
0010
0100
1000
0010
0100
0001
0010
,
1000
0001
0100
0001
0010
1000
0100
0010
,
0001
0010
1000
0010
0100
0001
0010
0000
,
0100
0001
1000
0100
0001
1000
0010
0100
,
0001
0010
1000
0010
0100
0001
1000
0100
,
0010
1000
0100
0001
1000
0100
0010
1000
,
0100
0010
0001
0010
1000
0100
0010
0100
,
0010
0100
0010
0001
1000
0100
0010
0000
,
0100
0010
1000
0010
0100
0000
0010
0100
,
0001
0010
1000
0001
0100
1000
0010
0001
,
0100
0010
1000
0100
0001
0100
0010
0000
,
0002
2003
3002
0203
,
0320
0000
2030
0000
3000
0001
0010
0100
,
1000
0001
1000
0001
1000
0001
1000
0001
,
1000
0000
0100
1000
0020
0000
0130
0000
,
1001
0000
0000
0000
;

//--------------- dance-single - ----------------
#NOTES:
     dance-single:
     :
     Challenge:
     18:
     0,0,0,0,0:
0000
0000
0000
0000
,
0000
0000
0000
0000
,
0000
0000
0000
0000
,
0000
0000
0000
0000
,
0000
0000
0000
0000
,
0000
0000
0000
0000
,
0000
0000
0000
0000
,
0000
0000
0000
0000
,
0000
0000
0000
0000
,
0000
0000
0000
0000
,
1001
0000
1000
0001
0100
0010
1000
0010
,
0100
0001
0010
0001
1000
0001
0010
0100
,
0010
0000
1000
0001
0100
0010
0100
0001
,
0010
0100
0010
0100
1000
0001
0010
0100
,
0010
0000
0010
0001
0100
0010
0100
0001
,
1000
0000
1000
0100
0010
0001
0010
0100
,
0010
0100
1000
0001
1000
0010
0100
0010
,
0200
0000
0000
0000
,
0320
0000
0000
2030
0000
0000
3002
0000
,
0023
0230
2300
0000
,
3001
0000
0001
0100
0010
1000
0010
0100
,
0010
1000
0001
0020
,
0000
1000
1030
0000
,
0000
0000
0000
0100
0010
0100
0010
0100
1000
0010
0100
0001
,
0020
0000
0000
2030
0000
0000
3001
0000
,
0100
1000
0020
0000
0230
0000
0000
0000
,
2300
0000
3001
0100
,
0010
1000
0010
0100
0001
0010
0100
0010
,
0100
0010
0001
1000
0100
0000
0001
1000
,
0100
0000
0010
0000
0001
0000
0100
0000
1000
0100
0010
1000
0000
0001
0010
0000
,
1000
0001
0100
0010
0100
1000
0001
0000
0100
0000
0010
0000
0001
0000
1000
0000
,
0001
0100
0001
0100
0010
1000
0001
1000
,
0100
0010
0100
0010
0001
0100
0010
0100
,
0001
1000
0001
0100
0010
1000
0100
1000
,
0010
0000
0000
0000
0000
0000
0000
0000
0100
0000
0000
0000
0000
0000
0000
0000
1000
0000
0000
0000
0000
0000
0000
0000
0001
0000
0000
0000
0000
0000
0000
0000
0100
0000
0000
0000
0000
0000
0000
0000
0010
0000
0000
0000
0000
0000
0000
0000
0200
0000
0000
0000
0000
0000
0000
0000
0000
0000
0000
0000
0000
0000
0000
0000
0000
0000
0301
0000
0000
0010
0000
0000
0100
0000
0000
0000
0000
0000
0000
0000
0000
1000
0000
0000
0000
0000
0000
0000
0000
0000
0001
0000
0000
0000
0000
0000
,
0100
0000
0000
1000
0000
0000
0001
0000
0200
0000
0000
0000
0000
0000
0000
0000
0320
0000
0000
0000
0000
0000
1030
0000
0000
0100
0000
0000
1000
0001
0100
0010
,
0002
0000
0000
0000
0000
0000
1003
0100
0020
0000
0000
0000
0130
0000
0000
0000
0100
0000
0000
0000
0010
0000
0000
0000
0100
0000
0000
0000
0010
0000
0000
0000
,
0001
1000
0010
1000
0001
0010
0100
1000
,
0001
0010
0001
1000
0010
0100
0001
1000
,
0010
1000
0001
1000
0010
0100
0010
1000
,
0010
0000
0100
0000
0001
0000
1000
0000
0010
0000
0100
0000
0002
0000
0000
0000
0000
0000
0013
0000
0000
0100
0000
0000
,
0001
0000
1000
0000
0010
0000
0100
0001
0010
0000
0100
0000
0010
0000
1000
0000
,
0001
0100
1000
0000
0010
0000
0100
0000
1000
0000
0000
0000
0001
0000
1000
0000
,
0010
0100
0001
0010
0100
1000
0001
0000
0010
0100
0001
0010
,
1000
0000
0000
0000
0001
0000
0000
0000
0100
0000
0000
0000
0001
0000
0000
0000
0000
0000
0000
0000
0000
0000
0000
0000
1000
0000
0000
0000
0000
0000
0000
0000
0000
1100
0000
0000
0000
0000
0000
0000
0000
0000
0001
0000
0000
0000
0000
0000
,
0010
0000
0000
0000
1000
0000
0000
1001
0000
0000
0010
0000
0100
0000
0000
0000
,
1000
0001
0010
0100
1000
0000
0200
0000
0000
0000
0000
0000
0301
0000
0000
0001
,
0000
0000
0001
0000
0001
0000
0000
0010
0000
0000
0010
0000
1000
0100
0010
0001
,
0010
1000
0100
0010
0001
0000
0000
1000
0000
0000
0001
0000
0100
0000
0000
0000
,
0100
0000
0000
0100
0000
0000
0001
0000
1000
0000
0000
0000
0001
0010
0100
1000
,
0001
0000
0100
0000
0000
0000
0000
0000
0100
0000
0000
0100
0000
0000
0001
0000
,
0010
0000
0000
0010
0000
0000
1000
0001
0010
0100
0001
0010
1000
0001
0100
0010
,
2000
0000
0000
0000
0000
0010
0000
0100
0000
3001
0000
0010
0000
0100
0000
1000
0020
0000
0000
0000
0100
0000
1000
0001
0000
0000
0000
0031
0000
1000
0000
0001
,
0100
0000
0000
0000
0010
0000
0000
0000
0001
0000
0000
1000
0000
0000
0001
0000
0100
0000
0000
0000
0001
0000
0000
0000
0100
0000
0000
0010
0000
0000
1000
0000
0002
0000
0000
0000
0000
0000
0000
0000
0000
0000
0000
0000
0000
0000
0000
0000
2003
0000
0000
0000
0000
0000
0000
0000
0000
0000
0000
0000
0000
0000
0000
0000
,
0002
0000
0000
0000
0000
3003
0000
0000
0010
0000
0000
0000
0000
0000
1000
0000
0000
0000
0000
0000
0001
0000
0000
0000
0010
0000
0000
0000
1000
0000
0001
0000
,
0100
0010
1000
0001
0020
0000
0000
0230
0000
0000
1300
0000
0001
0010
0100
0001
,
1000
0000
0100
0000
0010
0000
0000
0001
0000
0000
1000
0000
0010
0000
0000
0000
,
0001
0000
1000
0000
0100
0010
1000
0001
0000
0010
0100
1000
0002
0000
0000
0000
,
1003
0000
0100
0000
1001
0000
0000
1100
0000
0000
0110
0000
0001
0010
0100
1000
,
0001
0000
0010
0000
0100
0000
0010
0000
1000
0001
0100
0000
0010
0000
1000
0000
,
0001
0000
0000
0000
0000
0000
0100
0000
0000
0000
0000
0000
0010
0000
0000
0100
0000
0000
1000
0000
0000
0010
0000
0000
0001
0000
0000
1000
0000
0000
0000
0000
0000
0000
0000
0000
0010
0000
0000
0000
0010
0000
0000
0000
0010
0000
0000
0000
,
0100
0100
0100
0200
0000
0000
0320
0000
0000
0000
0000
0000
,
1030
0000
0000
0000
0100
0000
0010
0000
0001
0000
0000
1000
0000
0000
0001
0000
,
0010
1000
0100
0010
0001
1000
0010
0100
,
1000
0001
0010
0100
1000
0010
0001
0100
,
0010
1000
0010
1000
0100
1000
0001
0010
,
1000
0000
0100
0000
0010
0000
0100
0000
0001
0000
0000
1000
0000
0000
0010
0000
,
0001
0000
0100
0000
1000
0000
0001
0000
0010
0100
1000
0000
0010
0000
0100
0000
,
0001
0010
0100
0000
0001
0000
0100
0000
1000
0000
0100
0000
0001
0000
0010
0000
,
1000
0001
0100
0000
0001
0000
0010
0000
1000
0100
0010
0000
0001
0000
1000
0000
,
0001
0000
0000
0000
0010
0000
0100
0000
1000
0000
0000
0001
0000
0000
1000
0000
,
0100
0001
0010
0100
1000
0001
0100
0010
,
0001
0000
1000
0000
0100
0000
0001
0000
0100
0000
0001
0000
,
0100
0001
0100
0001
0010
0001
1000
0100
,
0001
0000
0000
0000
0100
0000
0000
0000
1000
0000
0000
0001
0000
0000
0100
0000
,
1000
0000
0010
0000
0001
0000
1000
0000
0100
0010
0001
0000
0100
0000
0010
0000
,
1000
0100
0010
0000
1000
0000
0010
0000
0001
0000
0010
0000
1000
0000
0100
0000
,
0001
0000
0010
0000
1000
0010
0100
0000
0001
0000
0100
0000
1000
0010
0001
0000
,
0200
0000
0000
0320
0000
0000
0032
0000
0000
0000
0000
0000
0000
2003
0000
0000
3020
0000
0000
2030
0000
0000
3002
0000
2000
0000
0000
0000
0003
0000
0000
0000
,
3020
0000
0000
0000
0000
0000
0130
1000
0200
0000
0000
0000
0000
0000
0301
0100
0002
0000
0000
0000
0000
0000
0000
0000
2003
0000
0000
0000
0000
0000
0000
0000
,
3001
0000
0010
0100
1000
0000
0001
0000
,
0100
1000
0010
0001
0100
0000
0010
0001
,
0100
1000
0010
0100
0010
0100
1000
0001
,
0010
0000
1000
0000
0001
0010
0100
0000
1000
0010
0001
0000
0100
0000
1000
0000
,
0010
0100
0001
1000
0100
1000
0010
1000
,
0001
0100
0010
1000
0010
1000
0001
1000
,
0100
0010
0100
0010
0100
1000
0010
0100
,
0001
0010
0100
0010
0100
0010
0001
0100
,
0010
1000
0100
0010
0001
0100
0010
1000
,
0001
1000
0001
0010
0100
0010
0001
0100
,
0020
0000
0000
0000
0000
0000
0000
0000
0000
0000
0000
0000
0000
0000
0000
0000
0000
0000
0000
0000
0000
0000
0000
0000
0230
0000
0000
0000
0000
0000
0000
0000
0000
0000
0000
0000
0000
0000
0000
0000
0000
0000
0000
0000
0000
0000
0000
0000
0310
0000
0000
0000
0000
0000
0001
0000
0000
0000
0000
0000
1000
0000
0000
0000
0001
0000
0000
0000
0100
0000
0000
0000
0020
0000
0000
0000
0000
0000
0000
0000
0000
0000
0000
0000
0000
0000
0000
0032
0000
0000
0000
0000
0000
0000
0000
0000
,
2003
0000
0000
0000
3001
0010
0100
0001
1000
0000
0000
0000
0100
0000
0010
0000
,
0001
0000
0000
1000
0000
0000
0001
0000
0010
0000
1000
0000
0100
0000
0010
0000
,
0001
1000
0010
0100
1000
0001
0010
0100
,
1000
0000
0010
0000
0001
0010
0100
0001
0010
0100
1000
0001
0010
0100
1000
0001
,
0100
0010
1000
0100
0001
0000
0010
0000
1000
0000
0100
0000
0010
0000
1000
0100
,
0001
0000
0000
1000
0000
0000
0010
0000
0001
0000
0100
0000
1000
0000
0001
0000
,
0010
0100
1000
0000
0010
0000
0100
0000
0001
0010
0100
0000
0001
0000
0100
0000
,
1000
0010
0100
0000
0001
0000
0010
0000
1000
0000
0100
0000
0001
0100
0010
0000
,
1000
0000
0000
0000
0010
0000
0000
0000
0001
0000
0100
0000
1000
0000
0000
0000
0020
0000
0000
2030
0000
0000
0000
0000
3020
0000
0000
0000
0000
0000
0000
0000
,
0230
0000
0320
0000
0031
0100
0010
0100
,
0001
0100
0001
1000
0010
0100
0001
1000
,
0001
0100
0010
0100
0001
1000
0001
0100
,
0001
1000
0010
1000
0001
0100
0010
1000
,
0100
1000
0001
1000
0100
0010
0001
0100
,
0010
0100
0001
1000
0010
0100
0001
0010
,
0100
1000
0100
1000
0000
0001
1000
0000
0100
0001
0010
0000
0100
1000
0001
0000
,
0100
0010
0001
1000
0001
0100
0001
0100
,
0010
0100
0010
1000
0001
0010
0001
0100
,
0010
1000
0001
1000
0010
0100
0001
0100
,
0001
0000
1000
0000
0001
0000
0010
0000
0100
1000
0001
0000
0010
0000
0100
0000
,
0010
0000
1000
0000
0000
0000
1001
0000
0000
0000
0000
0000
0100
0010
0001
0000
,
1000
0000
0001
0000
0100
0000
0110
0000
0000
0000
0000
0000
1000
0100
0010
0000
,
0001
0000
1000
0000
0001
0000
0100
0000
0010
0000
0100
0010
0001
0000
1000
0000
,
0001
0100
1000
0010
0001
0100
0010
0001
0200
0000
0000
0000
0000
0000
0000
0000
,
1300
0001
1000
0000
0000
0001
0010
0100
1000
0001
0100
0000
0010
0100
0010
0000
,
1000
0001
0100
0010
0000
1000
0001
0000
0010
0100
1000
0000
0010
0100
1000
0000
,
0001
0010
0100
0010
0001
1000
0010
0100
0010
0100
0001
0010
0100
0010
0001
0100
,
0010
0000
0000
0000
1000
0001
1000
0001
2000
0000
0000
0000
0000
0000
0001
0010
,
3200
0000
0000
0300
;
