
//----- song ID: yusha -----//
#TITLE:そして勇者は眠りにつく;
#ARTIST:打打だいず;
#TITLETRANSLIT:Soshite Yusha wa nemuri ni tsuku;
#ARTISTTRANSLIT:D-D-Dice;
#GENRE:ナムコオリジナル;
#MUSIC:Soshite Yusha wa nemuri ni tsuku.ogg;
#BANNER:Soshite Yusha wa nemuri ni tsuku.png;
#BACKGROUND:Soshite Yusha wa nemuri ni tsuku-bg.png;
#CDTITLE:./CDTitles/NSD A3.png;
#SAMPLESTART:87.615;
#SAMPLELENGTH:15.000;
#SELECTABLE:YES;
#OFFSET:0.000;
#BPMS:0.000=90.660
,6.000=89.660
,10.000=136.000
,13.000=90.000
,15.000=75.000
,15.250=79.000
,15.500=84.000
,15.750=71.740
,16.000=73.740
,16.500=70.000
,17.000=75.000
,17.625=89.000
,19.000=91.000
,20.000=84.000
,22.000=234.000
,50.000=117.000
,52.000=234.000
,84.000=175.500
,105.000=113.950
,106.000=117.000
,107.000=234.000
,197.500=165.000
,210.000=170.000
,211.000=175.000
,216.000=172.000
,219.000=178.000
,228.000=196.000
,232.000=204.000
,233.000=211.100
,235.000=222.100
,236.000=232.000
,237.000=252.000
,239.000=237.600
,240.000=198.500
,242.000=256.500
,243.000=238.000
,244.000=239.000
,247.000=220.000
,248.000=240.000
,259.000=241.700
,264.000=240.000
,272.000=59.770
,273.000=240.000
,429.000=480.000
,445.000=39.810
,446.000=121.460
,448.000=245.000
,451.000=250.000
,452.000=255.000
,453.000=260.000
,457.000=265.000
,460.000=266.000
,464.000=270.000
,466.000=272.000
,470.000=276.000
,475.000=277.000
,478.000=291.000
,479.000=296.000
,482.000=300.000
,486.000=124.000
,492.500=86.000
,498.000=332.000
,502.000=62.000
;
#STOPS:148.000=0.128
,149.000=0.128
,150.000=0.128
,197.500=0.822
;
#DISPLAYBPM:90.000:300.000;
#BGCHANGES:;
#FGCHANGES:;

//--------------- dance-single - ----------------
#NOTES:
     dance-single:
     :
     Beginner:
     7:
     0,0,0,0,0:
0000
0000
0000
0000
,
0000
0000
0000
0000
,
0000
0000
0000
0000
,
0000
0000
0000
1000
,
0000
0010
0000
0200
,
0000
0000
0000
0000
0000
0300
0000
0000
1001
0000
0000
0000
0000
0000
0000
0000
,
0000
0010
0100
0000
,
0000
0001
1000
0000
,
0000
0010
0100
0000
,
0000
0000
1001
0000
,
0000
0010
0100
0000
,
0000
0001
1000
0000
,
0000
0000
0020
0030
,
1000
0000
0000
0000
,
0010
0000
0000
0000
,
0100
0000
0000
0000
,
0001
0000
0000
0000
,
0000
0200
0000
0300
,
0000
0020
0000
0030
,
0000
1000
0000
0001
,
0100
0000
0000
0000
0010
0000
0000
0000
0100
0000
0000
0000
,
0001
0000
0000
1000
0000
0000
0010
0000
,
0000
1000
0000
0000
0001
0000
0000
0010
,
0000
0200
0000
0300
,
0001
0000
0000
0100
0000
0000
0010
0000
,
0000
0100
0000
0000
1000
0000
0000
0001
,
0000
0000
0100
0000
0010
1000
0000
0000
,
1001
0000
0010
1000
,
0100
0001
0100
0010
,
0000
1000
0000
0001
,
0000
0100
0010
1000
,
0010
0100
0000
1000
,
0100
0000
0001
0000
0000
1000
0000
0000
,
0000
0100
0000
0000
0000
0010
0000
1000
,
0010
0000
1000
0001
0000
0200
0000
0000
,
0000
0000
0000
0000
,
0000
0320
0000
0030
,
1001
0110
1001
0100
,
0010
0000
1000
0001
0000
0000
0000
1000
,
0000
0000
0000
0001
0000
1000
0000
0000
,
0010
0000
0000
0002
0000
1003
0000
0000
,
0100
0000
0000
0010
0000
0000
0001
0000
,
0100
0000
1000
0001
0100
0000
0000
2000
,
0000
0000
0000
3002
0000
0000
0000
0003
,
0000
0000
0000
2000
0000
0000
0000
3002
,
0000
0000
0000
2003
0000
0000
0000
0000
,
0000
0000
3000
0020
0000
0000
0000
2030
,
0000
0000
0000
3001
0000
0000
0000
2002
,
0000
0000
0000
0000
,
0000
0000
0000
3003
0010
0000
0100
0000
,
0001
0010
0100
0010
,
2000
0000
0000
3002
,
0000
0103
0010
1000
,
0001
0010
0100
0010
,
2000
0000
0000
3001
,
0010
0100
1000
0001
,
0100
0010
0100
1000
,
0001
0010
0100
0010
,
1000
0001
0010
0100
,
1000
0001
0100
0010
,
1000
0001
0100
1000
,
0002
0000
0000
1003
,
0100
0000
0000
0010
0000
0000
0100
0000
,
1000
0000
0000
0001
0000
0000
0100
0000
,
1000
0000
0000
0001
0000
0000
0010
0000
,
2000
0000
0000
0000
,
3001
0010
0100
1000
,
0010
0001
0100
0010
,
1001
0020
0000
0000
,
0000
1030
0100
0010
,
0000
0001
1000
0001
,
0000
0010
0000
0100
,
0000
0010
0000
0000
,
1000
0100
0001
0010
,
0000
1000
0001
0100
,
0000
0020
0000
0000
0000
0000
0000
0000
,
0030
1000
0000
0001
,
0000
0000
0110
0000
0000
0001
0000
0000
,
0100
0000
1000
0001
,
0000
0000
0100
0000
0000
0010
0000
0000
,
0200
0000
0000
0300
,
0000
1001
0000
0010
,
0000
0100
0000
1000
,
0000
0002
0000
0000
,
0000
0003
0000
0000
,
0000
1001
0000
0000
,
0000
0000
0000
0000
,
0000
0000
0000
0000
0000
1000
0000
0000
0000
0001
0000
0000
,
0000
0000
0100
0000
0000
0000
0000
0000
0000
1001
0000
0000
0000
0000
0000
0000
0000
0000
0000
0000
0000
0000
0000
0000
,
0000
0010
0000
1000
,
0000
0001
0000
0100
,
0000
0010
0000
0100
,
0000
1000
0000
0001
,
0000
0100
0000
0010
,
0000
0100
0000
1000
,
0000
0001
0000
0010
,
0000
0100
0000
0000
,
0000
0001
0000
0000
1000
0000
0100
0000
,
0010
0000
0001
1000
,
0001
0000
0100
1000
,
0001
0100
0001
0010
,
0100
1000
0010
0000
,
0000
1001
0000
0000
0020
0000
0000
0000
,
1030
0000
0000
0000
0000
0001
0000
0010
0000
1000
0000
0100
,
0000
1000
0000
0100
0000
0010
0000
0100
0000
0001
0000
0010
,
0000
1000
0000
0001
0000
0000
0100
0000
0000
1000
0000
0000
,
0100
0000
0000
0000
,
0000
0020
0000
0000
,
0000
0000
0000
0000
,
0000
0000
0000
0000
,
0000
0000
0000
0000
,
0000
0030
2000
3020
,
0000
0000
0000
0000
,
0000
0000
0000
0000
,
0000
0000
0000
0000
,
0000
0130
1000
0000
,
0001
0000
0010
0000
,
0100
0000
1000
0000
,
0001
0000
0010
0000
,
0100
0000
1000
0000
,
0000
0000
0220
0000
,
0000
0000
0330
0000
,
0000
0000
0000
0000
0000
0000
0000
0200
,
0000
0000
0000
0000
,
0000
0000
0000
0000
,
0000
0000
0300
0000
;

//--------------- dance-single - ----------------
#NOTES:
     dance-single:
     :
     Easy:
     10:
     0,0,0,0,0:
0000
0000
0000
0000
,
0000
0000
0000
0000
,
0000
0000
0000
0000
,
0000
0000
0000
0000
0000
0000
0000
0000
0000
0000
0001
1000
0010
0000
1000
0001
,
1000
0000
0000
0000
0001
0000
1000
0000
0002
0000
0000
0000
0000
1003
0000
0000
0200
0000
0000
0000
0000
0000
0000
0000
0000
0000
0000
0000
0000
0000
0000
0001
,
0000
0000
0000
0000
0000
0310
0000
0000
1001
0000
0000
0000
0000
0000
0100
0000
,
0000
0000
0010
0000
0100
0000
0000
0001
,
0000
0000
0001
0000
1000
0000
0000
0100
,
0000
0000
0010
0000
0100
0000
0000
1000
,
0000
0000
0000
0000
1001
0000
0000
0001
,
0000
0000
0010
0000
0100
0000
0000
1000
,
0000
0000
0001
0000
1000
0000
0000
0010
,
0000
0000
0020
0030
,
1000
0000
0000
0010
0000
0000
1000
0000
,
0010
0000
0000
0001
0000
0000
0010
0000
,
0100
0000
0000
1000
0000
0000
0100
0000
,
0001
0000
0000
0010
0000
0000
1000
0000
,
0000
0200
0000
0300
,
0000
0020
0000
0030
,
0000
1000
0100
0001
,
0100
0000
0000
0000
0010
0000
0000
0000
0100
0000
0000
0000
,
0001
0000
1000
0010
0000
0000
0010
0000
,
0100
1000
0000
0000
0001
0000
0010
0100
,
0000
0000
0002
0000
0000
1000
0000
0000
,
0103
0000
0000
0001
0000
0010
0100
0000
,
0000
1000
0000
0000
0100
0000
0010
1000
,
0000
0000
0200
0000
0310
1000
0000
0000
,
1001
0100
0010
1000
,
0100
0001
0100
0010
,
0100
1000
0010
0001
,
0010
0100
0010
1000
,
0010
0100
0001
1000
,
0100
0000
0001
0100
0000
1000
0000
0000
,
0010
0100
0000
0000
0100
0010
0000
1000
,
0010
0000
1000
0001
0000
0200
0000
0000
,
0000
0000
0000
0000
,
0000
0320
0000
0030
,
1001
0110
1001
0100
,
0010
0000
1000
0001
0000
0000
0010
1000
,
0000
0000
0100
0001
0000
1000
0100
0000
,
0010
0000
0000
0002
0000
1003
0000
0000
,
0100
0000
0000
0010
0000
0000
0001
0000
,
0100
0000
1000
0001
0100
0000
0000
2000
,
0000
0000
0000
3002
0000
0000
0000
0003
,
0000
0000
0000
2000
0000
0000
0000
3002
,
0000
0000
0000
2003
0000
0000
0000
0000
,
0000
0000
3000
0020
0000
0000
0000
2030
,
0000
0000
0000
3001
0000
0000
0000
2002
,
0000
0000
0000
0000
,
0000
0000
0000
3003
0010
0000
0100
0000
,
0001
1000
0010
0000
0100
0000
0010
0000
,
2000
0000
0000
3002
,
0000
0103
0010
1000
,
0001
1000
0010
0000
0100
0000
0010
0000
,
2000
0000
0000
3001
,
0010
0100
1000
0001
,
0100
0010
0100
1000
,
0001
0010
0100
0010
,
1000
0001
0010
0100
,
1000
0001
0100
0010
,
1000
0000
0000
0000
0000
0000
0000
0000
0000
0001
0000
0000
0000
0000
0000
0000
0100
0000
0000
0000
0000
0000
0000
0000
1000
0000
0000
0000
0000
0000
0000
0000
,
0001
0010
0100
1000
,
0100
0000
0000
0010
0000
0000
0100
0000
,
1000
0000
0000
0001
0000
0000
0100
0000
,
1000
0000
0000
0001
0000
0000
0010
0000
,
1000
0000
0000
0100
0000
0000
0010
0000
,
0001
0010
0100
1000
,
0010
0001
0100
0010
,
1001
0001
0100
0010
,
0100
1001
0100
0010
,
0100
0010
1000
0100
,
1000
0000
0001
0000
1000
0000
0010
0100
,
0000
1001
0000
0000
0100
0000
0001
0000
,
0100
0001
1000
0001
,
0000
0001
0000
1000
0000
0010
0000
0100
,
0000
2000
0000
0000
0000
0000
0000
0000
,
3001
0010
0100
1000
,
0001
0000
0100
0000
0000
0010
0000
0000
,
1001
0000
0100
0010
,
0100
0000
1000
0000
0000
0001
0000
0000
,
0220
0000
0000
0330
,
0000
1001
0000
0100
0010
0000
0001
0000
,
0100
1000
0001
0100
,
0000
0020
0000
0000
0000
0000
0000
0000
,
0000
0130
1000
0001
,
0100
1000
0000
0000
,
0000
0000
0000
0000
,
0000
0000
0000
0000
0000
0001
0000
0010
0000
0001
0000
0100
,
0000
1000
0000
0020
0000
0000
0000
0000
0000
0030
0000
0000
,
0000
0001
0100
1000
,
0100
1000
0100
0010
,
0001
0100
0001
1000
,
0010
1000
0100
1000
,
0010
0100
0010
0100
,
0001
0100
0010
1000
,
0100
0000
0010
0000
0100
0000
1000
0001
,
0000
2002
0000
0000
3003
0000
0001
1000
,
0000
0110
0000
0000
0010
0000
1000
0000
,
0010
0000
0100
0000
0010
0000
1000
0001
,
0000
1100
0000
0000
0010
0000
1000
0000
,
0100
0000
0010
0000
0001
0000
0010
0001
,
0000
1000
0000
0001
0100
0000
1000
0100
,
0000
0001
0000
0100
0010
0000
2000
0000
,
3000
0000
0000
0000
0000
0001
0000
0010
0000
1000
0000
0100
,
0000
1000
0000
0100
0000
0010
0000
0100
0000
0001
0000
0010
,
0000
0000
1000
0000
0000
0000
0001
0000
0000
0010
0000
0000
0100
0000
0000
0001
0000
0000
1000
0000
0000
0010
0000
0000
,
0200
0000
0000
0000
,
0300
0020
0000
0000
,
0000
0000
0000
0000
,
0000
0000
0000
0000
,
0000
0000
0000
0000
,
0000
0030
2000
0000
,
0020
0000
0000
0000
,
0000
0000
0000
0000
,
0000
0000
0000
0000
,
0000
3030
0000
0000
,
0001
1000
0010
0100
,
0010
0100
0001
1000
,
0010
0100
0001
1000
,
0100
0010
2000
0000
,
0000
0000
0002
0000
,
0000
0000
3003
0000
,
0000
0000
0000
0000
0000
0000
0000
0200
,
0000
0000
0000
0000
,
0000
0000
0000
0000
,
0000
0000
0300
0000
;

//--------------- dance-single - ----------------
#NOTES:
     dance-single:
     :
     Medium:
     12:
     0,0,0,0,0:
0000
0000
0000
0000
,
0000
0000
0000
0000
,
0000
0000
0000
0000
,
0000
0000
0000
0000
0000
0000
0000
0000
0000
0000
0000
0000
0100
0000
0001
1000
,
0000
0000
0000
0000
1000
0000
0001
0000
2000
0000
0000
0000
0000
3001
0000
0000
0020
0000
0000
0000
0000
0000
0000
0000
0000
0000
0000
0000
0000
0000
0000
1000
,
0000
0000
0000
0000
0000
0000
0000
0000
0000
0000
0200
0000
0000
0330
0000
0000
0010
0000
0000
0000
0000
0000
0000
0000
1000
0000
0000
0000
0000
0000
0000
0000
,
0010
0100
0010
0100
,
0001
0000
0000
0000
0010
0000
0000
0000
0100
0000
0000
1000
0000
0000
0010
0000
,
0000
0100
0000
0000
0010
0000
1000
0000
0001
0000
0000
0010
0000
0000
1000
0000
,
0000
0010
0000
0000
1000
0000
0000
0000
0100
0000
0000
0000
1000
0000
0000
0000
,
0010
0100
0010
0100
,
0010
0000
0000
0000
1000
0000
0000
0000
0001
0000
0000
0010
0000
0000
1000
0000
,
0000
0010
0000
0000
1000
0000
0000
0000
0002
0000
0000
0000
0010
0000
0000
0000
,
0103
0010
0100
1000
,
0010
0000
0000
0100
0000
0000
1000
0000
0000
0001
0000
0000
0010
0000
0000
0000
,
0100
1000
0100
1000
,
0100
0000
0000
0010
0000
0000
0001
0000
0010
0000
0100
0000
,
0000
2002
0000
0000
,
3003
0220
0000
0000
,
0330
0010
1000
0001
,
0010
0000
0100
0000
1000
0000
0001
0000
0010
0000
0100
0000
,
0001
0000
0010
1000
0000
0010
0001
0000
,
0010
0100
0000
0001
1000
0000
0100
0001
,
0000
0010
0200
0000
0000
0020
0300
0000
,
1030
0000
0100
0010
0000
0001
1000
0000
,
0001
0100
1000
0001
0010
0000
0100
1000
,
0000
0001
2000
0000
3010
0001
0000
0000
,
1001
0000
0100
0001
0010
0000
1000
0000
,
0100
0000
0001
1000
0100
0000
0010
0000
,
0100
0000
1000
0100
0010
0000
0001
0000
,
0010
1000
0100
0000
0010
0000
1000
0001
,
0010
1000
0100
0000
0001
0000
1000
0001
,
0100
0000
0001
0100
0000
1000
0000
1000
,
0010
0100
0000
0001
0100
0010
0000
1000
,
0010
0000
1000
0001
0000
0200
0000
0000
,
0000
0000
0000
0000
,
0000
0320
0000
0030
,
1001
0110
1001
0100
,
0010
0000
1000
0001
0100
0000
0010
1000
,
0010
0000
0100
0001
0010
1000
0100
0000
,
0010
0000
0000
0002
0000
1003
0010
0000
,
0100
1000
0000
0010
0100
0000
0001
0010
,
0100
0000
1000
0001
0100
0000
0000
2000
,
0000
0000
0000
3002
0000
0000
0000
0003
,
0000
0000
0000
2000
0000
0000
0000
3002
,
0000
0000
0000
2003
0000
0000
0000
0000
,
0000
0000
3000
0020
0000
0000
0000
2030
,
0000
0000
0000
3001
0000
0000
0000
2002
,
0000
0000
0000
0000
,
0000
0000
0000
3003
0100
0000
1000
0000
,
0001
0100
1000
0000
0001
0000
0100
0000
,
0010
1000
0001
0000
0100
0010
2000
0000
,
0000
3200
0000
0000
0301
0000
0010
0100
,
1000
0000
0001
0000
0100
1000
0001
0000
,
0010
0000
0100
0010
1000
0000
0001
0000
,
0100
1000
1001
0100
,
0010
1000
0001
0000
0100
0001
0010
0000
,
1000
0010
1000
0001
0010
0000
0100
1000
,
0010
0000
1000
0010
0001
0000
0100
0010
,
0001
0000
0100
0010
1000
0000
0001
0000
,
0100
0000
0000
0000
0000
0000
0000
0000
0000
0010
0000
0000
0000
0000
0000
0000
1000
0000
0000
0000
0000
0000
0000
0000
0010
0000
0000
0000
0000
0000
0000
0000
,
1000
0010
0100
0010
0002
0000
1003
0000
,
0001
0000
0010
1000
0001
0000
0100
0000
,
0001
0000
1000
0001
0100
0000
1000
0000
,
0100
0000
1000
0010
0001
0000
0100
0000
,
0001
0000
0000
1000
0000
0000
0100
0000
0001
0000
0000
0000
0100
0000
0000
0000
,
0010
0000
0100
1000
0010
0100
1000
0010
,
0001
0100
1000
0010
0001
1000
0010
0100
,
0001
2002
0000
0000
,
3003
0000
0010
0000
1000
0000
0010
0100
,
1000
0010
0001
0000
0010
0000
0001
0000
,
0010
1000
0001
0010
0100
0001
0010
1000
,
0000
0010
0000
1000
0100
0000
0001
1000
,
0010
0100
0001
0000
0010
1000
0100
0001
,
1000
0000
0001
0010
0000
1001
0000
0010
,
0000
2002
0000
0000
0000
0000
3003
0000
,
0100
1000
0010
0100
,
0010
0000
0100
0000
0000
1001
0000
0000
,
0100
0000
0000
0000
0000
0000
0001
0000
0100
0000
1000
0000
,
0001
0000
0010
0000
0000
1001
0000
0000
,
0200
0000
0000
0000
0000
0000
0310
0001
,
0000
1001
0000
0000
0010
0000
0100
0001
,
0000
1000
0010
0000
0100
0010
0001
0100
,
0000
2002
0000
0000
0000
0000
0000
0000
,
3003
0000
0100
1000
0100
1000
0100
0010
,
0001
1000
0020
0000
0000
0000
0000
0000
,
0000
0000
0000
0000
,
0000
0000
0000
0030
0000
0001
0000
0010
0000
0001
0000
0100
,
0000
0000
1000
0000
0000
0000
0220
0000
0000
0000
0000
0000
0330
0000
0000
0000
0000
0000
0000
0000
0000
1000
0000
0000
,
0100
0010
0001
0000
0100
0000
1000
0001
,
0100
0010
1000
0000
0100
0000
0010
1000
,
0001
0010
0100
0000
0001
0000
1000
0100
,
0010
1000
0100
1000
,
0010
0100
0010
0100
,
0001
0100
0010
1000
,
0100
0000
0010
0000
0100
0000
1000
0001
,
0000
2002
0000
0000
3003
0000
0001
1000
,
0000
0110
0000
0000
0010
0000
1000
0000
,
0010
1000
0100
0000
0010
0000
1000
0001
,
0000
1000
0000
0100
0010
0000
1000
0000
,
0100
0001
0010
0000
0001
0000
0010
0001
,
0000
1000
0000
0001
0100
0000
1000
0100
,
0000
0001
0000
0100
0010
0000
2000
0000
,
3000
0000
0000
0000
0000
0001
0000
0010
0000
1000
0000
0100
,
0000
1000
0000
0100
0000
0010
0000
0100
0000
0001
0000
0010
,
0000
0000
1000
0000
0000
0000
0001
0000
0000
0010
0000
0000
0100
0000
0000
0001
0000
0000
1000
0000
0000
0010
0000
0000
,
0200
0000
0000
0000
,
0300
0020
0000
0000
,
0000
0000
0000
0000
,
0000
0000
0000
0000
,
0000
0000
0000
0000
,
0000
0030
0002
0000
,
0020
0000
0000
0000
,
0000
0000
0000
0000
,
0000
0000
0000
0000
,
0000
0033
0000
0000
,
0001
0100
1000
0000
0010
0000
0100
0000
,
0010
1000
0100
0000
0001
0000
1000
0000
,
0010
0001
0100
0000
0001
0000
1000
0000
,
0100
0001
0010
0000
2000
0000
0000
0000
,
0000
0000
0002
0000
,
0000
0000
3003
0000
,
0000
0000
0000
0000
0000
0000
0000
0220
,
0000
0000
0000
0000
,
0000
0000
0000
0000
,
0000
0000
0330
0000
;

//--------------- dance-single - ----------------
#NOTES:
     dance-single:
     :
     Hard:
     17:
     0,0,0,0,0:
0000
0000
0000
0000
,
0000
0000
0000
0000
,
0000
0000
0000
0000
,
0000
0000
0000
0000
0000
0000
0000
0000
0000
0000
0000
0000
0000
0000
0000
0000
0000
0000
0000
0000
0001
0000
1000
0000
0010
0100
0000
0000
1000
0000
0001
0000
,
1000
0000
0000
0000
0001
0000
1000
0000
0002
0000
0000
0000
0000
1003
0000
0000
0200
0000
0000
0000
0000
0000
0000
0000
0000
0000
0000
0000
0000
0000
0000
0001
,
0000
0000
0000
0000
0000
0000
0000
0000
0000
0000
0020
0000
0000
0330
0000
0000
0100
0000
0000
0000
1000
0000
0000
0000
0100
0000
0000
0000
1000
0000
0000
0000
,
0100
0010
0100
0001
0010
0100
0001
0100
,
0001
0000
0010
0000
0001
0000
0100
0000
0010
0100
1000
0000
0001
0010
1000
0000
,
0010
0000
0100
0000
0001
0000
1000
0000
0001
0100
1000
0000
0001
1000
0010
0000
,
0100
1000
0001
1000
0100
0010
0100
1000
,
0010
0100
0010
0100
0001
1000
0100
1000
,
0100
0000
1000
0000
0010
0000
0100
0000
0010
0100
1000
0000
0001
0010
1000
0000
,
0100
1000
0100
0010
1020
0000
0130
0000
,
1001
0000
0010
0000
1000
0000
0001
0000
0100
0000
0001
0000
0100
1000
0010
0000
,
1000
0000
0001
0000
0100
0000
0001
0000
1000
0000
0010
0000
1000
0010
0001
0000
,
0010
0000
0100
0000
0010
0000
0100
0000
1000
0000
0001
0000
1000
0000
0100
0010
,
1000
0000
0001
0000
0100
0000
0001
0000
1000
0000
0100
0000
0010
0000
0001
0100
,
1000
0010
0200
0000
0000
0000
0000
0000
,
0300
0020
0000
0000
,
0030
0000
0000
0100
1000
0010
0100
0010
0001
1000
0100
0010
,
0001
0000
1001
0000
0110
0000
1001
0000
0110
0000
1001
0000
,
1000
0000
0100
0010
0001
0000
0002
0000
0000
0000
0000
0000
0013
0000
0100
1000
,
0010
0000
0002
0000
0000
0000
0000
0000
1003
0000
0100
0010
0001
0000
2000
0000
,
0000
0000
3200
0000
0000
0320
0000
0000
,
0031
0000
0100
0000
1000
0000
0001
1000
0020
0000
0000
0000
0130
0000
1000
0000
,
0100
0000
0010
0001
0010
0000
1000
0000
0100
0010
0000
1000
0001
0000
0010
0000
,
0200
0000
0320
0000
1030
0110
1001
0000
,
0100
0000
0010
0000
0100
1000
0010
0000
0001
0000
1000
0000
0010
0100
1000
0000
,
0001
0000
0100
0000
0010
0100
1000
0000
0001
0010
0100
0000
0001
0000
0010
0000
,
0001
0100
1000
0000
0010
0000
1000
0000
0001
0010
0100
0000
0010
0000
0100
0000
,
0010
0000
0100
1000
0001
0000
1000
0000
0010
0001
0100
0000
0010
0000
1000
0000
,
0010
1000
0100
0010
0100
1000
0000
0000
,
1001
0000
0000
0000
0110
0000
0011
0000
0000
0000
2002
0000
3003
0000
1000
0001
,
1000
0010
0001
0000
0000
0000
1000
0001
0010
0100
1000
0000
0000
0000
0101
0000
,
1010
0000
1001
0110
0000
0200
0000
0000
,
0000
0000
0310
2000
0000
3002
0000
0000
,
0000
0000
1003
0020
0000
0000
0030
0000
,
0101
0000
0110
0000
1001
0000
0010
1000
,
0001
0000
0100
0010
0001
1000
0020
0000
0000
0000
0000
0000
0000
0000
0130
0000
,
0010
0000
1000
0000
0001
1000
0010
0000
0001
0000
0010
0000
0100
0000
0000
0000
,
0011
0000
1100
0000
0000
0000
2000
0000
0000
0000
3100
0000
0001
0010
0100
0000
,
0001
0000
1000
0010
0100
0000
1000
0000
0001
1000
0010
0100
0001
1000
0010
0100
,
0001
0010
1000
0001
0100
0001
0010
1000
0100
0000
0000
0000
0000
0000
2000
0000
,
0000
0000
0000
3002
0000
0000
0000
0003
,
0000
0000
0000
2000
0000
0000
0000
3002
,
0000
0000
0000
2003
0000
0000
0000
0000
,
0000
0000
3000
0020
0000
0000
0000
2030
,
0000
0000
0000
3001
0000
0000
0000
2002
,
0000
0000
0000
0000
,
0000
0000
0000
3003
0001
0000
0100
0000
,
1000
0000
0001
0010
0100
0000
0010
0000
,
0200
0000
0000
0320
,
0000
0000
1030
0100
,
0010
0001
0010
0000
1000
0000
0100
0000
,
0020
0000
0000
0130
,
0001
0000
1001
0100
,
0010
1000
0001
0000
0100
0001
0010
0100
,
1000
0010
1000
0001
0010
0000
0100
1000
,
0010
0000
1000
0010
0001
0000
0100
0010
,
0001
0000
0100
0010
1000
0000
0001
0000
,
0100
0000
0000
0000
0000
0000
0000
0000
0000
0010
0000
0000
0000
0000
0000
0000
1000
0000
0000
0000
0000
0000
0000
0000
0010
0000
0000
0000
0000
0000
0000
0000
,
1000
0010
0100
0010
0002
0000
1003
0000
,
0100
0000
0010
0000
0001
0000
0010
0000
0100
0000
0010
0000
0100
1000
0010
0000
,
0001
0000
0100
0000
0010
0000
0100
0000
0010
0000
0100
1000
0001
0000
0010
0000
,
0001
0000
1000
0000
0001
0000
1000
0000
0010
0000
0100
0000
0010
0100
1000
0000
,
0001
0000
1000
0000
0100
0000
1000
0000
0001
0000
0010
0000
0001
0100
1000
0000
,
0001
0010
0100
0010
0001
0100
0001
0010
,
0001
1000
0010
0000
0100
0001
0010
0001
0100
0010
1000
0100
0010
0001
1000
0010
,
0100
0000
0000
0000
0010
0001
0100
0001
0010
0100
0001
1000
0010
0100
0010
1000
,
0001
0100
0010
0001
0100
0000
0010
0000
0001
0000
0100
0000
0010
0000
1000
0000
,
0010
1000
0010
0100
0001
0100
0010
1000
,
0001
0100
0010
1000
0001
0010
0100
0010
,
0100
0010
0001
0100
0001
0010
0100
1000
,
0010
1000
0100
1000
0010
0100
0010
1000
,
0100
0000
0010
0000
0100
1000
0010
0000
0000
0000
0101
0000
0000
0000
1001
0000
,
0000
0220
0000
0000
0330
1000
0100
0010
,
0001
0000
0100
0010
0001
0000
1000
0000
0010
0000
1000
0000
0001
0000
0010
0000
,
0001
2000
0000
0000
0000
3001
0000
0000
,
0220
0000
0000
0330
0000
0000
1000
0100
0001
0010
0100
0001
,
0010
0000
0100
0000
1000
0000
0001
0000
0000
0000
0000
0000
0000
0000
0000
1001
0000
0000
0000
0000
0000
0000
0000
0000
,
0220
0000
0000
0000
0330
0000
0010
1000
,
0001
0010
0001
0010
0001
0100
0010
1000
,
0010
0100
0001
0100
0001
0010
0100
1000
,
0000
2002
0000
0000
0000
0000
0000
0000
,
3003
0000
0000
0000
0001
0000
0010
0000
0100
0000
0010
0000
0001
1000
0100
0010
,
0001
0100
0010
1000
0200
0000
0000
0000
0000
0000
0000
0000
0000
0000
0000
0000
,
0000
0000
0000
0000
,
0300
0000
0000
0000
0000
0011
0000
0011
0000
0011
0000
0110
,
0000
1100
0000
0220
0000
0000
0000
0000
0000
0330
0000
0000
,
0000
0000
0001
1000
0100
1000
0100
1000
,
0001
0100
0010
0000
0001
0000
1000
0000
0001
0000
0010
0000
0100
0000
1000
0010
,
0001
0000
1000
0010
0100
0000
1000
0000
0010
0001
0100
0000
0001
0010
0100
0000
,
0001
0000
0000
1000
0000
0000
0010
0000
1000
0000
0100
0000
0010
0000
0001
0000
0100
0000
0001
0000
0100
0000
0010
0000
,
0100
0010
1000
0100
1000
0020
0000
0000
0230
0000
0000
0000
,
0000
0000
2300
0000
0000
3001
0000
0000
0100
0000
0000
0000
,
0010
0000
0000
0000
1000
0000
0000
0000
0002
0000
0000
0000
0000
0000
0000
0000
0000
0000
0000
0000
0000
0103
0000
0000
,
0000
0000
1001
0000
0000
0000
0001
0010
0100
1000
0000
0000
0010
0000
1000
0000
,
0000
1002
0000
0000
1003
0100
0010
1000
,
0010
0100
0010
1000
0001
0010
0001
0010
,
0002
0000
0000
1003
0100
0010
0100
0010
,
0001
0000
0100
0000
0001
0100
0010
1000
0001
0000
0100
0000
0010
0000
0100
0000
,
0000
0000
1001
0000
0000
0000
0100
0000
1000
0000
0100
0000
0010
1000
0100
0001
,
0010
1000
0000
0001
0100
0000
0020
0000
,
0130
0000
0000
0000
0000
1001
0000
0010
0000
1000
0000
0100
,
0000
1000
0000
0100
0000
0010
0000
0100
0000
0001
0000
0010
,
0000
0000
1000
0000
0000
0000
0001
0000
0000
0010
0000
0000
0100
0000
0000
0001
0000
0000
1000
0000
0000
0010
0000
0000
,
0100
0000
0000
0000
,
0000
0000
0100
0010
0001
0010
0001
0010
,
0100
1000
0100
1000
0010
1000
0100
0010
,
0001
1000
0001
0100
0010
0100
0001
1000
,
0001
0010
0001
1000
0100
1000
0001
0010
,
0100
0000
0000
1000
0000
0000
1001
0000
0000
0000
1000
0000
0010
0000
0000
0000
0000
0000
1002
0000
0000
0000
0000
0000
,
0103
0001
0010
0100
1000
0100
0010
0001
,
0010
0100
1000
0010
0100
0001
1000
0100
,
0010
0100
0010
0100
1000
0001
0100
0001
,
1000
0001
0100
0010
0100
0001
1000
0001
,
0100
0001
1000
0100
1000
0001
0100
0010
,
0100
0001
1000
0010
0100
0001
0010
0001
,
0010
0100
0010
0100
1000
0100
0010
0001
,
0100
0001
1000
0010
0200
0000
0000
0000
,
0000
0000
0320
0000
,
0000
0000
0000
0000
1030
0000
0001
1000
,
0000
0100
0010
1000
0010
0000
1000
0001
,
0000
0001
2000
0000
0000
0000
0000
0000
,
0000
0000
3020
0000
,
0000
0000
0030
0000
;
