#TITLE:ソニックしたい!;
#ARTIST:タケノコ少年 feat. 初音ミク;
#TITLETRANSLIT:Sonic Shitai!;
#ARTISTTRANSLIT:Takenoko Shonen feat. Hatsune Miku;
#GENRE:ボーカロイド™曲;
#MUSIC:Sonic Shitai!.ogg;
#BANNER:Sonic Shitai!.png;
#BACKGROUND:Sonic Shitai!-bg.png;
#CDTITLE:./CDTitles/NSD A3.png;
#SAMPLESTART:54.359;
#SAMPLELENGTH:15.000;
#SELECTABLE:YES;
#OFFSET:0.000;
#BPMS:0.000=197.000;
#STOPS:;
#BGCHANGES:;
#FGCHANGES:;

//--------------- dance-single - ----------------
#NOTES:
     dance-single:
     :
     Beginner:
     4:
     0,0,0,0,0:
0000
0000
0000
0000
,
0000
0000
0000
0000
,
0000
0000
0000
0000
,
0000
0000
0000
0000
,
0000
0000
0000
0000
,
0001
0000
0000
0000
,
1000
0000
0000
0000
,
0001
0000
0000
0000
,
0010
0000
0000
0000
,
0100
0000
0000
0000
,
0001
0000
0000
0000
,
1000
0000
0000
0000
,
0100
0000
0000
0000
,
0010
0000
0100
0000
,
1000
0000
0000
0000
,
0001
0000
1000
0000
,
0010
0000
0000
0000
,
0100
0000
1000
0000
,
0001
0000
0000
0000
,
0010
0000
0100
0000
,
1000
0000
0000
0000
,
0001
0000
0000
0000
,
0010
0000
0100
0000
,
1000
0000
0000
0000
,
0001
0000
1000
0000
,
0010
0000
0000
0100
,
1000
0010
0000
0000
,
0001
0000
0000
1000
,
0001
0100
0000
0000
,
0010
0000
0100
0000
,
1000
0000
0001
0000
,
0010
0000
0100
0000
,
1000
0000
0001
0000
,
0010
0000
0100
0000
,
0010
0000
0001
0000
,
1000
0000
0001
0000
,
0010
0000
0100
0000
,
0000
0100
0100
0001
,
1000
0000
0001
0000
,
0000
0100
0100
0001
,
1000
0000
0001
0000
,
0010
0000
1000
0000
,
0001
0000
0010
0000
,
0200
0000
0000
0000
,
0300
0000
0000
0000
,
1001
0000
0100
0000
,
0010
0000
0001
0000
,
0010
0000
0100
0000
,
1000
0000
0001
0000
,
0010
0000
0100
0000
,
1000
0000
0001
0000
,
0010
0000
0100
0000
,
0001
1000
0001
0000
,
0110
0000
1000
0000
,
0001
0000
0100
0000
,
0001
0000
0010
0000
,
0100
0000
1000
0000
,
0001
0000
0010
0000
,
0100
0000
0001
0000
,
0010
0000
0100
0000
,
1000
0001
1000
0000
,
0010
0100
1000
0000
,
0001
1000
0001
0000
,
0100
0000
0010
0000
,
0001
0000
1000
0000
,
0001
0000
0010
0000
,
0100
0000
0000
0000
,
0010
0000
0001
0000
,
0010
0000
1000
0000
,
0010
0000
0100
0000
,
1000
0000
0001
0000
,
0020
0000
0000
0000
,
0130
0000
0000
0000
,
0200
0000
0000
0000
,
0301
0000
0000
0000
,
1000
0000
0001
0000
,
0100
0000
1000
0000
,
0001
0000
0100
0000
,
0010
0000
0000
0000
,
0110
0000
1000
0000
,
0001
0000
0010
0000
,
0100
0000
1000
0000
,
0001
0000
0010
0000
,
0100
0000
0001
0000
,
0010
0000
0100
0000
,
1000
0000
0001
0000
,
0100
0000
0010
0000
,
1001
0000
0000
0000
,
0110
0000
0000
0000
,
0001
0000
0000
0000
,
1000
0000
0000
0000
,
0010
0000
0000
0000
,
0100
0000
0000
0000
,
0010
0000
0001
0000
,
1000
0000
0000
0000
,
0010
0000
0000
0000
,
0100
0000
1000
0000
,
0001
0000
0000
0000
,
0100
0000
1000
0000
,
0001
0000
0000
0000
;

//--------------- dance-single - ----------------
#NOTES:
     dance-single:
     :
     Easy:
     7:
     0,0,0,0,0:
0000
0000
0000
0000
,
0000
0000
0000
0000
,
0000
0000
0000
0000
,
0000
0000
0000
0000
,
0000
0000
0000
0000
,
0100
0010
0001
0010
,
0001
0100
0001
0100
,
0010
0100
0001
0010
,
0001
1000
0100
1000
,
0100
0010
0001
1000
,
0100
1000
0010
0100
,
0001
1000
0010
0100
,
0010
1000
0001
0100
,
0010
0000
1000
0000
,
0001
0100
1000
0000
,
0001
1000
0010
0100
,
0001
0010
0100
0000
,
1000
0001
0010
0001
,
0010
0100
1000
0000
,
0001
0100
0010
0001
,
0010
0100
1000
0000
,
0010
0100
1000
0000
,
0001
0010
0100
0001
,
1000
0001
0100
0000
,
0010
0100
1000
0000
,
0001
0010
0100
0001
,
0010
0100
0001
0000
,
1000
0001
0100
0001
,
0010
0100
0001
0000
,
0200
0000
0310
0000
,
2000
0000
3001
0000
,
0020
0000
0130
0000
,
0002
0000
1003
0000
,
0010
0100
0001
0000
,
1000
0001
0100
0000
,
0010
0100
1000
0000
,
0001
1000
0001
0000
,
0000
0100
0100
0001
,
0000
0100
0000
1000
,
0000
0100
0100
0001
,
0000
0100
0000
1000
,
0000
0001
0000
0100
,
0000
0010
0000
1000
,
2002
0000
0000
0000
,
3003
0000
0000
0000
,
1001
0010
0001
0100
,
0001
0010
0100
1000
,
0001
0100
0001
1000
,
0001
0010
0100
0010
,
0100
1000
0100
0010
,
0001
1000
0010
1000
,
0010
0100
0001
1000
,
0100
1000
0100
0010
,
0100
0010
0001
1000
,
0100
1000
0001
0100
,
0010
0100
0001
1000
,
0100
0010
0001
0010
,
0001
1000
0001
0010
,
0100
0010
0001
1000
,
0001
1000
0001
0010
,
0100
1000
0001
1000
,
0100
0100
0001
0000
,
0100
0100
0001
0000
,
1001
0100
0001
0010
,
0100
0001
0010
0000
,
1000
0001
0100
0010
,
0001
0010
0100
0000
,
1001
0000
0110
0000
,
0001
0010
0100
0000
,
1001
0000
0101
0000
,
0001
0010
1000
0001
,
0100
0000
0010
0000
,
1000
0001
0100
0000
,
0001
0000
0001
0000
,
0100
0001
0010
0000
,
1000
0001
0100
0000
,
0010
1000
0001
0000
,
0100
1000
0001
0000
,
0100
0000
0010
0000
,
1001
1000
0100
1000
,
0010
0100
0001
0100
,
0010
0100
0010
1000
,
0010
0100
0001
0010
,
0100
0010
0001
1000
,
0100
1000
0001
1000
,
0100
0010
0001
0010
,
0001
1000
0010
1000
,
0100
0100
0001
0000
,
0100
0000
0100
0000
0001
0000
0000
0100
,
0000
0100
0000
0001
0000
0000
0000
0100
,
0000
0100
0000
0001
0000
0000
0000
0000
,
0010
1000
0100
1000
,
0001
1000
0100
0010
,
0001
0100
0001
0010
,
0100
1000
0100
1000
,
0001
0010
0001
1000
,
0001
0100
0010
0100
,
0001
0010
0100
0010
,
0001
1000
0001
1000
,
0110
0000
0000
0000
;

//--------------- dance-single - ----------------
#NOTES:
     dance-single:
     :
     Medium:
     12:
     0,0,0,0,0:
0000
0000
0000
0000
,
0000
0000
0000
0000
,
0000
0000
0000
0000
,
0000
0000
0000
0000
,
0000
0000
0000
0000
,
0010
0001
0100
0000
1000
0000
0100
0000
,
1000
0001
0010
0000
1000
0000
0010
0000
,
0100
0001
0010
0000
1000
0000
0100
0000
,
1000
0100
0001
0000
0010
1000
0001
0000
,
0010
1000
0100
0001
1000
0010
0001
0000
,
0010
1000
0001
0000
0100
0000
0010
0000
,
1000
0010
0001
0000
0100
0000
0010
0000
,
0100
1000
0001
0100
1000
0000
0010
0000
,
0100
0000
0010
0000
0001
0000
1000
0002
,
0000
1003
0000
0200
0000
0301
0000
0000
,
1000
0000
0001
0000
0100
0000
1000
0010
,
0000
1000
0100
0002
0000
1003
0000
0000
,
0001
0000
1000
0001
0000
0100
0001
1000
,
0000
0100
0000
0020
0000
0000
0031
0100
,
1000
0001
0010
1000
0100
0000
1000
0001
,
0000
0100
0010
1000
0001
0000
0110
0000
,
0100
0000
0010
0000
0002
0000
1003
0020
,
0000
0032
0000
0103
0000
0010
1000
0010
,
0001
0100
1000
0001
0010
0000
1000
0002
,
0000
0103
0000
0010
0001
0000
0100
0000
,
1000
0000
0100
0000
0010
0000
1000
0002
,
0000
0103
0000
0001
1000
0000
0100
0000
,
0001
0010
1000
0000
0010
0000
1000
0001
,
0100
0000
0010
0100
1000
0000
0000
0000
,
0020
0000
0130
1000
,
0002
0000
1003
0010
,
0100
0000
0010
0100
0010
0002
0000
2000
,
0000
3003
0000
0000
0100
0000
0000
0000
0001
0000
0000
0000
1000
0000
0000
0000
,
0100
0001
0010
0100
1000
0010
0001
0100
,
0010
0000
0002
0000
0000
0000
1003
0000
0000
0010
0002
0000
0000
0000
1003
0000
,
0100
0001
0010
1000
0001
0100
1000
0010
,
1000
0100
0000
0001
0000
1000
0100
0000
,
0000
0100
0100
0001
,
0001
0000
0100
0000
0010
0100
1000
0001
,
0000
0100
0100
0001
,
1000
0000
0010
0000
0100
0010
0001
0100
,
0010
0000
1000
0001
0100
0000
0010
1000
,
0001
0010
0100
0000
0010
1000
0001
0000
,
2002
0000
0000
0000
,
3003
0000
0000
0000
,
1001
0000
0100
0001
1000
0100
0010
0001
,
1000
0010
0100
0001
0010
1000
0001
0000
,
1000
0001
0010
0100
1000
0010
0001
0100
,
1000
0100
0010
0100
,
0010
1000
0001
0100
0010
0001
0100
0000
,
1000
0001
0100
0001
,
0100
0001
0010
0100
1000
0010
0001
0100
,
0010
0000
0001
1000
0010
0001
0100
0001
,
0010
1000
0100
0001
1000
0010
0001
0100
,
0010
1000
0001
0100
1000
0000
0010
0001
,
0100
1000
0010
0001
1000
0010
0001
1000
,
0010
0100
1000
0100
,
1000
0010
0001
0100
1000
0010
0100
1000
,
0010
0000
0100
0001
1000
0000
0001
0000
,
1000
0010
0001
0010
1000
0001
0100
1000
,
0010
0100
0001
0010
1000
0100
0001
1000
,
0100
0000
0100
0000
0001
0000
0000
0100
,
0000
0100
0000
0001
0000
0000
0000
0000
,
1001
0000
0010
0100
1000
0000
0100
0001
,
0010
1000
0100
0010
,
0001
0100
1000
0001
0010
1000
0100
0000
,
1000
0000
0100
0000
0010
1000
0000
0000
,
1000
0001
0010
0000
0110
0000
0000
0000
,
1000
0001
0100
0000
0010
1000
0000
0000
,
1000
0010
0100
0000
1010
0000
0000
0000
,
1000
0010
0100
1000
0001
0010
1000
0000
,
0010
0001
0100
1000
,
0001
0000
1000
0001
0000
0100
0010
0000
,
1000
0010
1000
0100
,
0010
0100
0000
1001
0000
0100
0010
0000
,
0001
0100
1000
0001
0010
1000
0000
0010
,
0100
0000
0001
0010
1000
0000
0100
0000
,
0010
0100
0001
0010
1000
0100
0000
1000
,
0010
0001
0100
0010
,
1001
0000
0100
0001
1000
0100
0010
0001
,
1000
0010
0100
0001
0010
1000
0001
0000
,
1000
0001
0010
0100
1000
0010
0001
0100
,
1000
0100
0010
0100
,
0010
1000
0001
0100
0010
0001
0100
0000
,
1000
0001
0100
0001
,
0100
0001
0010
0100
1000
0010
0001
0100
,
0010
0000
0001
1000
0010
0001
1000
0001
,
0100
0000
0100
0000
0001
0000
0000
0100
,
0000
0100
0000
0001
0000
0000
0000
0100
,
0000
0100
0000
0001
0000
0000
0000
0100
,
0000
0100
0000
0001
0000
0000
0000
0000
,
0010
0001
0100
0000
1000
0000
0100
0000
,
1000
0001
0010
0000
1000
0000
0010
0000
,
0100
0001
0010
0000
1000
0000
0100
0000
,
1000
0100
0001
0000
0010
1000
0001
0000
,
0010
1000
0100
0001
1000
0010
0001
0000
,
0010
1000
0001
0000
0100
0000
0010
0000
,
1000
0010
0001
0000
0100
0000
0010
0000
,
0100
1000
0001
0100
1000
0001
0010
1000
,
0110
0000
0000
0000
;

//--------------- dance-single - ----------------
#NOTES:
     dance-single:
     :
     Hard:
     16:
     0,0,0,0,0:
0000
0000
0000
0000
,
0000
0000
0000
0000
,
0000
0000
0000
0000
,
0000
0000
0000
0000
,
0000
0000
0000
0000
,
0010
0000
0100
0000
0001
0000
1000
0000
0010
0001
0100
0000
0001
0000
0100
0000
,
0001
0000
0100
0000
0010
0000
1000
0000
0100
0001
1000
0000
0100
0000
1000
0000
,
0010
0000
0100
0000
0001
0000
1000
0000
0100
0001
1000
0000
0100
0000
0010
0000
,
0100
0000
0010
0000
0001
0000
0010
0000
0001
0100
1000
0000
0010
0000
0100
0000
,
0001
1000
0100
0010
0001
0000
0100
1000
0010
0001
1000
0000
0010
0001
1000
0010
,
0100
0000
0010
0000
0100
0000
1000
0000
0100
0001
1000
0000
0010
0000
1000
0000
,
0001
0000
0010
0000
0100
0000
0010
0000
0001
1000
0010
0000
0100
0000
1000
0000
,
0010
0100
1000
0001
0100
1000
0010
0001
0100
0000
0000
0000
0010
0000
0000
0000
,
1000
0100
0001
0010
0200
0000
1300
0002
,
0000
2003
0000
3200
0000
0301
0010
1000
,
0100
0010
0002
0000
2003
0000
3200
0302
,
0000
0103
0010
2000
0000
0000
3002
0000
,
0103
0000
0010
0002
0000
1003
0100
0020
,
0000
0032
0000
2003
0000
3010
0100
0010
,
1000
0001
0100
1000
0002
0000
1003
0020
,
0000
0130
1000
0001
0010
0000
0110
0000
,
0010
1000
0010
1000
0020
0000
0031
2000
,
0000
3010
0100
0002
0000
1003
0010
1000
,
0001
0010
0001
0100
0002
0000
0103
2000
,
0000
3002
0000
0023
0000
0130
0001
1000
,
0100
1000
0010
0100
0020
0000
0031
0100
,
0000
0010
0001
0200
0000
1300
0100
0010
,
0001
0100
0010
0100
2000
0000
3001
0020
,
0000
0000
1030
0000
0100
0000
0010
0000
0100
0001
0010
0000
0100
0001
1000
0000
,
0020
0230
0302
0203
,
0310
0000
1100
0000
0011
0000
1000
0100
,
0002
0000
0013
0000
0001
2000
0000
0002
,
0000
3003
0000
0000
2000
0000
0000
0000
3020
0000
0000
0000
0230
0000
0000
0000
,
0301
1000
0100
0010
0001
1000
0001
1000
,
0100
0000
2000
0000
0000
0000
3010
0000
0000
0001
1000
0000
0010
0000
0100
0000
,
0001
1000
0001
1000
0100
0010
0001
0100
,
0010
1000
0000
0010
0100
1000
0010
0000
,
0000
0100
0100
0001
,
0002
0000
0000
1003
0100
0001
0010
0100
,
0000
0100
0100
0001
,
0001
0000
0000
1000
0001
0100
0010
1000
,
0000
0010
0100
0001
0010
0001
0010
0100
,
1000
0100
0010
0001
0100
0001
0100
0010
,
2002
0000
0000
0000
0000
0000
0000
3003
,
0000
0000
0000
0000
0000
0000
0000
0000
0000
0000
0001
0010
1000
0000
0100
0000
,
0001
0000
1000
0010
0001
0000
1000
0010
0100
0000
1000
0010
0001
0000
0100
1000
,
0010
0000
1000
0000
0010
0000
0100
0000
0001
0000
0100
1000
0001
0000
0010
0000
,
0001
0000
0010
0001
0100
0000
1000
0010
0001
0000
1000
0010
0100
0001
1000
0010
,
0100
0000
0010
0000
0001
0000
0100
0000
0010
0000
0100
0000
0001
1000
0100
0001
,
0010
0000
1000
0001
0100
0000
1000
0001
0010
0000
1000
0001
0100
0000
0010
1000
,
0001
1000
0100
1000
0001
1000
0001
0100
,
0001
1000
0010
1000
0010
1000
0001
0010
,
0100
1000
0010
1000
0010
1000
0100
0010
,
0001
0000
1000
0010
0100
0000
1000
0010
0001
0000
1000
0100
0010
0000
0100
0001
,
0010
1000
0010
0100
0001
0100
0001
1000
,
0010
0000
0100
0001
0010
1000
0100
0010
0001
1000
0100
0001
0010
0100
1000
0100
,
0001
0010
0001
0100
0010
0100
0001
0100
,
0001
0000
1000
0010
0001
1000
0010
0001
0100
0001
0010
1000
0001
0010
0100
0001
,
0010
1000
0010
0100
0001
0100
0010
1000
,
0010
1000
0010
0100
0001
0010
0001
1000
,
0100
0000
0010
0000
0100
0010
1000
0100
0001
0010
1000
0100
0001
0010
1000
0100
,
0010
0100
0010
0000
0001
1001
0000
0100
,
0010
0100
0000
0001
1001
0000
0000
0000
,
0001
0010
0100
1000
0010
1000
0010
1000
,
0100
0010
0001
1000
0001
1000
0100
1000
,
0010
0100
0010
0100
0010
1000
0100
1000
,
0010
0100
0010
1000
0010
0100
0001
1000
,
0001
0010
0001
1000
0100
1000
0001
1000
,
0001
0010
0100
0010
0001
0100
0010
0100
,
0001
0010
0100
1000
0001
0010
0100
0010
,
0100
1000
0001
0010
0100
1000
0001
0010
,
0001
0100
0010
1000
0001
0100
0001
0010
,
0100
0010
0001
0010
0000
1000
0001
0100
,
0001
1000
0001
0100
0010
1000
0001
0010
,
0001
0010
0000
0010
0000
1000
0010
1000
,
0001
0000
1000
0001
0100
0010
0001
1000
0010
0000
0010
0000
1000
0000
0100
0000
,
1000
0100
0010
0001
0010
0100
1000
0001
,
1000
0100
0010
0001
0010
0100
0010
0100
,
0010
0000
0100
0010
1000
0001
0100
0000
,
1000
0000
0001
0100
1000
0000
0001
0100
0010
0000
0001
0100
1000
0000
0010
0001
,
0100
0000
0001
0000
0100
0000
0010
0000
1000
0000
0010
0001
1000
0000
0100
0000
,
1000
0000
0100
1000
0010
0000
0001
0100
1000
0000
0001
0100
0010
1000
0001
0100
,
0010
0000
0100
0000
1000
0000
0010
0000
0100
0000
0010
0000
1000
0001
0010
1000
,
0100
0000
0001
1000
0010
0000
0001
1000
0100
0000
0001
1000
0010
0000
0100
0001
,
1000
0001
0010
0001
1000
0001
1000
0010
,
1000
0001
0100
0001
0100
0001
1000
0100
,
0010
0000
0001
0000
0100
0000
0001
0000
0100
1000
0001
0100
0010
1000
0100
0001
,
0010
0100
0010
0000
0001
1001
0000
0100
,
0010
0100
0000
0001
1001
0000
0000
0010
,
0100
0010
0000
0001
1001
0000
0000
0100
,
0010
0100
0000
0001
1001
0000
0000
0000
,
0010
0000
0100
0000
0001
0000
1000
0000
0010
0001
0100
0000
0001
0000
0100
0000
,
0001
0000
0100
0000
0010
0000
1000
0000
0100
0001
1000
0000
0100
0000
1000
0000
,
0010
0000
0100
0000
0001
0000
1000
0000
0100
0001
1000
0000
0100
0000
0010
0000
,
0100
0000
0010
0000
0001
0000
0010
0000
0001
0100
1000
0000
0010
0000
0100
0000
,
0001
1000
0100
0010
0001
0000
0100
1000
0010
0001
1000
0000
0010
0001
1000
0010
,
0100
0000
0010
0000
0100
0000
1000
0000
0100
0001
1000
0000
0010
0000
1000
0000
,
0001
0000
0010
0000
0100
0000
0010
0000
0001
1000
0010
0000
0100
0000
1000
0000
,
0010
0100
1000
0001
0100
1000
0010
0001
0100
1000
0001
0010
0100
0010
1000
0001
,
0110
0000
0000
0000
;
