#TITLE:Shoot the Moon;
#ARTIST:BEMANI Sound Team "TAG";
#GENRE:ノスタルジア;
#MUSIC:Shoot the Moon.ogg;
#BANNER:Shoot the Moon.png;
#BACKGROUND:Shoot the Moon-bg.png;
#CDTITLE:./CDTitles/Nostalgia Op.3.png;
#SAMPLESTART:15.643;
#SAMPLELENGTH:15.000;
#SELECTABLE:YES;
#OFFSET:0.000;
#BPMS:0.000=138.000
,100.000=69.000
,116.000=138.000
;
#STOPS:;
#BGCHANGES:;
#FGCHANGES:;

//--------------- dance-single - ----------------
#NOTES:
     dance-single:
     :
     Beginner:
     2:
     0,0,0,0,0:
0000
0000
0000
0000
,
0000
0000
0000
0000
,
0000
0000
0000
0000
,
0000
0000
0000
0000
,
0000
0000
0000
0000
,
0000
0001
0000
0001
,
0000
1000
0000
1000
,
0000
0010
0000
0010
,
0000
0100
0000
0100
,
0010
1000
0001
0000
,
0010
1000
0001
0000
,
0100
1000
0001
0000
,
0010
0000
0001
0000
,
1000
0001
0010
0000
,
1000
0001
0100
0000
,
0010
0100
0001
0000
,
1000
0000
0001
0000
,
0010
0100
1000
0000
,
0001
0010
0100
0000
,
1000
0001
0100
0000
,
0010
0100
0010
0000
,
1000
0000
0001
0000
,
0010
0000
0100
0000
,
1000
0000
0001
0000
,
0100
0000
0010
0100
,
2000
3000
0000
0010
,
0200
0300
0000
0001
,
0020
0030
1000
0001
,
0020
0030
1000
0000
,
1000
0000
0001
0000
,
0100
0000
0010
0000
,
0100
0000
1000
0000
,
0001
0000
0010
0000
,
0100
0000
1000
0000
,
0001
0000
0010
0000
,
0100
0000
1000
0000
,
0001
0000
0010
0100
,
0001
0000
1000
0000
,
0010
0000
0100
0000
,
1000
0000
0000
0000
0000
0000
0000
0001
,
1000
0000
0000
0000
,
0010
0000
0000
0000
0000
0000
0000
0001
,
1000
0000
0000
0000
,
0001
0000
0010
0000
,
0100
0000
0000
0000
,
1001
0000
0001
0000
,
0100
0000
1000
0000
,
0001
0000
0010
0000
,
0100
0000
1000
0000
,
0001
0000
0010
0000
,
0100
0000
1000
0000
,
0010
0000
0100
0000
,
0001
0000
1000
0000
,
0010
0001
0001
0000
,
0010
1000
1000
0000
,
0010
0100
0100
0000
,
0100
0100
0010
0000
,
1000
0000
0001
0000
,
0100
0000
0001
0000
,
0100
0000
1000
0001
,
0010
0000
0000
0000
,
1001
0000
0000
0000
;

//--------------- dance-single - ----------------
#NOTES:
     dance-single:
     :
     Easy:
     4:
     0,0,0,0,0:
0000
0000
0000
0000
,
0000
0000
0000
0000
,
0000
0000
0000
0000
,
0000
0000
0000
0000
,
0000
0000
0000
0000
,
0000
0001
0000
0001
,
0000
1000
0000
1000
,
0001
0100
0000
0000
0010
0100
0000
0000
,
1000
0000
0000
0001
0000
0000
0100
0000
0000
0000
1000
0000
0010
0000
0001
0000
,
0010
1000
0001
0010
,
0100
0010
1000
0001
,
0010
0100
0010
0001
,
1000
0001
0010
0100
,
0010
1000
0001
0100
,
0010
1000
0001
0100
,
0010
0100
0001
0010
,
0100
1000
0001
0010
,
0100
1000
0001
0000
0100
0000
0010
0000
,
0001
1000
0010
0000
0100
0000
1000
0000
,
0001
0100
0010
0000
0100
0000
0010
0000
,
0100
1000
0001
0000
0100
0000
0010
0000
,
0001
1000
0001
0000
0100
0000
0010
0000
,
0100
1000
0001
0000
0100
0000
0010
0000
,
0100
1000
0001
0000
0100
0000
0010
0000
,
1000
0000
0001
0000
0100
1000
0001
0000
,
1002
0000
0000
0000
0013
0000
0000
1000
0000
0000
0000
0000
0010
0000
0100
0000
,
2001
0000
0000
0000
3001
0000
0000
0010
0000
0000
0000
0000
0010
0000
0100
0000
,
2001
0000
0000
0000
3001
0000
0000
0010
0000
0000
0000
0000
1000
0000
0000
0000
,
1002
0000
0000
0000
0013
0000
0000
0010
0000
0000
0000
0000
1000
0000
0001
0000
,
0010
0000
0100
0000
,
1000
0000
0001
0010
,
0100
0000
0000
0000
0000
0000
1000
0001
,
0000
0000
0100
0010
,
1000
0000
0000
0000
0000
0000
0001
1000
,
0000
0000
0001
0000
0100
0000
0010
0000
0100
0000
0000
1000
0000
0000
0010
0000
,
0200
0000
0000
0000
0300
0000
1000
0002
,
0000
0000
0000
0003
0010
0000
0100
0000
,
1000
0000
0001
0000
,
0010
0000
0100
1000
,
0001
0000
0010
0000
,
1000
0000
0001
0010
,
2000
0000
0000
0000
0000
0000
3000
0001
,
2000
0000
0000
0000
,
3010
0000
0100
0000
,
1000
0010
0001
0000
,
1001
0100
0010
1000
,
0001
0010
0100
0001
,
1000
0100
0010
0100
,
1000
0001
0010
0100
,
0001
1000
0001
0100
,
0010
1000
0001
0010
,
0100
0001
1000
0010
,
0100
0010
1000
0001
,
1001
0100
0010
0100
,
0001
1000
0010
0100
,
1000
0001
0100
0010
,
1000
0001
0100
0010
,
1000
0001
0100
0010
,
0100
0001
1000
0001
,
0010
0100
0010
0001
,
1000
0000
0001
0000
,
1001
0000
0000
0000
;

//--------------- dance-single - ----------------
#NOTES:
     dance-single:
     :
     Medium:
     7:
     0,0,0,0,0:
0000
0000
0000
0000
,
0000
0000
0000
0000
,
0000
0000
0000
0000
,
0000
0000
0000
0000
,
0000
0000
0000
0000
,
0000
0001
0000
1000
,
0000
0010
0000
0100
,
0001
0001
0000
0000
1000
1000
0000
0000
,
0100
0000
0000
0010
0000
0000
0100
0000
0000
1000
0000
0000
0001
0000
0100
0000
,
1001
0000
0010
0000
0100
1000
0001
0000
,
0100
0000
0010
0000
1000
0001
0100
0000
,
0010
0000
0100
1000
0001
0000
0100
0000
,
0010
0000
1000
0001
0100
0000
0010
0000
,
0100
0001
0100
0000
1000
0000
0001
0000
,
0100
0010
1000
0000
0001
0000
0010
0000
,
0100
0001
1000
0000
0100
0000
0010
0000
,
1000
0000
0001
0010
0100
0000
1000
0001
,
0110
0000
0100
0000
1000
0001
0100
0000
,
0010
0000
1000
0001
0100
0010
0100
0000
,
1000
0000
0001
0010
0100
0000
1000
0000
,
0001
0010
0100
0000
1000
0001
0100
0000
,
0010
0100
1000
0000
0001
0000
0100
0000
,
0010
1000
0001
0000
0010
0000
0100
0000
,
1000
0001
0100
0000
0010
0000
0100
1000
,
0001
0000
0100
0000
1000
0001
0100
0010
,
1002
0000
0000
0000
1003
0000
0001
0100
0000
0100
1000
0000
0001
0000
0100
0000
,
0210
0000
0000
0000
0310
0000
1000
0001
0000
0100
1000
0000
0001
0000
0010
0000
,
2001
0000
0000
0000
0000
0000
0000
0000
3001
0000
0000
0000
0010
0000
0200
0000
0000
0000
0000
0000
0000
0000
0000
0000
1300
0000
0000
0001
0000
0000
0010
0000
,
2010
0000
0000
0000
3010
0000
0010
0100
0000
0000
0000
0000
1000
0000
0010
0000
,
0101
1000
0001
0010
,
1000
0001
0010
1000
,
0110
0000
0001
0000
0010
0000
0100
1000
,
0001
0000
0100
0000
0010
0100
1000
0000
,
1010
0000
0010
0000
0100
0000
0001
1000
,
0000
0000
0001
0000
0100
0000
0010
0000
1000
0000
0000
0001
0000
0000
0010
0000
,
0101
0000
0100
0000
1000
0000
0001
0100
,
0000
1000
0001
0000
0100
0000
0010
1000
,
0001
0000
0100
1000
0001
0000
0010
0100
,
0001
0000
1000
0001
0100
0000
0010
0000
,
1000
0001
0100
1000
,
0001
0010
1000
0000
0100
0000
1000
0000
,
0001
1000
0001
0000
0100
0000
0010
0000
,
1000
0001
0100
0000
0010
1000
0100
0000
,
0001
0100
1000
0000
0001
0100
0010
0000
,
1000
0000
0000
0010
0000
0000
0100
0000
0000
0000
0000
0000
1000
0000
0001
0000
,
0110
0000
0100
1000
0001
0000
0100
0000
,
0010
0000
1000
0001
0100
0000
0010
0000
,
0100
1000
0001
0000
0100
0000
0010
0000
,
1000
0001
0100
0000
0010
0000
0100
0001
,
0100
0000
1000
0000
0001
0000
0100
0010
,
1000
0000
0001
0000
0010
0000
0100
0001
,
1000
0100
0010
1000
,
0001
0010
0100
0000
1000
0001
0110
0000
,
0100
0000
1000
0001
0100
0000
0010
0000
,
1000
0001
0100
0010
0100
0000
1000
0000
,
0001
0010
0100
0000
1000
0000
0001
0010
,
0100
0000
1000
0001
0100
0000
0010
0100
,
1000
0000
0001
0000
0100
0000
0010
1000
,
0001
0000
0010
0000
0100
0000
1000
0001
,
0100
0000
0010
0000
0100
1000
0001
0000
,
0100
0000
1000
0001
0100
0010
0000
0000
,
1001
0000
0000
0000
;

//--------------- dance-single - ----------------
#NOTES:
     dance-single:
     :
     Hard:
     13:
     0,0,0,0,0:
0000
0000
0000
0000
,
0000
0000
0000
0000
,
0000
0000
0000
0000
,
0000
0000
0000
0000
,
0000
0000
0000
0000
,
0000
0001
0000
0001
,
0000
1000
0000
1000
,
0010
0010
0000
0000
0100
0100
0000
0000
,
0010
0000
0000
1000
0000
0000
0001
0000
0000
0100
0000
0000
1000
0000
0001
0000
,
0100
0000
0000
1000
0000
0000
0001
0000
0100
0000
0000
0000
2000
0000
0000
0000
,
3010
0000
0000
0100
0000
0000
1000
0000
0002
0000
0000
0000
0013
0000
0000
0000
,
0010
0000
0000
0100
0000
0000
1000
0000
0002
0000
0000
0000
0103
0000
0000
0000
,
0010
0000
0000
0000
0001
0000
1000
0100
0010
0000
0000
0000
0110
0000
0000
0000
,
0100
0000
0000
1000
0000
0000
0100
0000
0001
0000
0000
0000
0200
0000
0000
0000
,
0310
0000
0000
1000
0000
0000
0001
0000
0200
0000
0000
0000
1300
0000
0000
0000
,
0001
0000
0000
0100
0000
0000
0010
0000
1000
0000
0000
0000
0002
0000
0000
0000
,
1003
0000
0000
0000
0010
0000
0100
1000
0001
0000
0000
0000
0010
0000
1000
0000
,
0001
0010
0100
1000
0001
0100
0010
1000
,
0001
0000
0010
0000
1000
0000
0001
0000
0010
0000
0100
0000
1000
0000
0001
0010
,
0100
0010
0100
0001
0010
0100
1000
0001
,
0100
0000
0010
0000
0100
0000
1000
0000
0001
0000
0100
0000
0010
0000
1000
0100
,
0001
0000
0000
0010
0000
0000
1000
0000
0001
0000
0100
0000
0000
0000
0010
0000
,
1000
0000
0000
0001
0000
0000
0010
0000
0100
0000
1000
0000
0000
0000
1000
0100
,
0010
0000
0000
0100
0000
0000
1000
0000
0001
0000
0100
0000
0010
0000
1000
0000
,
0002
0023
0230
1300
,
1002
0000
0000
0000
0013
0000
0000
2001
0000
0000
0000
0000
3001
0000
0110
0000
,
0102
0000
0000
0000
1003
0000
0110
2000
0000
0000
0000
0000
3010
0000
0001
0000
,
0210
0000
0000
0000
0000
0000
0000
0000
0301
0000
0000
0000
1000
0000
0001
0000
0000
0000
0100
0000
1000
0000
0001
0000
0100
0000
0000
0010
0000
0000
1000
0000
,
0012
0000
0000
0000
1003
0000
0100
0010
0000
1000
0001
0000
0110
0000
1001
0000
,
0001
0000
0010
0000
1000
0000
0001
0100
,
1000
0000
1001
0000
0010
0001
0100
0010
,
0100
0000
1001
0000
0001
0000
0100
0010
,
0000
1000
0001
0000
0100
0010
1000
0001
,
0010
0000
0110
0000
1000
0000
0001
2000
,
0000
0000
3010
0000
0100
0000
1000
0000
0001
0000
0000
0100
0000
0000
1000
0000
,
0020
0000
0100
0000
0100
0000
0230
2300
,
0000
0001
3010
0100
,
1000
0000
0001
0010
0100
0000
0010
0100
,
1000
0000
0001
0010
0100
0000
0010
0000
,
2001
0000
0001
0000
0001
0000
0001
0010
,
3200
0010
0010
0010
,
0302
0000
1000
0000
1000
0000
0000
1000
,
2003
0010
0001
0100
,
3010
0000
0001
0000
0100
0001
1000
0000
,
0010
0100
0000
1000
0010
0000
0001
0100
0000
0000
0000
0010
0100
0000
0000
0000
,
0110
0000
0000
1000
0000
0000
0001
0000
0100
0000
0000
0000
2000
0000
0000
0000
,
3010
0000
0000
0100
0000
0000
1000
0000
0002
0000
0000
0000
0013
0000
0000
0000
,
1010
0000
0000
0100
0000
0000
1000
0000
0002
0000
0000
0000
0103
0000
0000
0000
,
0110
0000
0000
0000
0001
0000
1000
0100
0010
0000
0000
0000
0110
0000
0000
0000
,
0100
0000
0000
1000
0000
0000
0100
0000
0001
0000
0000
0000
0200
0000
0000
0000
,
0310
0000
0000
1000
0000
0000
0001
0000
0200
0000
0000
0000
1300
0000
0000
0000
,
0001
0000
0000
0100
0000
0000
0010
0000
1000
0000
0000
0000
0002
0000
0000
0000
,
1003
0000
0000
0000
0010
0000
0100
1000
0001
0000
0000
0000
0010
0000
1000
0000
,
0001
0010
0100
1000
0001
0100
0010
1000
,
0001
0000
0010
0000
1000
0000
0001
0000
0010
0000
0100
0000
1000
0000
0001
0010
,
0100
0010
0100
0001
0010
0100
1000
0001
,
0100
0000
0010
0000
0100
0000
1000
0000
0001
0000
0100
0000
0010
0000
1000
0100
,
0001
0000
0000
0010
0000
0000
1000
0000
0001
0000
0100
0000
0000
0000
0010
0000
,
1000
0000
0000
0001
0000
0000
0010
0000
0100
0000
1000
0000
0000
0000
1000
0100
,
0010
0000
0000
0100
0000
0000
1000
0000
0001
0000
0100
0000
0010
0000
1000
0000
,
0002
0023
0230
1300
,
2002
0000
0000
0000
,
3003
0000
0000
0000
;
