
//----- song ID: srer -----//
#TITLE:サラえる;
#ARTIST:四方田;
#TITLETRANSLIT:Saraeru;
#ARTISTTRANSLIT:yomoda;
#GENRE:ナムコオリジナル;
#MUSIC:Saraeru.ogg;
#BANNER:Saraeru.png;
#BACKGROUND:Saraeru-bg.png;
#CDTITLE:./CDTitles/NSD A3.png;
#SAMPLESTART:13.324;
#SAMPLELENGTH:15.000;
#SELECTABLE:YES;
#OFFSET:0.000;
#BPMS:0.000=135.000;
#STOPS:146.500=0.889;
#BGCHANGES:;
#FGCHANGES:;

//--------------- dance-single - ----------------
#NOTES:
     dance-single:
     :
     Beginner:
     1:
     0,0,0,0,0:
0000
0000
0000
0000
,
0000
0000
0000
0000
,
0000
0000
0000
0000
,
0000
0000
0000
0000
,
0000
0000
0000
0000
,
0000
0000
0000
0000
,
0000
0000
0000
0000
,
0000
0000
1000
0000
,
0000
0000
0000
0000
,
0000
0001
0000
0000
,
0000
0000
0100
0000
,
0000
0000
0001
0000
,
0000
1000
0000
0000
,
0000
0000
0000
0000
0000
0000
0000
1001
,
0000
0000
0000
0000
,
0000
0000
0000
0000
,
0000
0000
0000
0001
0000
0000
0000
0000
,
0000
0000
0000
0000
,
0000
0000
0000
0000
,
1000
0000
0000
0000
,
0000
0000
0001
0000
,
0000
0000
0000
0000
,
0000
1000
0000
0000
0000
0000
0000
0000
,
0001
0000
0000
0100
,
0000
0000
0000
0000
0000
0010
0000
0000
,
0000
0000
0000
1000
0000
0000
0000
0000
,
0000
0000
0000
0000
0000
1000
0000
0000
,
0000
0000
0000
0000
,
0001
0000
0000
0000
,
0000
0001
0000
0000
,
0000
0000
0100
0000
,
0000
0010
0000
0000
0000
0000
0100
0000
,
0000
0000
0000
1000
0000
0000
0000
0000
,
0001
0000
0000
0000
0000
1000
0000
0000
,
0000
0000
0001
0000
0000
1000
0000
0001
,
0000
0000
0000
0100
,
0000
0010
0000
0000
0200
0000
0300
0000
,
1001
0000
0010
0000
,
0100
0000
1000
0000
,
0001
0000
1000
0000
,
0001
0000
1000
0000
,
0010
0000
0100
0000
,
0010
0000
0001
0000
,
1000
0000
0001
0000
,
0010
0000
0100
0000
,
2000
3000
0000
0000
,
0000
0001
0000
0100
,
0020
0031
0000
1000
,
0000
0001
0000
0100
,
0000
0010
0000
0100
,
0000
0001
0000
1000
,
0000
0001
0000
0100
,
0000
0020
0000
0000
,
0030
0001
0000
0000
,
0000
0000
0000
0000
0000
0000
0000
1000
,
0000
0000
0000
0000
,
0000
0000
0000
0001
0000
0000
0000
0000
,
0000
1000
0000
0000
,
0000
0010
0000
0000
0000
0000
0000
0000
,
0100
0010
0100
0000
;

//--------------- dance-single - ----------------
#NOTES:
     dance-single:
     :
     Easy:
     4:
     0,0,0,0,0:
0000
0000
0000
0000
,
0000
0000
0000
0000
,
0000
0000
0000
0000
,
0000
0000
0000
0000
,
0000
0000
0000
0000
,
0000
0000
0000
0000
,
0000
0000
0000
0000
,
0000
0000
0000
0000
0000
0000
0000
0000
0001
0000
0000
0010
0000
1000
0000
0010
,
0000
0000
0000
0000
0000
0000
0001
0000
0000
1000
0000
0000
0000
0001
0000
0000
,
0000
0000
0000
0000
0000
0001
0000
0000
0000
1000
0000
0000
0000
0200
0000
0000
,
0000
0000
0000
0000
0000
0000
0000
0000
0310
0000
1000
0000
0000
0001
0000
0100
,
0000
1000
0000
0000
0000
0000
0000
0000
1000
0000
0000
0000
0000
0000
0010
0000
,
0000
0000
0000
0000
0001
0000
0000
1000
0000
0000
0000
0001
0000
0000
0000
0000
,
0000
0000
0000
0000
0000
0000
0000
1001
,
0000
0000
0001
0000
1000
0000
0000
0100
,
0000
0001
0000
0000
1000
0001
1000
0000
,
0000
0001
0000
1000
0000
0000
0001
0000
,
0100
0000
0000
1000
0000
0001
0000
0000
,
1000
0000
0000
0000
0001
0000
0000
1000
0000
0001
0000
1000
0000
0000
0000
0000
,
0001
0000
0000
0000
0000
0100
0000
0000
0000
0000
0000
0000
0010
0000
0000
0100
,
0000
0000
0000
0001
0000
0000
0000
0000
1000
0000
0000
0100
0000
0000
0000
0001
,
0000
0000
0000
0000
0000
0000
1000
0000
0000
0001
0000
0000
0000
1000
0000
0000
,
0000
0000
0001
0000
0000
1000
0000
0000
0000
0001
0000
0000
0000
0000
0000
0000
,
1000
0000
0000
0000
0000
0000
0000
0100
0000
0000
0000
0000
0010
0000
0000
0000
,
0000
0000
0000
0001
0000
0000
0000
0000
0000
0000
0100
0000
0000
0000
0000
0000
,
0000
1000
0000
0000
0000
0000
0001
0000
0000
0000
0000
0000
0100
0000
0000
0000
,
1000
0010
0000
0000
1000
0001
0000
0000
,
0100
0000
0010
0000
0000
0001
0000
0000
,
1000
0000
0000
0100
0000
1000
0000
0000
,
0001
0000
1000
0000
0000
0100
0000
0001
,
0000
0000
1000
0000
0010
0000
0000
0001
,
0000
0100
0000
0000
1000
0000
0010
0000
,
0000
0100
0000
0001
0000
0000
0010
0000
,
1000
0000
0000
0100
0000
0001
0000
0000
,
0010
0000
1000
0000
0000
0001
0000
1000
,
0000
0010
0000
0010
,
0000
0100
0000
0000
0020
0000
0030
0000
,
1001
0010
0100
0000
,
0010
1000
0001
0000
,
1000
0100
0001
0000
,
1000
0100
0001
0000
,
1001
0000
0010
0001
,
0100
0000
1000
0100
,
0001
0000
1000
0001
,
0100
1000
0010
0000
,
0002
0003
0100
0010
,
0010
1000
0100
0010
,
0200
1300
0100
0001
,
0000
1000
0100
0010
,
0001
0100
1000
0010
,
0001
1000
0100
0001
,
0010
1000
0100
0010
,
0001
0200
0000
0000
,
0300
0000
0000
0000
1000
0000
0000
0100
0000
0000
0000
0001
0000
0000
0000
0000
,
0000
0000
1000
0000
0000
0100
0000
0000
0000
0010
0000
0000
0000
0000
0001
0000
,
0000
1000
0000
0000
0000
0001
0000
0000
0100
0000
0000
0000
0001
0000
0000
0000
,
0010
0000
0000
0100
0000
0000
1000
0000
0000
0001
0000
0000
0000
1000
0000
0000
,
0000
0000
0000
0000
0001
0000
0000
1000
0000
0000
0000
0100
0000
0000
0000
0000
,
0000
0000
0100
0000
0000
0000
0000
0001
0000
0000
0000
1000
0000
0000
0001
0000
,
0010
0100
0010
0000
;

//--------------- dance-single - ----------------
#NOTES:
     dance-single:
     :
     Medium:
     9:
     0,0,0,0,0:
0000
0000
0000
0000
,
0000
0000
0000
0000
,
0000
0000
0000
0000
,
0000
0000
0000
0000
,
0000
0000
0000
0000
,
0000
0000
0000
0000
,
0000
0000
0000
0000
,
0000
0000
0000
0000
0000
0000
0000
0000
0001
0000
0000
0010
0000
1000
0000
0010
,
0000
0000
0100
0000
0000
0000
0001
0000
0000
1000
0000
0000
0000
0001
0000
0000
,
1000
0000
0100
0000
0000
0001
0000
0000
0000
1000
0000
0000
0000
0100
0000
0000
,
0001
0000
0000
1000
0000
0000
0001
0000
0010
0000
1000
0000
0000
0001
0000
0100
,
0000
1000
0000
0000
0001
0000
0000
0000
1000
0000
0000
0100
0000
1000
0000
0100
,
0000
0000
0010
0000
0001
0000
0000
1000
0000
0100
0000
0001
0000
0000
0000
1000
,
0000
0000
0001
0000
0000
0010
0000
0000
0100
0000
0000
0010
0000
0000
1001
0000
,
0000
0100
0000
0000
0001
0000
0010
0000
1000
0000
0000
0001
0000
0000
0100
0000
,
1000
0000
0001
0000
0000
0100
0000
0000
1000
0000
0001
0000
1000
0000
0000
0100
,
0000
0000
0001
0000
0010
0000
1000
0000
0000
0010
0000
0000
0001
0000
0000
0000
,
0100
0001
0100
1000
0010
0001
0100
0001
,
1000
0000
0010
0000
0001
0000
0000
1000
0000
0001
0000
1000
0000
0000
0100
0000
,
0001
1000
0000
0001
0000
0100
0000
0000
1000
0000
0000
0000
0010
0000
0000
0100
,
0000
0000
0000
0001
0000
0000
0010
0000
1000
0000
0000
0100
0000
0010
0000
0001
,
0000
0000
0000
0010
0000
0000
1000
0000
0000
0001
0000
0010
0000
1000
0000
0000
,
0100
0000
0001
0000
0000
1000
0000
0010
0000
0001
0000
0000
0010
0000
0100
0000
,
1000
0000
0000
0001
0000
1000
0000
0100
0000
0000
0001
0000
0010
0000
0000
1000
,
0000
0010
0000
0001
0000
0000
0000
0010
0000
0000
0100
0000
0000
0011
0000
0000
,
0000
1010
0000
0000
0100
0000
0001
0000
0010
0000
0000
0000
0100
0000
0000
0000
,
1000
0010
0100
0000
1000
0001
0010
0001
,
0100
0000
1000
0000
0010
0000
0000
0100
0000
0000
0001
0000
0000
0010
0000
0000
,
1000
0000
0000
0001
0000
0000
0100
0000
0000
0000
1001
0000
0000
0000
0100
0000
,
0001
0000
0010
0000
1000
0000
0000
0001
0000
0000
0100
0000
0010
0000
0001
0000
,
0000
0100
0000
0000
1000
0000
0100
0000
0010
0000
0000
1000
0000
0000
0001
0000
,
0010
0000
0100
0000
0000
0001
0000
0100
1000
0000
0001
0000
0010
0000
0000
1000
,
0000
0000
0100
0000
0010
0000
0001
0000
0000
1000
0000
0000
0010
0000
0001
0000
,
1000
0000
0000
0010
0000
0000
0100
0000
1000
0000
0001
0000
0000
1000
0000
0000
,
0010
0000
0001
0000
1000
0000
0000
0100
0000
0000
0001
0000
0100
0000
1000
0000
,
0000
1000
0000
0000
0010
0000
0001
0000
1000
0000
0000
0000
0010
0000
0000
1000
,
0000
0000
0100
0000
0000
0001
0000
0000
0020
0000
0000
0000
0030
0000
0000
0000
,
1001
0000
0010
0001
0100
0000
1000
0000
,
0010
0100
1000
0010
0001
0000
0010
0000
,
1001
0000
0100
1000
0001
0010
0100
0000
,
1000
0001
0100
1000
0001
0000
0100
0000
,
1001
0000
0100
1000
0010
0000
0001
1000
,
0100
0000
0001
0000
1000
0001
0100
0000
,
0001
0100
0001
0100
1000
0010
0001
0000
,
0100
0001
1000
0100
0010
1000
0010
0000
,
1002
0000
0103
0000
0100
1000
0010
0000
,
0010
0001
1000
0001
0100
0000
0010
1000
,
0200
0000
1300
0001
0100
0000
0001
1000
,
0001
0000
1000
0001
0100
1000
0010
0100
,
0001
1000
0100
0000
1000
0001
0010
0000
,
0001
0100
1000
0000
0100
1000
0001
0000
,
0010
0100
1000
0000
0100
0001
0010
1000
,
0001
0010
0200
0000
0000
0000
0000
0000
,
0301
0000
0000
0000
1000
0000
0000
0100
0000
0010
0000
0001
0000
0000
0100
0000
,
0000
0000
1000
0000
0000
0100
0000
1000
0000
0010
0000
0000
1000
0000
0001
0000
,
0000
1000
0000
0010
0000
0001
0000
0000
0100
0000
0000
0000
0001
0000
1000
0000
,
0010
0000
0000
0100
0000
0000
1000
0000
0000
0001
0000
0010
0000
1000
0000
0000
,
0010
0000
0100
0000
0001
0000
0000
1000
0000
0010
0000
0100
0000
0000
0001
0000
,
0100
0000
0000
0001
0000
1000
0000
0001
0000
0000
0000
1000
0000
0000
0001
0000
,
0010
1000
0100
1000
0010
0000
0000
0000
;

//--------------- dance-single - ----------------
#NOTES:
     dance-single:
     :
     Hard:
     14:
     0,0,0,0,0:
0000
0000
0000
0000
,
0000
0000
0000
0000
,
0000
0000
0000
0000
,
0000
0000
0000
0000
,
0000
0000
0000
0000
,
0000
0000
0000
0000
,
0000
0000
0000
0000
,
0000
0000
0000
0000
0000
0000
0000
0000
1000
0000
0001
1000
0000
0010
0000
0100
,
0000
0000
0001
0000
1000
0001
0010
0000
0000
0100
0000
1000
0000
0001
0000
0000
,
1000
0100
0010
0000
0000
1000
0000
0001
0000
1000
0000
0000
0010
0001
1000
0000
,
0001
0000
0100
0000
0010
0000
1000
0000
0001
0000
0100
0000
0000
1000
0000
0001
,
0000
1000
0000
0001
0010
0000
1000
0000
0001
0100
0000
1000
0000
0001
0000
0010
,
0000
0000
1000
0000
0001
0000
0100
0010
0100
1000
0000
0002
0000
0000
0000
1003
,
0000
0100
0001
0000
0010
0000
0001
0000
0100
0000
0010
0000
1000
0000
0002
0000
,
0000
0100
0000
1003
0100
0020
0000
0100
,
0000
1030
0100
0020
0000
0001
0000
1000
,
0100
0032
0000
0100
0000
1003
0100
0010
,
0100
1000
0000
0001
0010
0100
0010
1000
,
0010
0001
0100
1000
0001
0100
0010
0100
,
1000
0001
0000
1000
0000
0001
0000
1000
0001
0000
0010
0100
1000
0000
0001
0100
,
0000
0001
0000
0100
0000
0001
0010
0000
1000
0000
0001
0010
0000
1000
0000
0001
,
0000
1000
0001
0000
0010
0000
0100
0000
0000
1000
0000
0001
0000
0100
0000
0000
,
0010
0001
1000
0010
0000
0001
0000
0100
0000
1000
0000
0001
0010
0000
1000
0000
,
0001
0100
0000
1000
0000
0001
0000
0010
0000
0000
1000
0001
0000
1000
0000
0001
,
0000
0100
0000
0010
0000
1000
0001
0100
0010
0000
1000
0000
0001
0100
0000
1000
,
0000
0001
0000
0010
0100
0000
2000
0000
0000
0001
0000
0000
3100
0000
0001
0000
,
0200
0000
0000
1000
0000
0000
0301
0000
0010
0000
0100
0000
0000
1000
0000
0001
,
1000
0000
0000
0010
0000
1000
0000
0100
0000
0001
0000
0100
0000
0010
0100
1000
,
0001
0000
0000
0100
0000
0000
0001
0000
1000
0000
0001
0010
0000
1000
0000
0001
,
0100
0000
0010
0000
1000
0000
0000
0001
0000
1000
0100
0000
0010
0000
0100
0010
,
0000
1000
0000
0001
0100
1000
0000
0010
0100
0000
0000
1000
0000
0010
0001
0000
,
1000
0000
0001
0000
0000
1000
0000
0001
0100
0000
0010
0000
1000
0000
0000
0001
,
0000
0000
0100
0000
0001
0100
1000
0000
0000
0001
0000
1000
0001
0000
0010
0000
,
0100
0000
0000
0001
0000
0000
0100
0000
1000
0000
0010
0000
0000
1000
0000
0100
,
0001
0000
1000
0000
0001
0000
0000
0010
0000
1000
0100
0000
0001
0000
0010
0000
,
0000
0100
0000
1000
0002
0000
0000
0000
1003
0000
0010
0100
1000
0010
0000
0001
,
1000
0000
0001
1000
0000
0100
0001
0000
0010
0100
2000
0000
3000
0000
0010
0000
,
0001
0000
0100
0000
0010
0000
0100
0010
0001
0000
1000
0000
0001
0000
1000
0000
,
0100
0000
0010
0000
0001
0000
0010
0000
0100
0000
0010
1000
0100
0000
1000
0000
,
0100
0000
0010
0000
0001
0000
1000
0001
0100
0000
0010
0000
0100
0000
1000
0000
,
0010
0000
0100
0000
0010
0000
1000
0100
0010
0000
0100
0000
0001
0000
0010
0000
,
0100
0000
0010
0000
0001
0000
0010
1000
0001
0000
0100
0000
0001
0000
0100
0000
,
0010
0000
1000
0000
0010
0000
0100
0001
0010
0000
0100
0000
0001
0000
0010
0000
,
0100
0000
1000
0000
0100
0000
0010
1000
0001
0000
0100
0000
0001
0000
1000
0000
,
0100
0000
1000
0000
0001
0000
1000
0100
0010
0000
0100
0000
0001
0000
0100
0000
,
2001
0000
0000
0000
3001
0000
0010
0000
0100
0000
0010
0000
1000
0000
0100
0001
,
1000
0000
0001
0000
1000
0000
0100
0000
0010
0000
0001
0010
0100
0000
0010
0000
,
1002
0000
0000
0000
1003
0000
0001
0000
0010
0000
0001
0100
1000
0000
0001
0000
,
1000
0000
0100
0000
1000
0000
0010
0000
0100
0000
0010
0001
1000
0000
0010
0000
,
0100
0000
0001
0000
0010
0000
0100
0000
1000
0000
0010
1000
0100
0000
0010
0000
,
0100
0000
0001
0000
0010
0000
0001
0000
0100
0000
0001
0010
0100
0000
0010
0000
,
0100
0000
0010
0000
1000
0000
0010
0000
0100
0000
0001
0100
1000
0000
0001
0000
,
0100
0010
2020
3030
0202
0303
2020
3030
,
1001
0000
0000
0000
0001
0000
1000
0001
0000
0100
0000
0010
0000
0000
1000
0000
,
0001
1000
0100
0000
0000
0010
0000
0001
0000
1000
0000
0000
0001
0010
0100
0000
,
0000
0001
0000
1000
0000
0001
0000
0000
0100
1000
0001
0000
1000
0000
0010
0000
,
0100
0000
0001
0000
1000
0000
0010
0000
0000
0001
0000
1000
0000
0001
0000
1000
,
0100
0000
0001
0000
1000
0010
0000
0001
0000
1000
0000
0100
0000
0000
0001
0000
,
1000
0000
0000
0010
0000
1000
0000
0001
0000
0100
0001
1000
0100
0000
0001
0000
,
1000
0100
0010
0001
0100
0000
0000
0000
;
