#TITLE:最果の魔法使い;
#ARTIST:Halv;
#TITLETRANSLIT:Saihate no mahou tsukai;
#GENRE:ナムコオリジナル;
#MUSIC:Saihate no mahou tsukai.ogg;
#BANNER:Saihate no mahou tsukai.png;
#BACKGROUND:Saihate no mahou tsukai-bg.png;
#CDTITLE:./CDTitles/NSD A3.png;
#SAMPLESTART:51.423;
#SAMPLELENGTH:15.000;
#SELECTABLE:YES;
#OFFSET:0.000;
#BPMS:0.000=210.000
,116.000=105.000
,132.000=210.000
,230.000=105.000
,231.000=210.000
,238.000=420.000
,242.000=210.000
,257.000=52.500
,263.000=105.000
,279.000=210.000
,285.000=420.000
,293.000=105.000
,296.000=210.000
;
#STOPS:208.500=0.148
,208.667=0.148
,208.833=0.148
,209.000=0.148
,209.167=0.120
,211.000=0.143
,211.500=0.143
,214.000=0.143
,346.500=0.148
,346.667=0.148
,346.833=0.148
,347.000=0.148
,347.167=0.120
,349.000=0.143
,349.500=0.143
,352.000=0.143
;
#BGCHANGES:;
#FGCHANGES:;

//--------------- dance-single - ----------------
#NOTES:
     dance-single:
     :
     Beginner:
     5:
     0,0,0,0,0:
0000
0000
0000
0000
,
0000
0000
0000
0000
,
0000
0000
0000
0000
,
0000
0000
0000
0000
,
0000
0000
0000
0000
,
0010
0000
0000
0100
0000
0000
0010
0000
,
0000
0100
0000
0000
0000
0000
0000
0000
,
0010
0000
0000
1000
0000
0000
0001
0000
,
0000
1000
0000
0000
0000
0000
0000
0000
,
0001
0000
0000
1000
0000
0000
0001
0000
,
0000
0100
0000
0000
0000
0000
0000
0000
,
0010
0000
0000
0100
0000
0000
1000
0000
,
0000
0001
0000
0000
0000
0000
0000
0000
,
1001
0000
0100
0000
,
0001
1000
0001
0000
,
0100
0000
0010
0000
,
0001
0000
1000
0000
,
0001
0000
0000
1000
0000
0001
0000
1000
,
0000
0000
0000
0000
,
1000
0000
0000
0001
0000
1000
0000
0001
,
0000
0000
0000
0000
,
0100
0000
1000
0000
,
0001
0000
1000
0001
,
0100
0000
0010
0000
,
0100
0000
1000
0000
,
0100
0000
0000
0010
0000
0100
0000
0010
,
0000
0100
0000
0010
0000
0000
0000
0000
,
1000
0000
0000
0001
0000
1000
0000
0001
,
0000
0000
0000
0000
,
2002
0000
0000
0000
,
0000
0000
0000
0000
,
3003
0000
0000
0000
,
0000
0000
0000
0000
,
0100
0000
0010
0000
,
1000
0000
0000
0000
,
0001
0000
1000
0000
,
0001
0000
0010
0000
,
0100
0000
1000
0000
0000
0000
0010
0000
0000
0000
0100
0000
,
0000
0000
1000
0000
0000
0000
0001
0000
0000
0000
0010
0000
,
0000
0000
1000
0000
0000
0000
0100
0000
0000
0000
0001
0000
,
1000
0000
0000
0000
,
1001
0000
0010
0000
,
0100
0000
1000
0000
,
0001
0000
0000
1000
0000
0001
0000
1000
,
0000
0000
0000
0000
,
0010
0000
0100
0000
,
1000
0000
0001
0100
,
0020
0000
0230
0000
,
0320
0000
2030
0000
,
3002
1003
0000
0100
,
0000
0001
0000
1000
,
0100
0001
0000
1000
0000
0001
0000
1000
,
0000
2002
0000
3003
0000
0000
0100
0010
,
0200
0000
0000
0000
0310
0100
0000
0010
,
0000
0000
1000
0000
0000
0000
0001
0000
0000
0000
0100
0000
,
0020
0000
0000
0000
,
0130
1000
0001
0000
,
0100
0000
0010
0100
,
0000
0010
0000
1000
,
0000
0100
0000
0000
,
0000
0000
0010
0000
,
1000
0000
0010
0000
,
0001
0000
0100
0000
,
0010
0000
1000
0002
,
0000
1003
0000
0000
,
0000
0000
0000
1000
,
0000
0000
0000
0001
0000
0000
0000
0000
,
0000
0100
0000
0000
,
0000
0000
0000
0010
,
0000
0000
0000
0200
,
0000
0000
0320
0000
,
0000
0032
0000
0000
,
0000
0023
0000
0000
,
0000
0030
0000
0000
,
0000
0000
0000
1001
,
0000
0000
0000
0000
,
0000
0000
0000
0000
,
1000
0000
0000
0001
0000
0000
1000
0000
0001
0000
0000
0000
0000
0000
1000
0000
,
0000
0000
0001
0000
0000
1000
0000
0000
,
0100
0010
1000
0001
,
0100
0010
1000
0001
,
0100
0000
0010
0000
0100
0000
0000
0010
,
0000
0000
0100
0000
0000
0010
0000
0000
,
0000
0000
0000
1001
,
0100
0010
1000
0001
,
0100
0000
1000
0000
0001
0100
0000
1000
,
0000
0001
0000
0100
0000
0020
0000
0030
,
0000
0000
0100
0010
0100
0000
0000
0000
,
0010
0100
0000
1000
0001
0000
0010
0100
,
0000
1000
0000
0001
0010
0000
1000
0100
,
0000
0010
0000
1000
0001
0000
0010
0000
,
0100
0010
1000
0001
,
0100
0010
0100
0000
,
0000
0000
0000
0000
0000
0000
1000
0000
0010
0000
0000
0000
,
0001
0000
0000
0000
0100
0000
0000
0000
0010
0000
0000
0000
,
0100
0000
0000
0000
0001
0000
0000
0000
0100
0000
0000
0000
,
1000
0000
0000
0000
0001
0000
0000
0000
0100
0000
1000
0000
,
0010
0000
0000
0000
0100
0000
0000
0000
1000
0000
0000
0000
,
0001
0000
0000
0000
0100
0000
0000
0000
0010
0000
0000
0000
,
1000
0000
0000
0000
0001
0000
0000
0000
0100
0000
0000
0000
,
0010
0000
0000
0000
1000
0000
0100
0000
0001
0000
0010
0000
,
0100
0000
1000
0000
0010
0000
1001
0000
0000
0000
0000
0000
;

//--------------- dance-single - ----------------
#NOTES:
     dance-single:
     :
     Easy:
     7:
     0,0,0,0,0:
0000
0000
0000
0000
,
0000
0000
0000
0000
,
0000
0000
0000
0000
,
0000
0000
0000
0000
,
0000
0000
0000
0000
,
0001
0000
0000
1000
0000
0000
0100
0000
,
0000
0010
0000
0000
0200
0000
0000
0000
,
0310
0000
0000
1000
0000
0000
0001
0000
,
0000
0100
0000
0000
0020
0000
0000
0000
,
0130
0000
0000
1000
0000
0000
0001
0000
,
0000
0100
0000
0000
0020
0000
0000
0000
,
0130
0000
0000
1000
0000
0000
0001
0000
,
0000
0100
0000
0000
0000
0000
0000
0000
,
1001
0010
0100
1000
,
0001
0000
0100
0010
,
1000
0001
0100
0010
,
0001
0000
1000
0001
,
0100
1000
0000
0001
0000
0010
0000
0100
,
0000
2000
0000
0000
0000
0000
3000
0000
,
0001
1000
0000
0001
0000
0100
0000
0020
,
0000
0000
0000
0000
,
0130
0000
1000
0000
0001
1000
0100
0000
,
0010
1000
0001
0100
,
0010
0000
1000
0000
0001
0010
0100
0000
,
0010
0100
1000
0001
,
1000
0001
0000
0100
0000
0010
0000
0100
,
0000
1000
0000
0001
0000
0000
0000
0000
,
0100
1000
0000
0001
0000
0100
0000
0020
,
0000
0000
0000
0000
,
0230
0000
0000
0000
,
0302
0000
0000
0000
,
1003
0100
0010
0000
,
0001
1000
0001
0000
,
1000
0100
1100
0000
,
0100
0000
0010
0000
,
0001
0010
0011
0000
,
0100
0000
1010
0000
,
0100
0000
0010
0000
0000
0000
0001
0000
1000
0000
0010
0000
,
0100
0000
0001
0000
0000
0000
1000
0000
0001
0000
0100
0000
,
0010
0000
1000
0000
0001
0000
1000
0000
0001
0000
0100
0000
,
0020
0000
0000
0030
,
1001
0100
0010
1000
,
0001
0100
0010
0100
,
1000
0010
0000
0100
0000
0010
0000
0002
,
0000
1003
0100
0010
,
0001
1000
0001
0100
,
0010
0001
0100
0000
1000
0010
0001
0000
,
0200
0000
0310
0000
,
0020
0000
0130
0000
,
0200
0310
1000
0001
,
0100
0010
1000
0001
,
1000
0001
0000
0100
0000
0010
0000
0100
,
0000
0020
0230
0310
1000
0001
0100
0010
,
1000
0000
0001
0100
0010
0100
0000
1000
,
0001
0000
0010
0000
0000
0000
0100
0000
1000
0000
0000
0001
,
0020
0000
0000
0000
,
0130
1000
0001
0000
,
1000
0001
0100
0010
,
0100
1000
0100
0001
,
1000
0002
0000
0000
,
0000
0000
1003
0100
,
0001
0010
1000
0000
0001
0000
0100
0000
,
0010
0001
0100
0000
0010
0000
1000
0000
,
0001
0010
0100
0000
0010
0000
2000
0000
,
0000
3002
0000
2003
,
3200
0000
0000
0310
,
1000
0001
0000
0100
,
0010
1000
0000
0001
,
0000
1000
0000
0001
,
0010
0100
1000
0001
,
0010
1000
0100
0001
,
0010
0100
0000
0001
,
0000
1000
0000
0001
,
0000
0200
0000
0000
,
0000
0000
0000
0310
,
0000
0000
0000
0000
,
0000
0000
0000
0000
,
0010
0000
0000
0100
0010
0100
0000
0001
,
1000
0000
0001
1000
0000
0010
0100
0000
,
0010
0110
1000
0001
,
0010
0100
0001
1000
,
0001
0000
1000
0000
0010
0000
0100
0010
,
0000
0000
1001
0000
0000
0110
0000
0000
,
0001
0010
0100
1001
,
0001
0100
0001
1000
,
0100
0000
0010
0000
0001
0100
0000
1000
,
0000
0001
0000
0100
0000
0020
0230
0310
,
0001
1000
0100
0010
1000
0000
0001
0100
,
0010
1000
0000
0001
1000
0100
0010
0001
,
0000
1000
0000
0010
1000
0001
0100
0010
,
0000
0001
0000
1000
0001
0000
0100
0000
,
1000
0000
0001
0000
1000
0000
0001
0100
,
0010
1000
0001
0100
0020
0000
0000
0000
,
0000
0000
0000
0000
0000
0000
0130
0000
0100
0000
0000
0000
,
1000
0000
0100
0000
0010
0000
0001
0000
0100
0000
0000
0000
,
1000
0000
0100
0000
0010
0000
0001
0000
1000
0000
0000
0000
,
0010
0000
1000
0000
0001
0000
0100
0000
0010
0000
0100
0000
,
1000
0000
0100
0000
0010
0000
0001
0000
1000
0000
0000
0000
,
0100
0000
0010
0000
0100
0000
1000
0000
0001
0000
0000
0000
,
1000
0000
0100
0000
0001
0000
0100
0000
1000
0000
0001
0000
,
0100
0000
0010
0000
1000
0000
0100
0000
0001
0000
0010
0000
,
0100
0000
1000
0000
0010
0000
1001
0000
0000
0000
0000
0000
;

//--------------- dance-single - ----------------
#NOTES:
     dance-single:
     :
     Medium:
     14:
     0,0,0,0,0:
0000
0000
0000
0000
,
0000
0000
0000
0000
,
0000
0000
0000
0000
,
0000
0000
0000
0000
,
0000
0000
0000
0000
,
0100
0000
0000
0101
0000
0000
0100
0000
,
0000
1100
0000
0000
0100
0000
0010
0000
,
0101
0000
0000
0010
0000
0000
0110
0000
,
0000
1000
0000
0000
0001
0000
1000
0000
,
1001
0000
0000
0100
0000
0000
0110
0000
,
0000
0001
0000
0000
1001
0000
0100
0000
,
1000
0001
0000
0100
0010
0000
1000
0001
,
0000
0100
1000
0000
0002
0000
0000
0000
,
1003
0000
0100
0000
1000
0001
0100
0000
,
0010
0000
0100
0000
1000
0001
0010
0000
,
0100
0000
0001
0000
0100
0010
0001
0000
,
0010
0000
1000
0000
0001
1000
0001
0010
,
0100
1000
0000
0001
0000
1000
0000
0001
,
0000
0010
1000
0001
0100
0010
0100
0010
,
1000
0001
0000
1000
0000
0001
0000
1000
,
0020
0000
0000
0000
,
1030
0000
0100
0000
0001
1000
0001
0000
,
0100
0000
0010
0000
0001
0100
0010
0000
,
1000
0000
0001
0000
0100
0010
0001
0000
,
0010
0000
0100
0000
1000
0001
0010
0000
,
0100
0010
0000
0100
0000
1000
0000
0001
,
0000
0010
0000
0020
0000
0000
0000
0000
,
0031
0100
0000
0010
0000
0110
0000
0100
,
2000
0000
0000
0000
0000
3020
0000
0000
0000
0000
0000
0000
,
2030
3002
0203
0320
,
2030
0000
0000
0000
3002
0000
0000
1000
0103
1000
0000
0000
0002
0000
0000
1000
,
0103
0020
0000
0000
1030
0000
0000
0001
0100
1000
0000
0100
0002
0000
0000
0100
,
1003
0000
0000
1000
0100
0010
0000
1000
0000
0001
0100
1000
0100
0000
1010
0000
,
0101
1000
0100
0001
,
0100
0010
0100
0001
,
1001
0100
0001
0010
,
0100
0001
1000
0001
,
0100
0000
1000
0000
0000
0000
0001
0000
1000
0000
0001
0000
,
0100
0000
0001
0000
0000
0000
1000
0000
0001
0000
1000
0100
,
0001
0000
1000
0000
0010
0000
0100
0000
0001
0000
1000
0000
,
0020
0000
0000
1030
,
0100
1000
0010
0100
0010
1000
0001
0010
,
0001
0010
0100
0010
0100
1000
0100
0010
,
0001
0010
0001
1000
0000
0101
0000
1001
,
0000
0100
1000
0100
1000
0100
0010
0001
,
0100
0010
1000
0100
0010
0001
0010
0100
,
0010
0100
1000
0100
1000
0200
0000
0000
,
0302
0000
1003
0100
,
0002
0000
1003
0100
,
0010
1000
0001
0010
0001
1000
0010
1000
,
0010
1000
0100
0010
0001
0100
0010
1000
,
0100
0010
0001
0100
0001
0100
0001
1000
,
0100
0000
0000
0010
0010
0010
0100
0100
0000
0100
0000
0000
0010
0000
0000
0001
0000
0000
1000
0000
0000
0110
0000
0000
,
0001
1000
0001
0100
0010
0101
0000
1000
,
0001
0000
0010
0000
0100
1000
0001
0000
0010
0000
1000
0001
,
0200
0000
0000
0000
,
0310
1000
0010
0001
,
1000
0001
1200
0310
,
0100
0010
1000
0001
,
0100
0020
0130
0000
,
0000
0000
0000
0000
0001
1000
0100
0010
,
0001
1000
0100
1000
0010
0100
0001
1000
,
0100
0010
0001
0010
0100
0010
0001
1000
,
0100
0000
0000
1000
0000
0000
0001
0000
0000
1000
0000
0000
0001
0000
0000
0010
0000
0000
0100
0000
0000
0000
1000
0000
,
0001
0000
0000
0000
0010
0000
0200
0000
0000
0320
0000
0000
0000
0000
0000
0032
0000
0000
2003
0000
0000
0000
0000
0000
,
3200
0000
0000
0320
0000
0000
0032
0000
0000
2003
0000
0000
3010
0000
1000
0000
,
0100
1000
0001
1000
0010
0100
0010
1000
,
0010
0100
0001
1000
0001
0100
0001
0010
,
0100
1000
0100
1000
0100
0010
0100
0001
,
1000
0100
0010
1000
0001
0100
0010
0000
,
0100
1000
0001
0100
,
0010
1001
0000
0000
,
0000
0110
0000
0000
,
0000
2002
0000
0000
,
0000
0000
0000
3003
,
0000
0000
0000
0000
,
0000
0000
0000
0000
,
0010
0000
0000
0001
0000
0000
1000
0000
0010
0000
0100
0000
0000
0000
0001
0000
,
1000
0000
0010
1000
0000
0001
0100
0000
,
0001
1000
0001
0010
0100
0010
0001
0010
,
0001
0010
0100
1000
0100
1000
0100
0010
,
0001
1000
0001
0100
0001
0010
0100
1000
,
0001
1000
0010
0100
0010
0100
0001
0100
,
0001
0010
0001
1000
0010
0100
0010
1000
,
0100
1000
0100
0010
0001
0010
0001
0010
,
0100
1000
0001
0100
0010
1000
0010
0100
,
0000
0000
0000
1000
0000
0000
0000
0000
0000
0001
0000
0000
0000
0000
0000
0010
0010
0010
0100
0100
0000
0100
0000
0000
,
1000
0001
0100
0110
1000
0001
0100
0010
,
0100
1001
0000
0100
1000
0010
0001
0100
,
0000
0101
0000
0010
1000
0010
0100
0001
,
0000
0000
0000
0110
0000
0000
0000
0000
0000
0001
0000
0000
0100
0000
0000
0000
0001
0000
0010
0000
0000
0000
0100
0000
,
1000
0000
0000
0000
0010
0000
1000
0000
0000
0000
0010
0000
0001
0000
0000
0100
0000
0000
0001
0000
0000
0010
0000
0000
,
0100
1000
0100
1000
0020
0000
0000
0000
,
0000
0000
0000
0000
0000
0000
1030
0000
0001
0000
0100
0000
,
0100
0000
1000
0000
0001
0000
0100
0000
0010
0000
0000
0000
,
0100
0000
0001
0000
0100
0001
1000
0000
0001
0000
0000
0000
,
0100
0000
1000
0000
0010
0000
0001
0000
0100
0000
0001
1000
,
0100
0001
0010
1000
0100
0010
0001
0000
0001
0000
0000
0000
,
0100
1000
0100
1000
0001
0010
0001
1000
0010
0100
0000
0000
,
1000
0000
0001
0100
0010
1000
0001
0000
1000
0000
0001
0000
,
0010
0000
0000
0000
1000
0000
0000
0000
0001
0000
0000
0000
0100
0000
0000
0010
0000
0000
0100
0000
0000
0010
0000
0000
,
0001
0100
0010
0100
1000
0000
0000
0000
;

//--------------- dance-single - ----------------
#NOTES:
     dance-single:
     :
     Hard:
     18:
     0,0,0,0,0:
0000
0000
0000
0000
,
0000
0000
0000
0000
,
0000
0000
0000
0000
,
0000
0000
0000
0000
,
0000
0000
0000
0000
,
1001
0000
0000
0101
0000
0000
1001
0000
,
0000
0000
0110
0000
0000
0000
0000
0000
0001
1000
0001
0100
0010
0000
1000
0000
,
0001
0000
0000
0101
0000
0000
1010
0000
,
0000
0000
0110
0000
0000
0000
0000
0000
0001
1000
0001
0100
0010
0000
1000
0000
,
0001
0100
0010
1000
0001
0100
0010
1000
,
0001
0000
0100
0000
0010
0000
1000
0000
0001
1000
0001
0100
0010
0000
0001
0000
,
1000
0100
0010
0000
0001
0000
1000
0001
0100
0000
0010
0000
1000
0001
0100
1000
,
0010
0000
0000
0100
0000
0000
1000
0000
0000
0001
0000
0000
0100
0000
0000
0010
0000
0000
0001
0000
0000
1000
0000
0000
0100
0000
0000
0000
1000
0000
0000
0000
0010
0000
0000
0000
0100
0000
0000
0000
0001
0000
0000
0000
0010
0000
0000
0000
,
1000
0100
0001
0010
0100
0010
0001
0010
,
0100
1000
0100
1000
0010
0100
0001
0010
,
0001
0010
0100
0010
0001
1000
0001
0100
,
0001
0000
0010
0000
0100
0000
1000
0000
0100
1000
0000
0010
0001
0000
0010
0000
,
1100
1001
0000
0101
0000
1001
0000
0110
,
0000
0000
1000
0001
0100
0000
0010
0000
1000
0001
0100
0000
1000
0000
0100
0000
,
1010
0110
0000
1001
0000
0101
0000
0110
,
0002
0000
0000
0000
1003
0100
0010
0000
1000
0000
0001
0000
0100
0000
0010
0000
,
0001
0000
0010
0000
0001
0000
0100
0000
0010
0000
1000
0000
0010
0000
1000
0010
,
0001
0000
0100
0000
0001
0000
0010
1000
0100
0000
0010
0000
0100
0000
1000
0001
,
0010
0000
1000
0000
0001
0000
0100
0000
0010
0000
0100
0000
0001
0000
0100
1000
,
0001
0000
0010
1000
0001
0000
0100
1000
0010
0000
1000
0001
0100
0000
1000
0000
,
0011
1001
0000
1010
0000
1001
0000
0110
,
0000
0000
0101
0000
0000
0000
0110
0000
0000
1000
0010
0000
0001
0000
0010
0000
,
0101
0110
0000
1001
0000
1010
0000
0110
,
1000
0100
0001
1000
0100
0020
0000
0000
0000
0000
0000
0000
,
2030
3002
0203
0320
,
2030
0000
0000
0000
3002
0000
0000
1000
0103
1000
0000
0000
0002
0000
0000
1000
,
0103
0020
0000
0000
1030
0000
0000
0001
0100
1000
0000
0100
0002
0000
0000
0100
,
1003
0000
0000
1000
0100
0010
0000
1000
0000
0001
0100
1000
0100
0000
1010
0000
,
0101
0100
1100
0100
,
0101
0000
0000
0100
0000
0000
1100
0000
0000
0100
1000
0100
,
0001
0010
1010
0011
,
0010
0000
0000
0011
0000
0000
0010
1000
0001
0100
0010
1000
,
2001
0000
0001
3000
0100
0010
0002
0000
1000
0000
0100
0000
,
0013
0000
1000
0000
0000
0000
0101
0000
0110
0000
1000
0001
,
0100
0010
0100
1000
0001
0010
0100
1000
0001
0100
0010
0100
,
2000
0000
0000
3001
,
0001
0000
0010
1000
0001
0000
0010
0001
0100
1000
0010
0000
0100
0000
1000
0000
,
0100
1000
0010
0100
0001
1000
0010
0000
0001
0000
1000
0100
0010
0000
0100
0001
,
0010
0000
1000
0100
0010
0000
1001
0000
0000
0000
0101
0000
0000
0000
0110
0000
,
0000
0000
1000
0000
0001
0010
0100
1000
0001
0100
0010
0100
1000
0000
0100
0000
,
0010
0000
0100
1000
0010
0000
0001
0000
0010
1000
0001
0010
0100
0000
0010
0000
,
1000
0000
0010
1000
0100
0010
0001
0000
0100
0000
0010
0100
1000
0100
0001
0010
,
0100
0001
0010
0100
0001
1000
0001
0100
0010
0100
1000
0001
,
0100
1000
0001
0100
0010
0100
0010
0001
0010
0100
1000
0001
,
0010
0100
1000
0001
0100
0000
0010
0000
0001
0100
0010
1000
0100
0000
0010
0000
,
0001
0000
1000
0000
0100
0000
0010
0000
0100
0000
0010
0000
0100
0001
1000
0100
,
0010
0001
0100
0010
1000
0000
1001
0000
0000
0000
0110
0000
0000
0000
1001
0000
,
0000
0000
0000
1000
1000
0001
0001
0001
0000
0100
0000
0000
0001
0000
0000
1000
0000
0000
0110
0000
0000
1001
0000
0000
,
0001
0000
0010
0000
0100
0001
1000
0000
0101
0000
1001
0000
0000
0000
0100
0000
,
0001
0000
1000
0000
0001
0010
0100
0000
1000
0000
0001
0010
,
0100
0000
0000
0000
0010
0000
0000
0000
0100
0000
0000
0000
0001
0000
0000
0000
1000
0000
0000
0000
0100
0000
0000
0000
0010
0000
0000
0000
0100
0000
0000
0000
0001
0000
0000
0000
1000
0000
0000
0100
0000
0000
0010
0000
0000
1000
0000
0000
,
0001
0010
0001
0010
0001
0100
0010
1000
,
0100
1000
0010
1000
0200
0000
0310
0100
,
0010
0100
0010
0001
1000
0100
1000
0001
,
1000
0010
0100
0010
0100
0001
0010
0001
,
1000
0000
0100
0000
1000
0000
0100
0000
1000
0100
0020
0000
1030
0100
0020
0000
,
0031
0100
0010
0000
1010
0000
0100
0000
0011
0000
1000
0000
0101
0000
0010
1000
,
0001
0000
0100
0000
0001
0010
0100
0010
2000
0000
3020
0000
0031
0100
0010
0100
,
2000
0000
3200
0000
0310
1000
0010
0001
0020
0000
2030
0000
3100
0001
0100
0010
,
0200
2300
3200
0320
0000
0032
2003
0000
,
3200
0000
0000
0320
0000
0000
0032
0000
0000
2003
0000
0000
3010
0000
1000
0000
,
0100
1000
0001
1000
0010
0100
0010
1000
,
0010
0100
0001
1000
0001
0100
0001
0010
,
0100
0000
0000
1000
0000
0000
0100
0000
0000
1000
0000
0000
0100
0000
0000
0010
0000
0000
0010
0000
1000
0000
0100
0000
,
0010
0000
0000
0000
0100
0000
0000
0000
0010
0000
0000
0000
0100
0000
0000
0000
1000
0000
0000
0000
0010
0000
0000
0000
1000
0000
0000
0000
0010
0000
0000
0000
1000
0000
0000
0000
0001
0000
0000
0010
0000
0000
0100
0000
0000
1000
0000
0000
,
0001
0100
0001
1000
0100
0010
0001
0010
0100
1000
0010
1000
0001
1000
0100
0010
,
0001
1000
0010
1000
0001
1000
0001
1000
0100
0010
0001
0010
0001
1000
0100
1000
,
0001
0100
0001
0100
0001
0010
0100
0010
0001
1000
0001
0010
0100
0010
0001
1000
,
0100
1000
0100
0010
0001
1000
0001
0100
0010
0000
1000
0001
0100
0010
0100
0000
,
1000
0001
0100
0010
1000
0000
2002
0000
,
0000
0000
3003
0000
,
0000
0000
0000
0000
,
0110
0000
0000
1001
0000
0000
0110
0000
0100
0000
0010
1000
0100
0000
1000
0000
,
0001
0100
1000
0000
0010
0000
0100
0001
0010
0000
0100
0010
0001
0000
1000
0001
,
0100
1000
0010
0100
0001
0010
0100
1000
0200
0000
0302
0000
2003
0000
3010
0100
,
0002
0000
2003
0000
3020
0000
0031
0100
2000
0000
3002
0000
0023
0000
1030
0100
,
0020
0000
2030
0000
3002
0000
0103
1000
0020
0000
0230
0000
2300
0000
3001
0010
,
2000
0000
3200
0000
0302
0000
1003
0010
0200
0000
0302
0000
2003
0000
3010
0001
,
0100
0001
0100
0001
1000
0100
1000
0100
2000
0000
3020
0000
0032
0000
1003
0100
,
0020
0000
2030
0000
3002
0000
1003
0100
0020
0000
0230
0000
2300
0000
3001
0100
,
0010
1000
0100
0010
0001
0100
0020
0000
0031
0010
0200
0000
0300
0000
1001
0000
,
0000
0000
0000
0101
0000
0000
0000
0000
0000
1001
0000
0000
0000
0000
0000
1000
1000
1000
0001
0001
0000
0001
0000
0000
,
0100
1000
0001
0000
0110
0000
1001
0000
0100
0000
0010
0000
1000
0001
0100
0000
,
0010
0000
1001
0000
0000
0000
1000
0000
0001
1000
0001
0100
0010
0000
1000
0000
,
0000
0000
0101
0000
0000
0000
1000
0000
0001
0010
0100
1000
0001
0100
0010
0100
,
1000
0000
0000
0101
0000
0000
0000
0000
0000
1001
0000
0000
0100
0000
0001
0000
0100
0000
1000
0000
0001
0000
0100
0000
,
0010
0000
0000
0000
1000
0000
0000
0000
0100
0000
0000
0000
0010
0000
0000
0000
0100
0000
0000
0000
0001
0000
0000
0000
1000
0000
0000
0100
0000
0000
0010
0000
0000
0001
0000
0000
1000
0000
0000
0010
0000
0000
0100
0000
0000
0001
0000
0000
,
1000
0100
0001
0010
0100
1000
0001
0100
0020
0000
0000
0000
0000
0000
0000
0000
,
0000
0000
0000
0000
0000
0000
1030
0000
1001
0000
0100
0010
,
0100
0000
1000
0000
0001
0000
0100
0000
0010
0000
1000
0001
,
0100
0000
0001
0000
0100
0001
1000
0000
0001
1000
0100
0001
,
0100
1000
0100
1000
0100
0010
0001
0100
0001
0100
0001
0010
,
0100
0010
0100
1000
0001
1000
0001
0010
0001
0010
0100
0010
,
0100
1000
0100
1000
0001
0010
0001
1000
0010
0100
0001
0100
,
0010
1000
0100
0010
0001
0100
0001
0010
0100
0010
0001
0010
,
0010
0100
0001
0100
0001
1000
0010
1000
0010
1000
0001
0100
0010
0100
0001
0100
,
0010
0100
1000
0001
0010
0100
0001
1000
0010
0100
0010
0001
0100
1000
0001
0010
0200
0000
0000
0000
0000
0000
0000
0000
0000
0000
0000
0000
0000
0000
0000
0000
,
0000
0000
0000
0000
,
0000
0000
0300
0000
;

//--------------- dance-single - ----------------
#NOTES:
     dance-single:
     :
     Challenge:
     19:
     0,0,0,0,0:
0000
0000
0000
0000
,
0000
0000
0000
0000
,
0000
0000
0000
0000
,
0000
0000
0000
0000
,
0000
0000
0000
0000
,
1001
1001
0000
1010
1010
0000
1001
1001
,
0000
0000
0110
0000
0110
0000
0000
0000
1000
0001
1000
0010
0100
0000
0001
0000
,
1100
1100
0000
1010
1010
0000
0101
0101
,
0000
0000
0110
0000
0110
0000
0000
0000
1000
0001
1000
0010
0100
0000
0001
0000
,
0010
1000
0100
0001
1000
0010
0100
0001
,
1000
0000
0010
0000
0100
0000
0001
0000
1000
0001
1000
0010
0100
0000
1000
0000
,
0100
0001
1000
0100
1000
0010
0100
0010
0100
0001
0100
0001
1000
0100
0010
0100
,
1000
0000
0000
0001
0000
0000
0100
0000
0000
0010
0000
0000
1000
0000
0000
0001
0000
0000
1000
0000
0000
0101
0000
0000
0010
0000
0000
0000
0001
0000
0000
0000
0100
0000
0000
0000
0010
0000
0000
0000
1000
0000
0000
0000
0100
0000
0000
0000
,
0001
1000
0010
0000
1000
0000
0100
0001
0010
0000
0100
0000
1000
0001
0100
0000
,
0010
1000
0001
0000
0010
0100
0001
0000
0100
0000
0010
0000
1000
0000
0100
0000
,
1000
0001
0100
0000
0010
0000
0100
0010
1000
0000
0001
0000
1000
0100
0010
0000
,
1000
0001
0100
0000
0010
1000
0001
0000
0010
0001
0010
0100
1000
0000
0100
0000
,
0011
1001
1010
1010
1001
1001
0101
0110
,
0000
0000
0001
1000
0010
0000
0100
0000
0001
1000
0010
0000
0001
0000
0010
0000
,
0101
0110
1001
1001
1010
1010
0110
0110
,
2000
0000
0000
0000
3001
0010
0100
0000
0001
0000
1000
0000
0010
0000
0100
0000
,
1000
0001
0100
0000
1000
0000
0010
0001
0100
0000
0001
0000
0100
0000
0001
0100
,
1000
0000
0010
0000
1000
0000
0100
0001
0010
0000
0100
1000
0010
0000
0001
1000
,
0100
0000
0001
0000
1000
0000
0010
1000
0100
0000
0010
0000
1000
0100
0010
0001
,
1000
0000
0100
0001
1000
0000
0010
0001
0100
0000
0001
1000
0010
0000
0001
0000
,
1100
1001
0101
0101
1001
1001
0101
0110
,
1010
0000
1010
0000
0110
0000
0110
0000
0000
0001
0100
0000
1000
0000
0100
0000
,
1010
0110
0101
1001
0110
0101
1001
0110
,
0001
0010
1000
0001
0010
0200
0000
0000
0000
0000
0000
0000
,
0302
0000
2003
0000
3020
1000
0230
0000
,
0302
0000
0000
0000
2003
0000
0100
0001
3010
0001
0000
0000
2000
0000
0100
0001
,
3010
0200
0000
0000
0301
0000
0000
1000
0010
0001
0000
0010
2000
0000
0100
0010
,
3001
0000
0000
0001
0010
0100
0000
0001
0000
1000
0010
0001
0010
0000
0101
0000
,
1010
0010
0011
0010
,
1010
0000
0000
0010
0000
0000
0011
0000
0000
0010
0001
0010
,
1000
0100
0101
1100
,
0100
0000
0000
1100
0000
0000
0100
0001
1000
0010
0100
0001
,
1002
0000
1000
0003
0010
0100
2000
0000
0001
0000
0010
0000
,
3100
0000
0001
1000
0100
0010
1010
0000
0110
0000
0001
1000
,
0010
0100
0010
0001
1000
0100
0010
0001
1000
0010
0100
0010
,
0002
0000
0000
1003
,
1000
0000
0100
0001
1000
0010
0100
1000
0010
0001
0100
1000
0010
0000
0001
1000
,
0010
0001
0100
0010
1000
0001
0100
0000
1000
0100
0001
0010
0100
0000
0010
1000
,
0100
0000
0001
0010
0100
0000
1001
0000
0000
0000
1010
0000
0000
0000
0110
0000
,
0000
0000
0001
0000
1000
0100
0010
0001
1000
0010
0100
0010
0001
0000
0010
1000
,
0100
0000
0010
0001
0100
0000
1000
0010
0100
0001
1000
0100
0010
0000
0100
0000
,
0001
1000
0100
0001
0010
0100
1000
0100
0010
0000
0100
0010
0001
0010
1000
0100
,
0010
1000
0100
0010
1000
0001
1000
0010
0100
0010
0001
1000
,
0010
0001
1000
0010
0100
0010
0100
1000
0100
0010
0001
1000
,
0100
0010
0001
1000
0010
0001
0100
0000
1000
0010
0100
0001
0010
0000
0100
0010
,
1000
0000
0001
1000
0010
0000
0100
0001
0010
0000
0100
0001
0010
1000
0001
0010
,
0100
1000
0010
0100
0001
0000
2002
0000
3003
0000
0220
0000
0330
0000
2002
0000
,
3003
0000
0000
0000
0000
0000
0001
0000
0001
0000
1000
0000
1000
0000
1000
0000
0000
0000
0010
0000
0000
0000
0000
0000
1000
0000
0000
0010
0000
0000
0001
0000
0000
0000
0000
0000
0110
0000
0000
0000
0000
0000
1001
0000
0000
0000
0000
0000
,
1000
0000
0100
0001
0010
1000
0001
0000
1010
0000
1001
0000
0100
0000
0010
0000
,
1000
0000
0001
0000
1000
0100
0010
0000
0001
0000
1000
0100
,
0010
0000
0000
0000
0000
0000
0000
0000
0100
0000
0000
0000
0000
0000
0000
0000
0010
0000
0000
0000
0000
0000
0000
0000
1000
0000
0000
0000
0000
0000
0000
0000
0001
0000
0000
0000
0000
0000
0000
0000
0010
0000
0000
0000
0000
0000
0000
0000
0100
0000
0000
0000
0000
0000
0000
0000
0010
0000
0000
0000
0000
0000
0000
0000
1000
0000
0000
0000
0000
0000
0000
0000
0001
0000
0000
0000
0000
0000
0010
0000
0000
0000
0000
0000
0100
0000
0000
1000
0000
0000
0001
0000
0000
0010
0000
0000
,
1000
0000
0100
0001
1000
0000
0100
0001
1000
0000
0010
1000
0100
0000
0001
0000
,
0010
0000
0001
0000
0100
0000
0001
0000
0020
0000
1000
0000
0130
0000
0010
0001
,
0100
0000
0010
1000
0100
0000
1000
0010
0001
0000
0010
0100
0001
0000
1000
0000
,
0001
0010
0100
0000
0010
0000
0100
0000
0010
0000
1000
0000
0100
0000
1000
0000
,
0001
0000
0010
0000
0001
0000
0010
0000
0001
0010
0200
0000
0301
0010
0200
0000
,
1300
0010
0100
0000
0101
0000
0010
0000
1100
0000
0001
0000
1010
0000
0100
0001
,
1000
0000
0010
0000
1000
0100
0010
0100
0002
0000
0203
0000
1300
0010
0100
0010
,
0002
0000
0023
0000
0130
0001
0100
1000
0200
0000
0302
0000
0013
1000
0010
0100
,
0020
0000
0032
0000
0023
0000
0230
0000
0000
0010
2300
0100
3002
0010
0000
0000
,
0023
0000
1000
0230
0000
0001
2300
0010
0100
3002
0000
0000
0103
0000
0001
1000
,
0010
0000
0001
0000
1000
0100
0001
0010
0100
1000
0010
0001
0100
0000
0001
0010
,
0100
0000
0010
0100
1000
0010
0001
0100
1000
0001
0010
0100
1000
0001
0100
1000
,
0010
0000
0000
0000
0000
0000
1000
0000
0000
0000
0000
0000
0001
0000
0000
0000
0000
0000
0100
0000
0000
0000
0000
0000
0010
0000
0000
0000
0000
0000
1000
0000
0000
0000
0000
0000
0001
0000
0000
0000
0000
0000
1000
0000
0000
0100
0000
0000
0010
0000
0000
0000
0000
0000
0001
0000
0000
0010
0000
0000
0100
0000
0000
0000
0000
0000
1000
0000
0000
0000
0000
0000
0100
0000
0000
0000
0010
0000
0000
0000
0001
0000
0000
0000
1000
0000
0000
0000
0010
0000
0000
0000
0001
0000
0000
0000
,
0100
0000
1000
0000
0010
0000
0001
0000
0100
0000
1000
0000
0010
0000
1000
0000
0001
0000
0010
0000
0100
0000
1000
0000
0001
0000
0010
0000
0100
0000
1000
0000
0001
0000
0100
0000
1000
0000
0000
0100
0000
0000
0010
0000
0000
0001
0000
0000
,
1000
0010
1000
0001
0010
0100
1000
0100
0010
0001
0100
0001
1000
0001
0010
0100
,
1000
0001
0100
0001
1000
0001
1000
0001
0010
0100
1000
0100
1000
0001
0010
0001
,
1000
0010
1000
0010
1000
0100
0010
0100
1000
0001
1000
0100
0010
0100
1000
0001
,
0010
0001
0010
0100
1000
0001
1000
0010
0100
0000
0001
1000
0010
0100
0010
0000
,
0001
1000
0010
0100
0001
0000
2002
0000
,
0000
0000
0000
0000
0000
0000
3003
0000
1000
0001
0100
0010
0000
0000
1000
0100
,
0010
0001
0000
0010
0100
0010
0100
0001
1000
0010
1000
0100
0010
0001
0010
0100
,
1000
0000
0000
1001
0000
0000
0110
0000
0010
0000
0100
0001
0010
0000
0001
0000
,
1000
0010
0001
0000
0100
0000
0010
1000
0100
0000
0010
0100
1000
0000
0001
1000
,
0010
0001
0100
0010
1000
0100
0010
0001
0020
0000
2030
0000
3002
0000
0103
0010
,
2000
0000
3002
0000
0203
0000
1300
0010
0002
0000
2003
0000
3200
0000
0301
0010
,
0200
0000
0302
0000
2003
0000
3010
0001
0200
0000
0320
0000
0032
0000
1003
0100
,
0002
0000
0023
0000
2030
0000
3001
0100
0020
0000
2030
0000
3002
0000
0103
1000
,
0010
1000
0010
1000
0001
0010
0001
0010
0001
0000
0010
0000
0100
1000
0001
1000
,
0010
0100
0001
1000
0010
1000
0001
0100
0001
1000
0001
1000
0100
0010
1000
0010
,
0100
0001
0010
0100
1000
0010
0200
0000
1300
0100
0020
0000
0030
0000
1001
0000
,
0000
0000
0000
1010
0000
0000
0000
0000
0000
1001
0000
0000
0000
0000
0000
0001
0001
0001
1000
1000
0000
1000
0000
0000
,
0010
0001
1000
0000
0110
0000
1001
0000
0010
0000
0100
0010
0001
1000
0010
0000
,
0100
0000
1001
0000
0000
0000
0001
0000
1000
0001
1000
0010
0100
0000
0001
0000
,
1000
0000
1010
0000
0000
0000
0001
0000
1000
0100
0010
0001
1000
0010
0100
0010
,
0001
0000
0000
1010
0000
0000
0000
0000
0000
1001
0000
0000
0010
0000
1000
0000
0010
0000
0001
0000
1000
0000
0010
0000
,
0100
0000
0000
0000
0001
0000
0000
0000
0010
0000
0000
0000
0100
0000
0000
0000
0010
0000
0000
0000
1000
0000
0000
0000
0001
0000
0000
0010
0000
0000
0100
0000
0000
1000
0000
0000
0001
0000
0000
0100
0000
0000
0010
0000
0000
1000
0000
0000
,
0001
0010
1000
0100
0010
0001
1000
0010
0200
0000
0000
0000
0000
0000
0000
0000
,
0000
0000
0000
0000
0000
0000
0301
0000
1001
0000
0010
0100
,
0010
0000
0001
0000
1000
0000
0010
0000
0100
0000
0001
1000
,
0010
0000
1000
0000
0010
1000
0001
0000
1000
0001
0010
1000
,
0010
0001
0010
0001
0010
0100
1000
0010
1000
0010
1000
0100
,
0010
0100
0010
0001
1000
0001
1000
0100
1000
0100
0010
0100
,
0010
0001
0010
0001
1000
0100
1000
0001
0100
0010
1000
0010
,
0100
0001
0010
0100
1000
0010
1000
0100
0010
0100
1000
0100
,
0100
0010
1000
0010
1000
0001
0100
0001
0100
0001
1000
0010
0100
0010
1000
0010
,
0100
0010
0001
1000
0100
0010
1000
0001
0100
0010
0100
1000
0010
0001
1000
0100
0020
0000
0000
0000
0000
0000
0000
0000
0000
0000
0000
0000
0000
0000
0000
0000
,
0000
0000
0000
0000
,
0000
0000
0030
0000
;
