#TITLE:最果ての恋;
#ARTIST:NAMCO Sound Team "AJURIKA UNDERGROUND feat. Kuroa";
#TITLETRANSLIT:Saihate no Koi;
#GENRE:ナムコオリジナル;
#MUSIC:Saihate no Koi.ogg;
#BANNER:Saihate no Koi.png;
#BACKGROUND:Saihate no Koi-bg.png;
#CDTITLE:./CDTitles/NSD A3.png;
#SAMPLESTART:45.399;
#SAMPLELENGTH:15.000;
#SELECTABLE:YES;
#OFFSET:0.000;
#BPMS:0.000=185.000
,40.000=92.500
,48.000=185.000
,96.000=92.500
,104.000=46.250
,106.000=185.000
,179.000=92.500
,212.000=185.000
;
#STOPS:114.000=0.973
,195.000=1.946
;
#BGCHANGES:;
#FGCHANGES:;

//--------------- dance-single - ----------------
#NOTES:
     dance-single:
     :
     Beginner:
     6:
     0,0,0,0,0:
0000
0000
0000
0000
,
0000
0000
0000
0000
,
0000
0000
0000
0000
,
0000
0000
0000
0000
,
0000
0000
0000
0000
,
0000
0000
0000
0000
,
0001
1000
0001
0000
,
0100
0010
0100
0000
,
0000
1000
0000
0001
0000
1000
0000
0001
,
0000
1000
0000
0001
0000
1000
0000
0000
,
2002
0000
0000
0000
,
3003
0000
0000
0000
,
0010
0100
1000
0000
,
0001
1000
0001
0000
,
0100
1000
0010
0000
,
1000
0001
1000
0000
,
0001
0000
0010
0000
,
0100
0000
1000
0001
,
1000
0000
0100
0000
,
0010
0000
1000
0001
,
1000
0000
0100
0010
,
0100
0000
0000
0000
0000
0000
0000
0001
,
0000
1000
0000
0001
0000
1000
0000
0001
,
0000
0000
0000
0000
,
0002
0000
0003
0000
,
2000
0000
3000
0000
,
2002
3003
1000
0000
,
0001
0000
1000
0001
,
1000
0000
1001
1001
,
0000
0000
0000
1001
,
0000
0000
0000
1001
,
0000
0000
0000
0010
,
0010
0010
0000
1001
,
0000
0000
0000
1001
,
0000
0000
0000
1001
,
0000
0000
0000
0100
0000
0100
0000
0100
,
0000
0000
0000
1000
,
0000
0010
0000
0100
,
0000
0010
0000
1000
,
0000
0100
0000
0001
,
0000
0000
0000
0001
,
0000
0010
0000
0100
,
0000
0000
0010
0000
0000
0000
0001
0100
,
0000
0000
0000
1000
0000
0000
0000
0000
,
0000
0000
0000
0010
,
0000
0001
0000
1000
,
0000
0100
0000
0010
,
0000
1000
0000
0001
,
0000
0100
0000
1001
,
0002
0000
0003
0000
,
2000
0000
3000
0000
,
0002
0003
2000
3000
,
0000
0000
0000
0010
0000
0001
0000
1000
0000
0000
0000
0100
0000
0000
0001
0000
,
1001
0000
0000
0000
,
1001
0000
0000
0000
,
1001
0000
0000
0000
,
0010
0010
0010
0000
,
1001
0000
0000
0000
,
1001
0000
0000
0000
,
1001
0000
0000
0000
0000
0100
0000
0100
,
0000
0100
0000
0000
0000
0000
0000
0000
,
0010
0000
0010
0000
,
0010
0100
0010
0000
,
0001
0000
0001
0000
,
0001
1000
0001
0000
,
0100
0000
0100
0000
,
0100
0010
0100
0000
,
1000
0000
1000
0000
,
1000
0001
1000
0000
,
0100
0000
0001
0000
,
1000
0000
0100
0000
,
0010
0000
1000
0000
,
0001
0000
0100
0000
,
0010
0000
0100
0000
,
0001
0000
0010
0000
,
0001
0000
0100
0000
,
1000
0000
0001
0000
,
1000
0000
0000
0000
;

//--------------- dance-single - ----------------
#NOTES:
     dance-single:
     :
     Easy:
     8:
     0,0,0,0,0:
0000
0000
0000
0000
,
0000
0000
0000
0000
,
0000
0000
0000
0000
,
0000
0000
0000
0000
,
0000
0000
0000
0000
,
0000
0000
0000
0000
,
1000
0000
0100
0000
0001
1000
0001
0000
,
0100
0000
0010
0000
1000
0001
0010
0000
,
0100
0000
1000
0000
0000
0100
0000
0100
,
0000
0100
0000
0010
1000
0010
0001
0000
,
0002
0003
0020
0030
,
2000
3000
0002
0003
,
1000
0010
0001
0000
0100
0000
0001
0000
,
1000
0001
0100
0000
0010
0000
1000
0000
,
0001
1000
0001
0100
0010
0000
0100
1000
,
0001
0010
0100
0000
0010
0000
0100
0000
,
1000
0010
0001
0000
0100
0000
0010
0000
,
1000
0001
1000
0001
,
0100
0010
1000
0001
0010
0000
0100
0000
,
0001
0000
0100
0000
0001
0010
0100
1000
,
0010
0000
0000
0000
1000
0001
0010
0100
,
1000
0000
0000
0000
0001
1000
0001
0010
,
0100
0000
1000
0100
0000
0100
0000
0010
,
0000
0100
0000
0100
1000
0010
1000
0001
,
0200
0300
0020
0030
,
0002
0003
2000
3000
,
2002
3003
0001
0010
,
1000
0000
0001
1000
,
0001
0000
1000
0001
1000
0000
0001
0000
,
1000
0010
1000
1100
,
0101
1100
0000
1000
,
0001
0010
0001
0101
,
1100
0101
0000
0001
,
1000
0100
1000
1010
,
0011
0000
1010
0000
0000
0000
1000
0001
,
0000
0100
0000
0001
0000
0011
0000
1010
,
0000
0011
0000
1000
0000
0000
0010
0000
,
1000
0000
0100
0010
0100
0000
1100
0000
,
0110
0011
1000
0010
,
0001
0000
0100
0010
0100
0000
0101
0000
,
0110
1010
0000
1000
,
0001
0000
0100
0000
0010
1000
0010
0000
,
0100
0000
0001
0000
0010
0000
1000
1000
,
0000
0001
0000
0001
0000
2002
0000
0000
,
0000
0000
0000
3003
0000
0000
0010
0000
,
0001
0000
1000
1000
1000
0000
0001
0000
,
0100
0000
0010
0100
0010
0000
1000
0000
,
0100
0000
0010
0010
0010
0000
0001
0000
,
1000
0020
0030
0000
,
1002
0000
0003
0000
,
2000
0000
3000
0000
,
0020
0000
0030
0000
,
0010
0100
0000
0010
0000
0100
0000
1000
0000
0100
0010
0100
1000
0100
0010
0001
,
0000
1000
0010
1000
,
1100
0101
1100
0000
,
1000
0001
0010
0001
,
0101
1100
0101
0000
,
0001
1000
0100
1000
,
1010
0011
1010
0000
,
1000
0001
0000
0100
0000
0001
0000
0011
,
0000
1010
0000
0011
0000
0000
0000
0000
,
0010
0000
1000
0000
0100
0010
0100
0000
,
1100
0110
0011
0000
,
0010
0001
0000
0100
0010
0100
0000
0101
,
0000
0110
0000
1010
0000
0001
0000
0000
,
1000
0000
0001
0000
0100
0000
0010
1000
,
0010
0000
0100
0000
0001
0000
0010
0100
,
1000
1000
0000
0001
0000
0001
0000
1100
,
0000
0001
0000
1100
0000
0000
0010
0000
,
0100
0010
0100
0010
0100
0010
0100
0000
,
1000
0001
1000
0001
1000
0001
1000
0000
,
0010
1000
0010
1000
0010
1000
0010
0001
,
0100
0001
0100
0001
0100
0001
0100
0000
,
0010
0100
1000
0000
0001
0100
0010
0000
,
0010
0100
0001
0000
1000
0100
0010
0000
,
1000
0001
0010
0001
1000
0010
0100
0001
,
1000
0100
0010
0001
0010
0100
1000
0100
,
0010
0001
0000
0000
0000
0000
0000
0000
;

//--------------- dance-single - ----------------
#NOTES:
     dance-single:
     :
     Medium:
     12:
     0,0,0,0,0:
0000
0000
0000
0000
,
0000
0000
0000
0000
,
0000
0000
0000
0000
,
0000
0000
0000
0000
,
0000
0000
0000
0000
,
0000
0000
0000
0000
,
0100
0010
0001
1000
0001
0010
0100
0000
,
0001
1000
0001
0010
0100
1000
0001
0000
,
0010
0100
0000
1001
0000
0010
0000
0100
,
0000
0101
0000
1000
0001
1000
0001
0100
,
0020
0000
0230
0000
,
2300
0000
0000
0000
3002
0000
0000
1003
,
1000
0001
0100
0001
0100
0010
1000
0000
,
0001
1000
0001
0010
0100
1000
0001
0000
,
0000
1000
0001
0010
0100
0000
1000
0001
,
1000
0010
0100
0000
1000
0001
1000
0000
,
0010
1000
0100
0001
0100
1000
0010
0000
,
1000
0001
0100
0000
0010
0001
0010
0000
,
0100
1000
0001
0010
0100
0000
0001
1000
,
0001
0010
0100
0000
1000
0001
0100
0000
,
0001
1000
0001
0100
0010
0000
0001
0010
,
0100
1000
0001
0000
0001
1000
0001
0000
,
0010
0100
1000
0001
0000
1010
0000
1001
,
0000
0101
1000
0010
0000
0100
1000
0001
,
0010
0000
1000
0000
0000
1000
0001
0000
0010
0000
0001
0000
0000
0100
1000
0001
,
0010
0000
0000
0000
0100
0000
0000
0000
0000
0000
1000
0000
0001
0000
0000
0000
0010
0000
0100
0000
1000
0000
0000
0000
0000
0000
0001
0000
1000
0000
0001
0100
,
2000
3002
0203
0320
1030
0100
0010
0000
,
1000
0001
0100
0000
0001
1000
0001
0010
,
0001
0100
0010
0100
1000
0000
0010
1000
,
0010
1000
0100
0000
0010
0001
0010
0001
,
0100
0000
1100
0000
0101
0000
0100
0001
,
0100
0001
0010
0000
0100
1000
0100
1000
,
0010
0000
0011
0000
1010
0000
1000
0100
,
1000
0100
0010
0000
0001
0100
0001
0100
,
0010
0110
1001
2000
,
3000
0200
0000
1300
0000
0002
0003
0200
,
0000
0300
1000
0000
0001
0000
1000
0010
,
0100
0001
1000
0000
0001
0100
0010
1000
,
0001
0000
0110
0000
1001
0000
1000
0100
,
0010
0001
1000
0000
0001
0010
0100
1000
,
0001
0000
0110
0000
1001
0000
0001
0010
,
0001
0010
0100
1000
0100
0010
0001
0100
,
0001
0100
0010
1000
0010
0100
0001
0010
,
0100
1000
0000
0100
0000
0010
0000
0110
,
0000
0000
0000
0000
1001
0000
0000
0000
1001
0000
0000
0000
0010
0000
0000
1000
,
0100
0010
0001
0001
1000
0010
2000
3000
,
0010
0000
0010
0000
0001
0000
0010
0000
0100
0000
1000
0000
0001
0000
0000
0100
,
0001
0000
0010
0000
0100
0100
0100
0100
1000
0000
0000
0000
0020
0000
0030
0000
,
0100
0100
0010
1000
0100
0000
1001
0000
,
1000
0000
0010
0000
0100
0000
0010
0000
1000
0000
0100
0000
0010
0001
0010
0000
,
0001
0000
0100
0000
1000
0000
0100
0000
0010
0000
0100
0000
0010
0100
0010
0000
,
1000
0000
0001
0000
0010
0000
0100
0000
1000
0000
0010
0000
0100
0001
0100
0000
,
0001
0000
1000
0001
0000
1000
0001
0010
0000
0100
1000
0000
0001
1000
0001
0000
,
0010
1000
0010
1000
0100
0000
0010
0001
,
0010
0001
0100
0000
1100
0000
0101
0000
,
0100
0001
0100
0001
0010
0000
0100
1000
,
0100
1000
0010
0000
0011
0000
1010
0000
,
1000
0100
1000
0100
0010
0000
0001
0100
,
0001
0100
0010
0000
0110
0000
1001
0000
,
2000
0000
3000
0200
0000
1300
0000
0002
,
0000
0203
0000
0300
1000
0000
0001
0000
,
0010
0000
1000
0000
0100
0001
0010
0000
,
0001
1000
0010
0000
0100
0001
0100
0000
,
1000
0000
0100
0000
0010
0100
1000
0000
,
0100
0010
0100
0000
0010
0001
0100
0000
,
1000
0000
0010
0000
1000
0010
0100
0000
,
1000
0001
0010
0000
0100
0010
0001
0000
,
1000
0000
0100
0000
0001
1000
0010
0000
,
0100
1000
0001
0000
0010
0001
1000
0000
,
0100
0010
0100
0010
0100
0010
0100
0000
,
1000
0001
1000
0001
1000
0001
1000
0000
,
0010
1000
0010
1000
0010
1000
0010
0000
,
0100
0001
0100
0001
0100
0001
0100
0000
,
0010
0100
1000
0000
0001
0100
0010
0000
,
0010
0100
0001
0000
1000
0100
0010
0000
,
1000
0001
0010
0001
1000
0010
0100
0001
,
1000
0100
0010
0001
0010
0100
1000
0000
,
0000
1001
0000
0000
0000
0000
0000
0000
;

//--------------- dance-single - ----------------
#NOTES:
     dance-single:
     :
     Hard:
     16:
     0,0,0,0,0:
0000
0000
0000
0000
,
0000
0000
0000
0000
,
0000
0000
0000
0000
,
0000
0000
0000
0000
,
0000
0000
0000
0000
,
0000
0000
0000
0000
,
0100
1000
0100
0010
0100
0010
0001
0010
,
0001
1000
0001
0010
0100
1000
0010
0100
,
0010
1000
0001
0020
0000
2030
0000
3002
,
0000
0000
0103
0000
1000
0000
0001
0000
0100
0000
0010
0000
1000
0001
1000
0001
,
2000
0000
0000
0000
3002
0000
0000
0203
0000
0000
0000
1300
0001
0100
0010
1000
,
0002
0000
0000
0000
0000
0000
0000
0000
2003
0000
0000
0000
0000
0000
3020
0000
0000
0000
0000
0000
0000
0000
0000
0000
1030
0000
0001
0000
0100
0000
0010
1000
,
0100
0010
0100
1000
0100
0010
0001
0100
,
0001
1000
0010
1000
0100
0010
0100
1000
,
0100
0010
0001
1000
0010
0100
0001
0010
,
0100
0001
1000
0100
0010
0000
1000
0010
0001
0000
1000
0100
0010
0000
0100
0001
,
0010
0100
0001
0100
0001
0010
0001
1000
,
0010
0100
0001
0010
0001
0100
0010
1000
,
0001
0010
0001
0100
0010
0100
0001
0010
,
0001
1000
0010
0100
0001
1000
0100
0001
0010
0000
0100
1000
0010
0000
1000
0100
,
0001
1000
0010
0100
0001
0010
0001
0100
,
0001
0100
0010
0100
0001
0010
0001
0010
,
0100
1000
0001
1000
0000
0101
0000
1001
,
0000
0000
0110
0000
0010
0000
0100
0000
0010
0000
1000
0000
0010
0000
1000
0100
,
0001
1000
0020
0000
0000
2030
0001
0000
3001
1000
0001
0000
0010
0100
1000
0001
,
0100
0000
0000
0000
0021
0000
0000
0000
0000
0000
1030
0000
0001
0000
0000
0000
0100
0000
0100
0000
0002
0000
0000
0000
0000
0000
0103
0000
1000
0000
0001
0100
,
0010
0100
1000
0010
0001
1000
0001
1000
0010
0000
0100
0000
0010
0000
0100
0000
,
0010
0000
1000
0000
0001
0000
0010
0000
0100
0001
1000
0000
0010
1000
0100
0000
,
0001
1000
0010
0100
0001
1000
0010
0100
0001
0000
0000
0000
0110
0000
0001
0100
,
0001
0000
0010
0000
0100
0000
1000
0000
0001
0000
0100
0010
0100
0000
0010
0000
,
1000
0000
0001
0000
1100
0000
0100
0000
0110
0000
0000
0000
0001
0000
1000
0010
,
1000
0000
0001
0000
0010
0000
0100
0000
1000
0000
0010
1000
0010
0000
0100
0000
,
0001
0000
1000
0000
1010
0000
0010
0000
0110
0000
0100
0000
0101
0000
0001
0010
,
0001
0000
1000
0000
0001
0000
0100
0000
0010
0000
1000
0100
1000
0000
0001
0000
,
0100
0000
0001
0000
1000
0000
0010
0100
0010
0000
1000
0000
0020
0000
0000
0000
,
1000
2030
0000
0001
3002
0000
0100
0203
,
0000
0000
0010
0000
0310
0000
0000
0000
1001
0000
0000
0000
0110
0000
1000
0100
,
1000
0000
0001
0000
0100
0000
0010
1000
0010
0000
0100
0000
0001
0000
0010
0100
,
1000
0000
0001
0000
0101
0000
0100
0000
0110
0000
0000
0000
1000
0000
0001
0010
,
0001
0000
0100
0000
0010
0000
1000
0100
1000
0000
0001
0000
0100
0000
0010
1000
,
0001
0010
0110
0100
1100
1000
1001
0010
,
0001
0000
0001
0000
1000
0000
0010
0000
1000
0100
1000
0000
0010
0000
1000
0000
,
0010
0000
0010
0000
0100
0000
0001
0000
0100
0010
0100
0010
0200
0000
0000
0000
,
0001
0302
0000
1000
2003
0000
0010
3020
,
0000
0000
0100
0000
0130
0000
0000
0000
0110
0000
0000
0000
2002
0000
3003
0100
,
0010
0000
0000
0000
0001
0000
0000
0000
1100
0000
0000
1100
0000
0000
1100
0000
0001
0000
1000
0000
0010
0100
0010
0100
0002
0000
0000
0000
0000
0000
1003
0000
,
0010
0000
0000
0000
1000
0000
0000
0000
0100
0000
0000
0000
0010
0000
0000
0000
0001
0000
0000
0000
0100
0000
0000
0000
0010
0000
0000
0000
0000
0000
1000
0000
0000
0001
0000
0000
1000
0000
0000
0000
0000
0000
0100
0000
0000
0000
0000
0000
0010
0000
0000
0000
0000
0000
0001
0000
0000
0000
0000
0000
0001
0000
0000
0000
0000
0000
0001
0000
0000
0000
0000
0000
2002
0000
0000
0000
0000
0000
0000
0000
0000
0000
0000
0000
3003
0000
0000
0000
0000
0000
0100
0000
0000
0000
0000
0000
,
0010
0000
0000
0000
1000
0000
0000
0000
0101
0000
0001
0000
0001
0000
0001
0000
1000
0000
0001
0000
0000
1000
0100
1000
0002
0000
0000
0000
0000
0000
1003
0000
,
0010
1000
0100
0010
0001
0100
0010
0010
0100
0100
0010
0100
0010
1000
0010
1000
0010
0100
2000
0000
0000
3000
0000
0000
,
0001
0010
1000
0000
0001
0000
0100
0000
0010
1000
0001
0000
0100
0000
0010
0000
,
1000
0001
0010
0000
0100
0000
1000
0000
0001
0010
0100
0000
0001
0000
0010
0000
,
1000
0001
0100
0000
0010
0000
0100
0000
1000
0010
0001
0000
0100
0000
0010
0000
,
1001
0000
0010
0011
0000
0110
0000
1001
0000
1000
0010
1000
0100
0001
0100
1000
,
0020
0000
0000
0000
0130
0000
0001
0100
0001
0000
0010
0000
0100
0000
1000
0000
,
0001
0000
0100
0010
0100
0000
0010
0000
1000
0000
0001
0000
1100
0000
0100
0000
,
0110
0000
0000
0000
0001
0000
1000
0010
1000
0000
0001
0000
0010
0000
0100
0000
,
1000
0000
0010
1000
0010
0000
0100
0000
0001
0000
1000
0000
1010
0000
0010
0000
,
0110
0000
0100
0000
0101
0000
0001
0010
0001
0000
1000
0000
0001
0000
0100
0000
,
0010
0000
1000
0100
1000
0000
0001
0000
0100
0000
0001
0000
1000
0000
0010
0100
,
0010
1000
0020
0000
1000
2030
0000
0001
,
3002
0000
0100
0203
0000
0010
0310
0000
,
0100
0010
0100
0000
1000
0000
0100
0010
0100
0000
1000
0000
0001
0100
0001
0000
,
1000
0100
1000
0000
0010
0000
0100
0010
0100
0000
0001
0000
0010
0000
0100
0000
,
1000
0010
1000
0000
0001
0000
0010
0000
0000
0000
0110
0000
0000
0000
1000
0000
,
0010
0100
0010
0000
0100
0000
0001
0010
0001
0000
1000
0000
0010
0000
0100
0000
,
0010
1000
0100
0000
0010
0000
0100
1000
0010
0000
0100
0000
0010
1000
0100
0000
,
0010
0001
0100
0000
0010
0000
0100
0001
0010
0000
0001
0000
1000
0000
0010
0000
,
0100
0001
1000
0000
0100
0000
1000
0001
0000
0000
0110
0000
0000
0000
1001
0000
,
0000
0000
0101
0000
0100
0000
0001
0010
0100
0000
1000
0000
0001
0000
0100
0000
,
0010
1000
0001
1000
0100
0000
0010
0001
0100
0000
0010
0000
1000
0100
1000
0000
,
0001
0010
0200
0000
1300
0000
0001
0100
0001
0000
1000
0100
1000
0000
0100
0000
,
0010
0001
1000
0001
0100
0000
0010
1000
0000
0000
0010
0000
0000
0100
0001
0000
,
1000
0000
0200
0000
0301
0000
1000
0100
1000
0000
0001
0100
0001
0000
0010
0000
,
0001
0100
0010
0100
0001
0000
1000
0010
0100
0000
0010
0000
1000
0100
0010
0000
,
0001
1000
0010
0000
0100
0000
0001
1000
0100
0000
0010
0100
0010
0000
0001
0000
,
1000
0010
0100
0010
1000
0000
0001
0000
0000
0000
0011
0000
0000
0000
1010
0000
,
0000
0000
0010
0000
0100
0000
1000
0001
0100
0010
1000
0100
0010
0001
0100
0000
,
1000
1001
0000
0000
0000
0000
0000
0000
;
