#TITLE:SURVIVAL AT THE END OF THE WORLD;
#ARTIST:NAMCO Sound Team "Master of Cats";
#GENRE:ナムコオリジナル;
#MUSIC:SURVIVAL AT THE END OF THE WORLD.ogg;
#BANNER:SURVIVAL AT THE END OF THE WORLD.png;
#BACKGROUND:SURVIVAL AT THE END OF THE WORLD-bg.png;
#CDTITLE:./CDTitles/NSD A3.png;
#SAMPLESTART:64.083;
#SAMPLELENGTH:15.000;
#SELECTABLE:YES;
#OFFSET:0.000;
#BPMS:0.000=125.000
,20.000=250.000
,44.000=62.500
,45.000=125.000
,46.000=250.000
,48.000=500.000
,49.000=547.000
,50.000=900.000
,51.000=125.000
,73.000=83.300
,74.000=83.380
,75.000=250.000
,78.000=125.000
,79.000=250.000
,83.000=125.000
,84.000=250.000
,108.000=500.000
,118.000=31.250
,121.000=62.500
,127.000=250.000
,128.000=125.000
,129.000=250.000
,130.000=125.000
,131.000=250.000
,132.000=125.000
,133.000=250.000
,165.000=125.000
,166.000=250.000
,216.000=125.000
,217.000=250.000
,218.000=125.000
,219.000=250.000
,220.000=125.000
,221.000=250.000
,222.000=125.000
,223.000=250.000
,224.000=125.000
,225.000=250.000
,226.000=125.000
,227.000=250.000
,228.000=125.000
,229.000=250.000
,256.000=62.500
,268.000=125.000
,280.000=250.000
,281.000=125.000
,282.000=250.000
,283.000=125.000
,284.000=250.000
,285.000=125.000
,286.000=250.000
,287.000=125.000
,288.000=250.000
,300.000=62.500
;
#STOPS:51.000=0.187
,85.000=0.200
,85.667=0.200
,86.333=0.200
,87.000=0.200
,87.667=0.160
,105.000=0.200
,105.667=0.200
,106.333=0.200
,107.000=0.200
,107.667=0.160
,136.000=0.200
,136.667=0.200
,137.333=0.200
,138.000=0.200
,138.667=0.160
;
#DISPLAYBPM:31.250:250.000;
#BGCHANGES:;
#FGCHANGES:;

//--------------- dance-single - ----------------
#NOTES:
     dance-single:
     :
     Beginner:
     5:
     0,0,0,0,0:
0000
0000
0000
0000
,
0000
0000
0000
0000
,
0000
0000
0000
0000
,
0000
0000
0000
0000
,
0000
0000
0000
0000
,
0001
1000
0001
0000
,
0100
1000
0001
0000
,
0100
1000
0001
0000
,
0100
1000
0001
0010
,
0100
1000
0001
0010
,
0100
1000
0001
0100
,
0010
0000
0000
0000
,
0000
0000
0000
0000
,
1000
0000
0000
0001
,
0000
0000
0010
0000
,
0000
0100
0000
0000
,
1000
0000
0000
0001
,
0000
0000
0010
0000
,
0000
0100
1000
0001
,
0000
1000
0000
0000
,
0001
0000
0010
0000
,
0000
0000
0000
0100
0000
0000
0000
0001
0000
0000
0000
1000
,
0000
0000
0001
0000
,
0000
0100
0010
1000
,
0000
0001
1000
0001
,
0000
0100
1000
0001
,
0000
0000
0000
0100
0000
0010
0000
1000
0000
0001
0000
0100
,
0020
0000
0000
0000
,
0000
0000
0000
0000
,
0000
0000
0000
0000
0000
0000
0000
0000
0000
0000
0000
0000
0000
0000
0000
0000
0130
0000
0000
1000
0000
0000
0100
0000
0001
1000
0000
0000
0010
1000
0000
0000
,
0000
1000
0001
0100
0000
0000
0000
0000
1000
0000
0000
0000
0000
0000
0001
0000
0000
0000
0000
0000
0100
0000
0000
0000
0000
0000
0010
0000
0000
0000
0000
0000
,
1000
0000
0000
0001
0000
0000
0100
0000
0000
1000
0000
0000
1001
0000
0000
0000
,
0100
0010
1000
0001
,
1000
0001
0100
0010
,
1000
0000
0001
0000
0100
0000
0010
0000
1000
0001
0000
0000
,
0100
0000
0001
0100
,
0010
0001
1000
0000
,
0100
0010
0001
0000
,
0001
0100
0010
0000
,
0001
0100
0010
0100
,
1000
0001
0100
0010
,
0100
1000
0000
1001
,
0000
1000
0000
0100
,
0010
0100
0000
1000
,
0000
0001
0000
0100
,
1000
0001
0000
0100
,
0000
0001
0000
0001
,
0100
0010
0000
0100
,
0000
0001
0000
0010
,
0001
0010
0000
0000
,
0100
1000
0001
0000
,
0010
0100
1000
0001
,
0000
0100
0000
1000
,
0001
0010
0000
0100
,
1001
0100
0010
0100
,
1000
0001
1000
0001
,
0100
0010
0100
1000
,
0001
0100
1000
0001
,
0100
1000
0001
0000
,
0010
0100
1000
0000
,
0001
1000
0001
0010
,
0100
1000
0001
0000
,
0100
1000
0001
0100
,
0010
1000
0001
0010
,
0200
0000
0000
0000
0000
0000
0310
0000
0000
0001
0000
0000
1000
0000
0000
0010
,
0000
0000
0100
0000
0000
1000
0000
0000
0001
0000
0000
0010
0000
0000
0100
0000
,
0000
0001
0000
0000
1000
0000
0000
0100
0000
0000
0010
0000
0000
0001
0000
0000
,
1001
0000
0100
0000
0010
1000
0001
0000
,
0100
0010
0001
1000
,
0001
0100
0010
0000
1000
0000
0001
0000
,
0100
1000
0001
1000
,
0010
0100
1000
0001
,
0100
1000
0001
0100
,
0010
1000
0001
0010
,
0100
1000
0001
0010
,
0220
0000
0000
0330
;

//--------------- dance-single - ----------------
#NOTES:
     dance-single:
     :
     Easy:
     9:
     0,0,0,0,0:
0000
0000
0000
0000
,
0000
0000
0000
0000
,
0000
0000
0000
0000
,
0000
0000
0000
0000
,
0000
0000
0000
0000
,
1000
0001
1000
0100
,
0010
0001
1000
0100
,
0010
0001
1000
0100
,
0010
0001
1000
0100
,
0010
0001
1000
0100
,
0010
0001
1000
0010
,
0200
0000
0000
0000
,
0000
0000
0000
0300
,
0001
0000
1000
0000
0100
0000
0001
0000
0000
0100
0000
0000
1000
0000
0000
0010
,
0000
1000
0000
0001
0100
1000
0001
0100
,
0000
1000
0000
0000
0010
0000
0000
0000
0100
0000
1000
0000
0001
0000
0010
0000
,
0101
0000
1000
0000
0010
0000
0100
0000
0000
1000
0000
0000
1000
0000
0000
0001
,
0000
0000
0010
0000
0000
0100
0000
0000
0101
0000
1000
0000
0002
0000
0000
0000
,
0000
0000
0013
1000
0001
0000
1000
0000
,
0100
0001
2000
0000
,
3001
0010
0100
2000
,
0000
0000
0000
3010
0000
0100
0000
1000
0000
0100
0000
0001
,
0010
0100
1000
0010
,
1000
0010
0100
0001
,
0100
1000
0001
1000
,
0100
0010
0001
1000
,
0100
0000
0000
0010
0000
0100
0000
0001
0000
1000
0000
0010
,
0200
0000
0000
0000
,
0000
0000
0000
0000
,
0000
0000
0000
0000
0000
0000
0000
0000
0000
0000
0000
0000
0000
0000
0000
0000
0310
0000
0000
0001
0000
0000
0010
0000
1000
0001
0000
0000
0100
0001
0000
0000
,
0000
0001
1000
0010
0000
0000
0000
0000
0001
0000
0000
0000
0000
0000
1000
0000
0000
0000
0000
0000
0010
0000
0000
0000
0000
0000
0100
0000
0000
0000
0000
0000
,
0001
0000
0000
1000
0000
0000
0010
0000
0000
0001
0000
0000
1001
0000
0000
0000
,
0010
0100
0001
1000
,
0001
0000
1000
0000
0010
0001
0100
0000
,
0001
0000
1000
0000
0010
0000
0100
0000
0001
1000
0000
0000
,
0010
0100
1000
0010
,
0100
1000
0001
1000
,
0010
0100
1000
0001
,
1000
0010
0100
0001
,
1000
0010
0100
0010
,
0001
1000
0010
0100
,
0010
0001
0000
1001
,
0100
0001
1000
0010
,
0100
0010
1000
0001
,
0100
1000
0100
0010
,
0001
1000
0100
0010
,
0001
1000
0001
1000
,
0010
0100
0001
0010
,
0100
1000
0001
0100
,
1000
0100
0010
1000
,
0010
0001
1000
0010
,
0100
0010
0001
1000
,
0100
0010
0100
0001
,
1000
0100
0001
0010
,
1001
0010
0100
0010
,
0001
0000
1000
0000
0001
0100
1000
0000
,
0010
0000
0100
0000
0010
1000
0001
0000
,
1000
0010
0001
1000
,
0010
0001
1000
0001
,
0100
0010
0001
0010
,
1000
0001
1000
0100
,
0010
0001
1000
0100
,
0010
0001
1000
0010
,
0100
0001
1000
0100
,
0020
0000
0000
0000
0000
0000
0130
0000
0001
1000
0000
0010
0001
0000
1000
0100
,
0000
1000
0010
0000
1000
0001
0000
0010
1000
0000
0001
0100
0000
1000
0010
0000
,
0001
1000
0000
0100
0001
0000
1000
0010
0000
0001
0100
0000
0010
1000
0000
0010
,
1001
0000
0010
1000
0100
0001
1000
0000
,
0010
0001
0100
0010
1000
0000
0001
0100
,
1000
0010
0100
0000
0001
0100
1000
0001
,
0010
0000
0001
0010
1000
0000
0001
0010
,
0100
0000
0010
1000
0001
0000
1000
0100
,
0010
0001
1000
0010
,
0100
0001
1000
0100
,
0010
0000
0001
0000
1000
0001
0100
0000
,
0220
0000
0000
0330
;

//--------------- dance-single - ----------------
#NOTES:
     dance-single:
     :
     Medium:
     12:
     0,0,0,0,0:
0000
0000
0000
0000
,
0000
0000
0000
0000
,
0000
0000
0000
0000
,
0000
0000
0000
0000
,
0000
0000
0000
0000
,
1000
0001
1000
0010
,
0100
0001
1000
0010
,
0100
0001
1000
0010
,
0100
0010
0001
0000
1000
0001
0010
0000
,
0100
0010
0001
0000
1000
0100
0010
0000
,
0100
0010
0001
0100
1000
0001
0100
1000
,
0020
0000
0000
0000
,
0000
0000
0000
0030
,
0001
0000
1000
0000
0010
0000
0001
0000
0000
0010
0000
0000
1000
0000
0000
0100
,
0000
1000
0000
0001
0010
1000
0001
0010
,
0000
1000
0100
0001
0010
1000
0001
0100
,
1001
0000
1000
0000
0100
0000
0010
0000
0000
1000
0000
0000
1000
0000
0000
0001
,
0000
0000
0100
0000
0000
0010
0000
0000
1001
0000
1000
0000
0002
0000
0000
0000
,
1000
0000
0103
1000
0001
0000
1000
0000
,
0010
1000
0001
0000
2000
0000
0000
0000
,
3001
0000
0100
0001
0010
0000
2000
0000
,
0000
0000
0000
3100
0000
0110
0000
1000
0000
0011
0000
0001
,
0100
0000
0010
0000
1000
0001
0100
0010
,
1000
0001
0100
0000
0010
0000
0001
1000
,
0010
0000
1000
0010
0001
0000
1000
0000
,
0010
0001
0100
0000
0001
0100
1000
0000
,
0010
0000
0000
1000
0000
0000
0100
0000
0000
0000
0110
0000
0000
0000
1001
0000
0000
0000
1010
0000
0000
0000
0101
0000
,
0020
0000
0000
0000
,
0000
0000
0000
0000
,
0000
0000
0000
0000
0000
0000
0000
0000
0000
0000
0000
0000
0000
0000
0000
0000
0000
0000
0000
0000
0000
0000
0000
0000
0000
0000
0000
0000
0000
0000
0000
0000
0000
0000
0000
0000
0000
0000
0000
0000
0000
0000
0000
0000
0000
0000
0000
0000
0230
0000
0000
0000
0000
0000
0000
0000
0000
0302
0000
0000
0000
0000
0000
1003
0000
0000
0100
0000
0000
0001
0000
0000
1000
0000
0000
0001
0000
0000
0000
0000
1000
0000
0000
0000
0010
0000
0000
0001
0000
0000
2000
0000
0000
0000
0000
0000
,
0000
0000
0000
3001
0000
0000
1000
0000
0000
0100
0000
0000
0020
0000
0000
0000
0000
0000
0000
0000
0000
0000
0000
0000
0032
0000
0000
0000
0000
0000
0000
0000
0000
0000
0000
0000
0000
0000
0000
0000
0000
0000
1003
0000
0000
0000
0000
0000
0000
0000
0000
0000
0000
0000
0001
0000
0000
0000
0000
0000
0100
0000
0000
0000
0000
0000
0001
0000
0000
0000
0000
0000
1000
0000
0000
0000
0000
0000
0010
0000
0000
0000
0000
0000
0000
0000
0000
0000
1000
0000
0000
0000
0000
0000
0000
0000
,
0001
0010
0100
1000
0000
0001
0100
1000
0100
0001
0000
0000
1001
0000
0000
0000
,
0100
1000
0010
0000
0001
0100
1000
0000
,
0001
0010
1000
0000
0100
0001
0010
0000
,
0001
0000
1001
0000
0110
0000
1010
0000
0001
1000
0000
0000
,
0100
0001
0010
0000
1000
0001
0100
0000
,
0010
0001
1000
0000
0001
0000
1000
0000
,
0100
0001
0010
0000
1000
0000
0001
0000
,
1000
0010
0100
0000
0010
0000
0001
0000
,
1000
0001
0100
0000
0010
1000
0100
0000
,
0001
0010
1000
0001
0100
1000
0010
0001
,
0100
0010
1001
0000
0000
0000
1001
0000
,
0010
0100
0001
0000
1000
0000
0100
0000
,
0010
0001
0100
0001
1000
0000
0001
0000
,
0010
0000
1000
0000
0010
0001
0100
0000
,
0001
0000
1000
0001
0010
0000
0100
0000
,
0001
0100
1000
0100
0001
0000
1000
0000
,
0100
1000
0010
1000
0001
0000
0100
0000
,
0010
0100
1000
0010
0001
0000
0010
0000
,
1000
0001
0010
1000
0100
0000
1000
0000
,
0100
0000
0001
0010
1000
0000
0100
0000
,
0010
0000
0100
1000
0001
0000
1000
0000
,
0010
0000
0100
0001
0010
0000
0001
0000
,
1000
0100
0010
0000
0001
0000
0100
0000
,
1001
0010
0100
0000
0010
1000
0100
0000
,
0001
0010
1000
0000
0001
0010
1000
0000
,
0100
0001
0010
0000
0100
1000
0001
0000
,
1000
0001
0100
0010
0001
0100
1000
0000
,
0100
0010
0001
0000
1000
0000
0001
0000
,
0010
1000
0100
0000
0001
0000
0100
0000
,
1000
0010
0001
0000
1000
0000
0010
0000
,
0100
1000
0001
0000
1000
0001
0010
0000
,
0100
1000
0001
0000
1000
0001
0100
1000
,
0010
0100
0001
0010
1000
0100
0010
0001
,
0200
0000
0000
0001
0000
0000
1000
0000
0000
0000
0000
0000
0310
0000
0000
0001
0000
0000
1000
0000
0001
0000
0100
0000
0001
0000
0100
0000
1000
0000
0010
0000
,
0001
0000
1000
0000
0100
0000
0000
1000
0000
0000
0001
0000
0010
0000
0100
0000
1000
0000
0010
0000
0001
0000
0010
0000
0000
0000
1000
0000
0100
0000
0010
0000
,
0001
1000
0100
0010
0001
0000
1000
0100
1000
0001
0010
0001
0100
1000
0001
0100
,
1001
0010
0100
1000
0010
0001
1000
0010
,
0100
0001
0010
0100
1000
0100
0001
0010
,
1000
0100
0010
1000
0001
0010
1000
0001
,
0100
0000
0001
0100
1000
0000
0001
0100
,
0010
0000
0100
1000
0001
0000
1000
0010
,
0100
1000
0001
0100
1000
0001
0100
1000
,
0010
0100
0001
0010
1000
0100
0010
1000
,
0100
0010
0001
0100
1000
0001
0010
1000
,
0220
0000
0000
0330
;

//--------------- dance-single - ----------------
#NOTES:
     dance-single:
     :
     Hard:
     17:
     0,0,0,0,0:
0000
0000
0000
0000
,
0000
0000
0000
0000
,
0000
0000
0000
0000
,
0000
0000
0000
0000
,
0000
0000
0000
0000
,
1000
0001
0100
0010
,
0100
1000
0001
0100
,
0010
0100
1000
0001
,
0100
0000
1000
0000
0100
0000
0001
0000
0100
0000
0010
0001
0100
0000
1000
0000
,
0001
0000
0100
0000
0010
0000
0100
0001
1000
0100
0010
1000
0001
0100
0010
0100
,
1000
0100
0001
1000
0001
0100
0010
0100
1000
0001
0100
0010
0100
1000
0001
0100
,
2002
0000
0000
0000
,
0000
0000
0000
3003
,
1000
0000
0001
0000
0010
0000
0200
0000
0000
2300
0000
0000
3002
0000
0000
0203
,
0000
0000
0320
0000
0000
0030
1000
0000
0100
0000
0001
0000
2000
0000
0001
0000
,
0000
0100
0001
0010
0100
3001
0010
0100
,
1001
0000
0010
0000
0100
0000
2000
0000
0000
3001
0000
0000
0110
0000
0000
2000
,
0000
0000
3002
0000
0000
0103
0000
0000
1010
0000
0100
0000
2000
0000
0010
0000
,
0010
3100
1002
0000
0103
0000
0001
0100
,
0010
1000
0100
0010
0100
1000
0010
0000
,
0100
1000
0100
0010
0100
0010
0001
1000
,
0001
0000
0000
0110
0000
1010
0000
0101
0000
1010
0000
1001
,
0100
0000
0010
0000
0100
0000
0010
0000
0100
0000
1000
0000
0010
0001
0100
1000
,
0001
0100
0010
1000
0010
1000
0100
0010
,
0001
0100
0001
0100
0001
1000
0100
0010
,
0100
1000
0001
1000
0001
1000
0010
0100
,
0010
0000
0000
1000
0000
0000
0011
0000
0000
0000
0110
0000
0000
0000
1100
0000
0000
0000
1001
0000
0000
0000
0101
0000
,
0020
0000
0000
0000
,
0000
0000
0000
0000
,
0000
0000
0000
0000
0000
0000
0000
0000
0000
0000
0000
0000
0000
0000
0000
0000
0000
0000
0000
0000
0000
0000
0000
0000
0000
0000
0000
0000
0000
0000
0000
0000
0000
0000
0000
0000
0000
0000
0000
0000
0000
0000
0000
0000
0000
0000
0000
0000
0130
0000
0000
0000
0000
0000
0000
0000
0000
1000
0000
0000
0000
0000
0000
0010
0000
0000
0001
0000
0000
1000
0000
0000
0001
0000
0000
0100
0000
0000
0000
0000
0010
0000
0000
0000
1000
0000
0000
0100
0000
0000
0001
0000
0000
0000
0000
0000
,
0000
0000
0000
1000
0000
0000
0001
0000
0000
0010
0000
0000
0100
0000
0000
0000
0000
0000
0000
0000
0000
0000
0000
0000
2001
0000
0000
0000
0000
0000
0000
0000
0000
0000
0000
0000
0000
0000
0000
0000
0000
0000
3001
0000
0000
0000
0000
0000
0000
0000
0000
0000
0000
0000
0010
0000
0000
0000
0000
0000
0100
0000
0000
0000
0000
0000
1000
0000
0000
0000
0000
0000
0001
0000
0000
0000
0000
0000
0010
0000
0000
0000
0000
0000
0000
0000
0000
0000
0100
0000
0000
0000
0000
0000
0000
0000
,
1000
0001
0010
0100
0000
0100
0010
1000
0001
0010
0000
0100
0001
0000
0100
0000
,
0010
0000
0100
0010
0001
0000
0010
0000
0100
0000
0010
0000
0001
0000
0100
0000
,
0001
0000
1000
0000
0010
0000
0100
0000
0001
0000
0010
0000
0100
1000
0010
0001
,
0100
0000
0000
0000
1001
0000
0000
0000
0110
0000
0000
0000
0101
0000
0000
0000
1001
0000
0010
0000
0000
0100
0000
0000
,
0010
0000
1000
0000
0001
0000
0100
0000
0010
0001
1000
0100
0010
0000
0100
0000
,
0001
0010
0001
0100
0001
1000
0010
0100
,
0001
1000
0100
0010
0100
1000
0001
1000
,
0100
1000
0001
0010
0001
0100
0001
1000
,
0100
0000
1000
0000
0001
0000
0100
0000
0001
0000
1000
0001
0010
1000
0100
0000
,
0001
0000
1000
0000
0100
0000
0010
0000
0001
1000
0100
0010
0001
1000
0010
0001
,
0100
1000
0010
0100
2000
0000
0000
0000
3001
0000
0000
0000
1001
0000
0010
0000
,
1000
0001
0010
0001
0010
0001
0100
0010
,
1000
0010
0100
0001
0100
0010
1000
0001
,
0100
0010
1000
0010
1000
0100
1000
0010
,
0100
0001
1000
0100
1000
0010
1000
0010
,
0100
0010
0100
0001
1000
0100
0010
0001
,
1000
0100
1000
0100
1000
0010
0100
0010
,
1000
0001
0100
0010
0100
0001
1000
0010
,
0100
0001
1000
0010
1000
0010
1000
0100
,
0010
0001
0100
0010
0100
0001
1000
0001
,
1000
0010
1000
0010
0100
0001
0010
0001
,
1000
0001
1000
0100
0010
0100
0010
0100
,
1000
0001
0010
0100
1000
0010
0100
0000
,
1001
0100
1000
0000
1001
0010
1001
0000
,
0100
0000
0000
0000
0010
0000
0000
0000
1001
0000
0000
0000
0000
0000
0000
0000
0100
0000
0000
0000
0010
0001
0010
0001
0010
0000
0000
0000
0000
0000
0000
0000
,
1001
0100
1001
0000
0101
0010
1001
0000
,
0110
0001
0100
1000
0001
0100
0001
1000
,
0010
1000
0001
0100
0001
0010
0001
0100
,
0010
0100
0010
0100
0001
0010
0001
0010
,
0001
0100
0010
1000
0100
1000
0100
0010
,
0100
0000
1000
0000
0010
0000
1000
0000
0010
0000
0100
0010
0001
0000
1000
0000
,
0010
0000
1000
0001
0100
0000
0010
0000
0100
0010
0100
0010
0001
1000
0100
1000
,
0100
1000
0001
0100
0001
1000
0010
0100
0010
1000
0100
0010
0100
0010
0001
0100
,
0010
0000
0000
1000
0000
0000
0100
0000
0000
0010
0000
0000
0001
0000
0000
0010
0000
0000
1000
0000
0000
0001
0000
0000
0100
0000
0000
0010
0000
0000
0100
0000
,
0000
1000
0000
0000
0001
0000
0000
0100
0000
0000
0010
0000
1000
0000
0100
0000
0010
0000
0000
1000
0000
0000
0001
0000
0000
0100
0000
0000
0010
0000
0000
0100
,
0000
0000
1000
0000
0000
0001
0000
0000
0100
0000
0000
0010
0000
0000
0001
0000
0000
0100
0000
0000
0010
0000
0000
1000
0000
0000
0001
0000
0100
0000
1000
0000
,
0100
1000
0001
1000
0100
0010
0100
1000
0010
0100
0010
1000
0001
1000
0001
1000
,
0100
0010
0001
0010
0001
1000
0100
0010
0001
1000
0010
0100
0010
0100
0010
1000
,
0100
1000
0010
0100
0001
0010
0100
0010
0001
0100
0010
1000
0100
0010
0001
0100
,
1001
0000
1001
0100
0110
0000
0101
0010
,
1010
0000
0110
0010
1001
0000
0110
1000
,
0010
0100
0001
0010
0100
1000
0001
1000
0100
1000
0100
0010
0001
1000
0010
0100
,
0010
1000
0100
1000
0010
0100
0010
0100
0001
0010
0001
0100
0010
0100
0010
0100
,
0001
0000
1000
0000
0001
0000
0010
0000
0100
0000
1000
0000
0001
0000
0100
0000
0001
1000
0010
0001
0100
1000
0010
0001
0100
1000
0010
0100
0001
0010
1000
0100
,
2002
0000
0000
3003
;
