
//----- song ID: supr -----//
#TITLE:SUPERNOVA;
#ARTIST:USAO;
#GENRE:ナムコオリジナル;
#MUSIC:SUPERNOVA.ogg;
#BANNER:SUPERNOVA.png;
#BACKGROUND:background.png;
#CDTITLE:./CDTitles/NSD A3.png;
#SAMPLESTART:55.460;
#SAMPLELENGTH:15.000;
#SELECTABLE:YES;
#OFFSET:0.000;
#BPMS:0.000=212.000
,132.000=106.000
,156.000=212.000
,164.000=424.000
,172.000=212.000
,224.000=106.000
,260.000=212.000
,340.000=424.000
,364.000=212.000
;
#STOPS:;
#DISPLAYBPM:106.000:212.000;
#BGCHANGES:;
#FGCHANGES:;

//--------------- dance-single - ----------------
#NOTES:
     dance-single:
     :
     Beginner:
     4:
     0.20797,0.277024,0.035335,0.035335,0,206,201,5,5,0,0,0.20797,0.277024,0.035335,0.035335,0,206,201,5,5,0,0:
0000
0000
0000
0000
,
0000
0000
0000
0000
,
0000
0000
0000
0000
,
0000
0000
0000
0000
,
0000
0000
0000
0000
,
1000
0000
0000
0000
,
0001
0000
0000
0000
,
0010
0000
0100
0000
,
0010
0000
0000
0000
,
1000
0000
0001
0000
,
0100
0000
0010
0000
,
1000
0000
0001
0000
,
0110
0000
0000
0000
,
1000
0000
0001
0000
,
0100
0000
1000
0000
,
0001
0000
0100
0000
,
0020
0000
1030
0000
,
0010
0000
0100
0000
,
0001
0000
0100
0000
,
1000
0000
0001
0000
,
0100
0010
0100
0000
,
1000
0000
0010
0000
,
0001
0000
0000
0000
,
0001
0000
0100
0000
,
0010
1000
0010
0000
,
0100
0000
0001
0000
,
0100
0000
0010
0000
,
1000
0000
0001
0000
,
0100
0000
0010
0000
,
0100
0000
1000
0000
,
0001
0000
0100
0000
,
0010
0000
0100
0000
,
1000
0000
0000
0000
,
0001
0000
0100
0000
,
0010
0000
1000
0001
,
0100
0000
0100
0000
,
0001
0000
1000
0001
,
0100
0000
1000
0000
,
0010
0000
1000
0001
,
0100
0000
0010
0000
,
1000
0000
0001
0000
,
0100
0000
0000
0000
,
1000
0000
0000
0000
,
0001
0000
0000
0000
,
1000
0000
0001
0000
,
0100
1000
0001
0000
,
0100
0000
0010
0000
,
0001
0100
1000
0000
,
0010
0000
0100
0000
,
0010
0000
0001
0000
,
1000
0000
0001
0000
,
0100
0000
0010
0000
,
1000
0000
0001
0000
,
0001
0000
1000
0000
,
0100
0000
0010
0000
,
1000
0000
0000
0000
,
1001
0000
0000
0000
,
0100
0000
0010
0000
,
1000
0000
0001
0000
,
0010
0000
1000
0000
,
0010
0000
0100
0000
,
1000
0001
0100
0000
,
0010
0001
0100
0000
,
1000
0010
0100
0000
,
0010
0100
1000
0000
,
0001
0000
0010
0000
,
0100
0000
0000
0000
,
0010
0000
0100
0000
,
1000
0000
0000
0000
,
0001
0000
0100
0000
,
0010
0000
0000
0000
,
0100
0000
0100
0000
,
0010
0000
0000
0000
,
1000
0000
0000
0000
,
0001
0000
0000
0000
,
0100
0000
0000
0000
,
0001
0000
0000
0000
,
1000
0000
0001
0000
,
0100
0000
0010
0000
,
0001
0010
0100
1000
,
0001
0000
0000
0000
,
0010
0000
0100
0000
,
0010
0000
1000
0000
,
0001
0000
0100
0000
,
1000
0000
0000
0000
,
0001
0000
0000
0000
,
1000
0000
0000
0000
,
0010
0000
0000
0000
,
0100
0000
0000
0000
,
1000
0000
0000
0000
,
0001
0000
0000
0000
,
2002
0000
3003
0000
,
0010
0000
0100
0000
,
0001
1000
0001
0000
,
0100
0000
0010
0000
,
0100
0000
1000
0000
,
0001
0000
0010
0000
,
0100
0000
0001
0000
,
1000
0000
0001
0000
,
1000
0000
0100
0000
,
0010
0000
0100
0000
,
0001
0000
0100
0000
,
0010
0000
1000
0000
,
0001
0000
0001
0000
,
1000
0000
0001
0000
,
1000
0001
1000
0001
,
1000
0000
0001
0000
,
0100
0000
0010
0000
,
0100
0000
1100
0000
,
1000
0000
0001
0000
,
0010
0000
0100
0000
,
2002
0000
0000
0000
,
3003
0000
0000
0000
;

//--------------- dance-single - ----------------
#NOTES:
     dance-single:
     :
     Easy:
     10:
     0.325079,0.395749,0.042402,0.070669,0,322,316,6,10,0,0,0.325079,0.395749,0.042402,0.070669,0,322,316,6,10,0,0:
0000
0000
0000
0000
,
0000
0000
0000
0000
,
0000
0000
0000
0000
,
0000
0000
0000
0000
,
0000
0000
0000
0000
,
1000
0000
0000
0001
0000
0000
0010
0000
,
0000
0000
0000
0000
,
1000
0000
0000
0001
0000
0000
0100
0000
,
0010
0000
1000
0000
,
0001
0010
0100
0001
,
1000
0001
0100
0000
,
0010
0100
1000
0001
,
0020
0000
0130
0000
,
1000
0001
0100
0010
,
1000
0001
0100
0000
,
0010
0100
0001
1000
,
0002
0000
1003
0000
,
0100
0010
1000
0001
,
0100
0010
1000
0001
,
0100
0000
0010
0000
,
0100
0001
0010
0000
,
1000
0001
0100
0000
,
0010
0100
1000
0000
,
0001
0000
0100
0000
,
0010
1000
0001
0000
,
0010
0000
0100
0000
,
1000
0000
0001
0000
,
0010
0100
0001
0000
,
0100
0000
0010
0000
,
1000
0001
0010
0000
,
0100
0010
1000
0000
,
0001
0000
0100
0000
,
0200
0000
0000
0300
,
0001
1000
0001
0100
,
0010
0001
0010
0100
,
0001
1000
0100
0010
,
1000
0001
0100
0010
,
1000
0001
0100
0010
,
0100
1000
0001
0100
,
1000
0001
0100
0010
,
0100
1000
0001
0100
,
1000
0000
0001
0000
,
0100
0000
1000
0000
,
2002
0000
3003
0000
,
0010
0100
0001
0100
,
1000
0001
0010
0000
,
0100
0010
1000
0001
,
0100
0010
0100
0000
,
1000
0001
0100
0010
,
0100
1000
0001
0000
,
0010
0100
1000
0001
,
0100
0010
0100
0000
,
2000
3001
0100
0010
,
0100
1000
0001
0000
,
0010
0100
0001
1000
,
0100
0010
1000
0000
,
2002
0000
0000
3003
,
0010
0100
0001
0010
,
0100
1000
0001
0010
,
0100
1000
0001
0100
,
0010
0001
1000
0001
,
1001
0100
0010
0100
,
1000
0001
0010
0100
,
0100
1000
0001
0100
,
0001
0010
0100
1000
,
0001
0000
0100
0000
,
0010
0000
1000
0000
,
0001
0000
0100
0000
,
0010
0000
1001
0000
,
0100
0000
0010
0000
,
1000
0000
0001
0000
,
0100
0000
0001
0000
,
0100
0000
1001
0000
,
0100
0000
0010
0000
,
0001
0000
0010
0000
,
0001
0000
0100
0000
,
1000
0000
0001
0000
,
0100
1000
0001
0000
,
0100
0010
1000
0000
,
1000
0100
0010
0001
,
1000
0000
0001
0000
,
1000
0000
0100
0000
,
0010
0000
0001
0000
,
0100
0000
0010
0000
,
1000
0001
0100
0000
,
1000
0000
0001
0000
,
0100
0000
1000
0010
,
0001
0000
0100
0000
,
1000
0000
0001
0000
,
0100
0000
0010
0000
,
0100
0000
1000
0000
,
0001
0000
1000
0000
,
1001
0100
0010
1000
,
0001
0010
0100
0000
,
0010
0100
0001
0100
,
2000
0000
3001
0000
,
0100
0010
0100
1000
,
0001
0010
0100
0000
,
0010
0100
0001
0100
,
1000
0001
0100
0000
,
0010
0100
1000
0001
,
0100
0010
1000
0000
,
0001
0100
0010
0100
,
1000
0001
0010
0000
,
0100
0001
1000
0001
,
0100
0010
0100
0000
,
1000
0001
0100
0010
,
0100
0001
1000
0000
,
0010
0100
0001
0100
,
0010
1000
0001
0100
,
0010
0001
0100
1000
,
0200
0000
0000
0000
,
0300
0000
0000
0000
;

//--------------- dance-single - ----------------
#NOTES:
     dance-single:
     :
     Medium:
     14:
     0.572422,1.266395,0.240276,0.063602,0.074203,567,533,34,9,0,0,0.572422,1.266395,0.240276,0.063602,0.074203,567,533,34,9,0,0:
0000
0000
0000
0000
,
0000
0000
0000
0000
,
0000
0000
0000
0000
,
0000
0000
0000
0000
,
0000
0000
0000
0000
,
1001
0000
0000
0010
0000
0000
1000
0000
,
0001
0100
0010
0000
,
1001
0000
0000
0110
0000
0000
0001
0000
,
0010
0100
1000
0100
,
0001
0100
1000
0001
,
1000
0010
0100
1000
,
0001
0010
0100
0000
0010
0100
1000
0000
,
0001
1000
0001
0100
,
0101
0000
0010
0000
0100
0000
1000
0001
,
0010
0000
0100
0000
1000
0000
0001
0010
,
0100
0001
0100
1000
,
0020
0000
0200
0330
,
0010
0100
0010
0000
1000
0000
0001
0000
,
0100
0000
0010
0000
1000
0000
0001
0010
,
0100
1000
0001
0100
,
0010
0100
1000
0000
0001
0000
0010
0000
,
1001
0000
0010
0000
0100
0000
1000
0001
,
0010
0000
0100
0000
0010
0000
0100
0001
,
0000
0010
0100
0000
1000
0000
0001
0000
,
0100
1000
0001
0000
0010
0000
0100
0000
,
1010
0000
0100
0000
0010
0100
0001
0000
,
1000
0000
0001
0000
0010
0100
1000
0001
,
0000
0100
0010
0000
0100
1000
0001
0000
,
0010
0000
0100
0000
0001
0010
0100
0000
,
1000
0000
0001
0010
0100
0000
0001
0000
,
1000
0000
0001
0010
0100
0000
0010
1000
,
0100
0000
0001
0000
0010
0100
1000
0000
,
0200
0000
0000
0300
,
0001
0000
1000
0000
0001
1000
0010
0000
1000
0000
0100
0000
0010
1000
0001
0000
,
0100
0000
0010
0000
0100
1000
0001
0000
0010
0000
0100
0000
0001
1000
0010
0000
,
0001
0100
0010
0000
1000
0000
0001
0000
0100
0010
1000
0000
0001
0000
0010
0000
,
0100
1000
0001
0000
0010
0100
0001
0000
0010
0000
0100
0000
1000
0000
0000
0000
,
1001
0100
0010
1000
,
0001
0100
0001
0010
0100
1000
0001
0010
,
1001
0010
0100
1000
,
0001
0010
0100
1000
,
0001
0000
0100
0000
,
0010
0000
1000
0000
,
1002
0100
0010
0103
,
1001
0000
0001
0000
0100
0010
1000
0000
,
0100
0000
0010
0000
0001
0010
0100
0000
,
1000
0000
0001
0000
1000
0010
0100
0000
,
0001
0010
0100
0010
0001
0000
1000
0000
,
0001
0000
0100
0000
0010
1000
0100
0000
,
0010
0000
0001
0000
1000
0100
0010
0000
,
0001
0000
0100
0000
0010
1000
0001
0000
,
0110
1100
0110
0101
,
1000
0000
0001
0000
0100
0010
1000
0000
,
0001
0000
0100
0000
0010
1000
0100
0000
,
0010
0000
0001
0000
1000
0100
0010
0000
,
0001
0010
0001
1000
0100
0000
0010
0000
,
2002
0000
0000
3003
,
0001
0000
1000
0000
0010
1000
0001
0000
,
0100
0000
0001
0000
1000
0100
0010
1000
,
0001
0010
0001
0000
0100
0000
0010
0000
,
1000
0010
1000
0000
0100
0000
0010
0000
,
0100
1100
0001
0101
0100
1100
1000
1001
,
0001
0000
0011
0000
1000
0000
1100
0000
0100
0000
0101
0000
1000
0100
1010
0000
,
0101
0000
1001
0000
0100
0010
0100
0010
1000
0001
1000
0000
0110
0000
0100
0000
,
0001
0000
0100
0000
0010
0000
1000
0000
0100
0000
0010
0000
0100
0000
1000
0000
0001
0100
0001
0000
0010
0000
0100
0000
0010
0000
0001
0000
0100
0000
0010
0000
,
0100
1000
0010
0000
0100
0000
0010
0001
,
0100
0001
1000
0100
,
0010
0001
0100
0000
1000
0000
0010
0000
,
0100
1000
0010
0000
1000
0000
0010
0000
,
0100
0010
0001
0000
0100
0000
0001
0010
,
1000
0000
0100
0000
1000
0000
0100
0001
,
1000
0000
0010
1000
0100
0000
0010
0000
,
1000
0100
0001
0000
0010
0000
0001
0000
,
0010
1000
0100
0000
0010
0000
0100
0000
,
1000
0001
0100
0000
0010
0000
0001
0000
,
1000
0100
0010
0000
1000
0000
0010
0000
,
0100
0010
0001
0000
0010
0000
0100
0000
,
1000
0010
0001
0000
0100
0000
0001
0000
,
0100
1000
0001
0000
1000
0000
0010
0000
,
1000
0010
0100
0000
1000
0001
0010
0000
,
0220
0000
0000
0330
,
1000
0100
0001
0000
0100
0000
0010
0000
,
0100
0000
1000
0000
0001
0000
0100
1000
,
0010
0100
1000
0001
,
0010
0100
1000
1001
,
0010
0000
0100
0000
,
1000
0000
0001
0010
,
0100
0000
1000
0000
,
0001
0000
0100
1000
,
0010
0000
0100
0000
,
1000
0001
0010
0100
,
1000
0100
0010
0110
,
1001
0000
0001
0000
0100
0010
1000
0000
,
0100
0000
0010
0000
0001
0010
0100
0000
,
1000
0000
0001
0000
1000
0010
0100
0000
,
0001
0010
0100
0010
0001
0000
1000
0000
,
0001
0000
0100
0000
0010
1000
0100
0000
,
0010
0000
0001
0000
1000
0100
0010
0000
,
0001
0000
0100
0000
0010
1000
0001
0000
,
0110
1100
0110
0101
,
1000
0000
0001
0000
0100
0010
1000
0000
,
0001
0000
0100
0000
0010
1000
0100
0000
,
0010
0000
0001
0000
1000
0100
0010
0000
,
0001
0010
0001
1000
0100
0000
0010
0000
,
1000
0000
0100
0000
0010
0100
0001
0000
,
1000
0000
0001
0000
0010
0100
1000
0001
,
0000
0100
0010
0000
0100
1000
0001
0000
,
0010
0000
0100
0000
0001
0010
0100
0000
,
1000
0000
0001
0010
0100
0000
0001
0000
,
1000
0000
0001
0010
0100
0000
0010
1000
,
0100
0000
0001
0000
0010
0100
1000
0000
,
0200
0000
0000
0000
,
0300
0000
0000
0000
;

//--------------- dance-single - ----------------
#NOTES:
     dance-single:
     :
     Hard:
     17:
     0.871253,1.46427,0.318012,0.261477,0.480552,863,818,45,37,0,0,0.871253,1.46427,0.318012,0.261477,0.480552,863,818,45,37,0,0:
0000
0000
0000
0000
,
0000
0000
0000
0000
,
0000
0000
0000
0000
,
0000
0000
0000
0000
,
0000
0000
0000
0000
,
1000
0100
1000
0010
,
0100
0001
0010
0001
,
1000
0100
0010
0001
,
0100
0000
0010
0000
1000
0001
1000
0000
,
1000
0000
0010
2000
0000
3000
0010
0001
0100
0000
0010
2000
0000
3000
0100
0000
,
0010
0000
0001
2000
0000
3000
0001
0000
0010
0000
0001
0000
0100
0000
0010
0000
,
0001
0000
1000
0200
0000
0300
0010
0000
0001
0000
0010
0002
0000
0003
0100
0000
,
0020
0230
1300
1001
,
0010
0000
0100
0002
0000
0003
0010
0000
0001
0000
0100
0000
0001
0000
0010
0001
,
0100
0000
0010
0200
0000
0300
1000
0000
0010
0000
0100
2000
0000
3000
0100
0000
,
0010
0000
0001
2000
0000
3000
0100
0001
0100
0000
0010
0000
0001
1000
0001
0100
,
0020
0000
0200
0330
,
0010
1000
0001
0100
0010
0001
1000
0100
,
1000
0001
0010
0100
0001
1000
0100
0010
,
0001
0010
0100
1000
0100
0010
0100
0001
,
0100
1000
0100
1000
0001
0100
0001
0000
,
0010
0100
0000
0000
1000
0001
0000
0000
0100
0010
0000
0000
0001
0100
0000
0000
,
1000
0010
0000
0000
0100
0001
0000
0000
1000
0000
0010
0000
0100
0000
0010
0000
,
0100
0000
0001
0000
1000
0100
0000
0000
0010
0001
0000
0000
0100
0010
0000
0000
,
1000
0001
0000
0000
1000
0100
0000
0000
1000
0001
0000
0000
1000
0100
0000
0000
,
0100
0000
0010
0000
0100
0000
1000
0000
0100
0000
0010
0000
0001
0100
1000
0000
,
0001
0010
0100
1000
0010
1000
0001
0010
,
0100
0001
1000
0000
0010
0000
1000
0000
0100
0000
0010
0000
0100
0000
1000
0001
,
0100
0010
0001
1000
0020
0000
0032
0000
,
0013
1000
0100
0000
0010
0000
1000
0000
0100
0000
1000
0000
0010
0000
1000
0000
,
0100
0000
0010
1000
0100
0000
0010
0100
0001
0000
0010
0000
0100
0010
1000
0000
,
0001
0010
0100
0000
0001
0000
0100
0000
0010
0100
1000
0001
0100
0010
1000
0001
,
0200
0000
0000
0310
,
0010
0100
1000
0000
0010
0100
1000
0010
0001
0000
1100
0000
0010
0001
0100
1000
,
0001
0000
0100
0000
0001
1000
0010
0100
0001
0000
1010
0000
0100
1000
0010
0001
,
0100
0010
1000
0001
0100
0000
1000
0000
0001
0100
1000
0010
0001
1000
0010
0001
,
0100
0000
1000
0010
0001
1000
0010
0100
0001
0000
1010
0000
0110
0000
0011
0000
,
1001
0000
0000
0000
1000
0000
0001
0010
0100
0000
0000
1000
0000
0000
0100
0000
0020
0000
0000
0000
1030
0000
0000
0000
0100
0000
1000
0100
0010
0000
1000
0000
,
0001
0000
1000
0000
0100
0000
0010
0000
0001
0000
0100
0000
1000
0000
0100
0000
0001
0010
0100
1000
0001
0100
0010
1000
0100
0010
0001
1000
0000
0000
0000
0000
,
0100
1000
0100
1000
0001
0010
0001
0010
,
0100
0010
0001
1000
0100
0010
0001
1000
,
0010
0100
0010
1000
0001
0010
0100
0010
,
0001
0100
0010
0100
0001
0010
0001
0100
,
2000
3001
0220
0330
,
0010
0000
0100
1000
0010
0000
1000
0000
0001
0000
0100
0000
0001
0000
0100
0000
,
0001
0010
1000
0000
0100
0010
1000
0000
0001
0000
0100
1000
0010
0000
0100
0010
,
0001
0000
0100
0000
0001
0000
0010
0000
0001
0000
0100
0000
0010
0000
1000
0001
,
0200
0000
0000
0000
0320
0000
0000
0000
0031
0000
0100
0000
0001
0100
1000
0010
,
0001
0000
0010
0000
0100
1000
0010
0000
0100
0000
0010
0000
0001
1000
0100
0000
,
0001
0000
0010
0000
0100
0001
1000
0000
0100
0000
1000
0100
0001
0000
0010
0001
,
0100
0000
1000
0000
0001
0000
0010
0000
0100
1000
0010
0000
0100
0001
0010
1000
,
0001
0000
0100
0000
0010
0000
0100
0000
0001
1000
0010
0100
0001
0000
1000
0000
,
1001
0000
0001
0100
0010
1000
0100
0010
,
0100
0000
1000
0000
0100
0000
0010
0000
0001
0000
0100
0010
0001
0000
0100
1000
,
0010
0100
0001
0010
0100
0010
0100
0010
,
2000
3200
0302
0000
,
2000
0000
0000
0000
0000
0000
0000
3003
,
1001
0000
1000
0000
1010
0000
0011
0000
1010
0000
1100
0000
0010
0001
0010
0000
,
0010
0000
0000
0000
0001
1000
0001
1000
0001
0000
0000
0000
1000
0000
0010
0000
0100
0000
0000
0000
0002
0000
0000
0000
1003
0000
0000
0000
0110
0000
0000
0000
,
0100
0000
0000
0000
0001
0000
0000
0000
0101
0000
0000
0000
1100
0000
0000
0000
0101
0000
0000
0000
0011
0000
0000
0000
1000
0000
0000
0000
0100
0000
0100
0010
,
0100
0000
0000
0000
1100
0000
0000
0000
1010
0000
0000
0000
0100
0000
0100
0000
0001
0000
1000
0100
1000
0100
1000
0000
0001
0000
0000
0000
0100
0000
0000
0000
,
0010
0101
0010
1100
0010
0101
0010
1100
,
0001
0110
1000
0110
0010
1001
0100
1001
,
0002
0010
0100
1000
0010
0100
0010
1003
,
2000
0010
0100
0001
0010
0100
0001
3010
,
1000
0010
0001
0010
1000
0100
0010
1000
,
0001
0000
1000
0000
0010
0000
0100
1000
0000
1000
0100
0000
0010
0000
1000
0000
,
0001
0100
1000
0100
0001
0010
0100
0001
,
1000
0000
0001
0000
0100
0000
0010
0001
0000
0001
0010
0000
0100
0000
0010
0000
,
1000
0010
0001
0010
1000
0100
0010
1000
,
0001
0000
1000
0000
0010
0000
0100
1000
0000
1000
0100
0000
0010
0000
1000
0000
,
0001
0100
1000
0100
0001
0010
0100
0001
,
1000
0000
0001
0000
0100
0000
0010
0001
0000
0001
0010
0000
0100
0000
1000
0000
,
0010
0100
0001
0010
,
0001
0010
0100
1000
,
0010
0100
0010
1000
,
0010
1000
0100
1000
,
0010
1000
0100
0010
0001
0010
0100
1000
,
0001
0010
0100
1000
0010
0001
1000
0100
,
0001
0010
1000
0001
0100
0010
1000
0001
,
0200
0000
0000
0300
,
0001
1000
0100
0000
1000
0000
0001
0000
,
0100
0000
0010
0000
1000
0000
0001
1000
,
0100
0010
1000
0001
0010
0100
1000
0001
,
0010
0100
1000
1001
,
1001
0000
1001
0000
,
1100
0000
1100
0110
,
1001
0000
1001
0000
,
1000
0100
1000
0100
,
0001
0000
1001
0000
,
0011
0000
0011
0000
,
1001
1001
0101
1001
,
0001
0010
0001
0000
1000
0000
0010
0000
0200
0000
0000
0000
0310
0000
1000
0000
,
0100
0010
0100
0000
0010
0000
0001
0000
2000
0000
0000
0000
3001
0000
0000
0000
,
0100
0001
0100
0000
0001
0000
1000
0000
0200
0000
0000
0000
0310
0000
0001
0000
,
1000
0001
1000
0000
0010
0000
1000
0000
0100
0000
0010
0000
0001
0000
0000
0000
,
0100
1000
0100
0000
1000
0000
0001
0000
0200
0000
0000
0000
0301
0000
1000
0000
,
0010
1000
0010
0000
1000
0000
0001
0000
0200
0000
0000
0000
0301
0000
0000
0000
,
0010
0001
0010
0000
0001
0000
0100
0000
0020
0000
0000
0000
1030
0000
0001
0000
,
0010
0100
0010
1001
,
0001
0010
0100
1000
0010
0100
0001
1000
,
0001
0010
0100
0000
1000
0010
0100
0000
0001
0010
0100
0000
1000
0010
0100
0000
,
0001
0100
0010
1000
0100
0010
0001
1000
,
0001
0000
0100
0010
0000
0000
0010
0000
1000
0000
0100
0010
0000
0000
0010
0000
,
0001
0001
0010
0010
0100
0100
1000
1000
,
0010
0010
0100
0100
0001
0001
1000
1000
,
0001
0010
0100
0010
0100
0010
0001
0100
,
0010
1000
0010
1000
0100
0010
0001
0100
,
0010
0100
0010
1000
0100
0010
0001
0100
,
0001
0010
0100
1000
0001
0010
0100
0001
,
0010
0100
0010
0000
0100
0010
0100
0000
0001
0010
0100
0010
0100
1000
0001
1000
,
0200
0000
0000
0000
,
0300
0000
0000
0000
;
