#TITLE:SUPER AMBULANCE;
#ARTIST:NAMCO Sound Team "AJURIKA";
#GENRE:EXTRA EXCLUSIVE;
#MUSIC:SUPER AMBULANCE.ogg;
#BANNER:SUPER AMBULANCE.png;
#BACKGROUND:EXTRA EXCLUSIVE-bg.png;
#CDTITLE:./CDTitles/jubeat bright.png;
#SAMPLESTART:100.781;
#SAMPLELENGTH:15.000;
#SELECTABLE:YES;
#OFFSET:0.000;
#BPMS:0.000=100.000
,20.000=200.000
,48.750=400.000
,52.000=200.000
,84.000=100.000
,92.000=200.000
,132.000=100.000
,134.000=200.000
,134.500=100.000
,135.250=50.000
,136.000=25.000
,136.250=50.000
,137.000=100.000
,138.000=200.000
,140.000=400.000
,144.000=200.000
,158.000=400.000
,162.000=100.000
,178.000=200.000
,236.000=100.000
,240.000=200.000
,252.000=400.000
,268.000=200.000
,382.000=100.000
,383.000=400.000
,386.000=100.000
,387.000=400.000
,391.000=200.000
,399.000=100.000
;
#STOPS:48.000=0.075
,48.250=0.150
,48.750=0.262
,100.000=0.100
,100.333=0.100
,100.667=0.100
,101.000=0.100
,101.333=0.100
,101.667=0.100
,102.000=0.100
,102.333=0.100
,102.667=0.100
,103.000=0.100
,103.333=0.100
,103.667=0.098
,187.000=0.240
,187.667=0.353
,188.000=0.250
,188.667=0.353
,189.000=0.297
,190.000=0.353
,190.333=0.244
,191.000=0.353
,191.333=0.253
,192.000=0.297
,193.000=0.353
,193.333=0.244
,194.000=0.353
,194.333=0.247
,300.000=0.075
,300.250=0.150
,300.750=0.150
,301.250=0.075
,330.000=0.150
;
#DISPLAYBPM:*;
#BGCHANGES:;
#FGCHANGES:;

//--------------- dance-single - ----------------
#NOTES:
     dance-single:
     :
     Beginner:
     7:
     0,0,0,0,0:
0000
0000
0000
0000
,
0000
0000
0000
0000
,
0000
0000
0000
0000
,
0000
0000
0000
0000
,
0000
0000
0000
0000
,
0020
0000
0000
0000
,
0030
0000
0000
0000
,
0200
0000
0000
0000
,
0300
0000
0000
0000
,
1000
0000
0001
0000
,
0100
0000
0010
0000
,
1000
0001
0100
0010
,
0100
0000
0000
0000
,
1000
0000
0010
0000
,
0100
0010
0001
0000
,
0010
0000
0100
0000
,
1000
0001
0100
0000
,
0010
0000
0100
0000
,
1000
0001
0100
0000
,
0010
0000
0001
0000
,
0010
0100
1000
0000
,
0010
0000
0100
0000
,
1000
0000
0001
0000
,
0010
0000
0100
0000
,
1000
0000
0001
0000
,
2000
0000
3002
0000
,
0103
0000
0100
0000
,
1000
0000
0000
0000
,
0001
0000
0100
0000
,
0010
0000
0000
0000
,
1000
0000
0001
0000
,
0100
0000
0010
0000
,
0100
0000
1000
0000
,
0001
0000
0200
0000
,
0300
0020
0000
0000
0000
0000
0000
0000
,
0030
0000
0000
0000
,
1000
0000
0100
0000
,
1000
0000
0001
0000
,
0100
0000
0010
0000
,
0100
0000
0100
0002
0000
0000
0000
0000
,
0000
0000
1003
0100
,
0000
0010
1000
0001
,
0100
0000
0000
0010
0000
0100
0000
0000
0001
0000
0000
0000
0100
0000
0000
0000
,
1000
0001
0100
0010
,
0001
0000
1000
0000
0001
0000
0000
0001
,
0000
0000
0001
0000
0000
0010
0000
0000
,
0100
0010
0000
2000
,
0000
3000
0002
0000
,
0003
0200
0000
0000
,
0000
0320
0000
0000
,
1030
0000
0000
0000
0000
0000
0000
1001
,
0000
0000
0100
0000
0000
0100
0000
0000
,
0100
0000
0000
0010
0000
0000
0001
0000
,
0000
0000
0010
0000
0000
0010
0000
0000
,
0010
0000
0000
0100
0000
0000
1000
0000
,
0000
0000
0100
0000
0000
0010
0000
0000
,
0001
0000
0000
0100
0000
0000
0010
0000
,
0100
0000
1000
0000
0000
1000
0000
0000
,
0001
0000
0000
0001
0000
0000
0100
0000
,
0020
0000
0000
0000
,
0130
0000
1000
0000
,
0001
0000
0100
0000
,
1000
0010
0100
0010
,
0100
0000
1000
0000
,
0010
0000
0001
0000
,
1000
0001
1000
0000
,
0010
0100
0010
0000
,
1001
0000
0000
0110
0000
0000
1001
0000
,
0001
1000
0010
1000
,
1100
0101
1100
0000
,
1000
0001
0010
0001
,
0101
1100
0101
0000
,
0001
1000
0100
1000
,
1010
0011
1010
0000
,
1000
0001
0100
0001
,
0020
0000
0000
0000
0030
0000
0000
0010
,
0000
1000
0000
0100
0010
0100
0000
1100
,
0000
0110
0000
0011
0000
0000
0000
0010
,
0000
0001
0000
0100
0010
0100
0000
0101
,
0000
0110
0000
1010
0000
0000
0000
1000
,
0000
0001
0000
0100
0000
0010
1000
0010
,
0000
0100
0000
0001
0000
0010
0100
1000
,
0000
1000
0000
0001
0000
0001
1000
0001
,
0100
0010
0100
0000
0010
1000
0001
1000
,
1001
0000
0000
0000
0010
0001
1000
0001
,
1001
0000
0000
0000
0010
0001
0100
0000
,
0010
1000
0100
0000
0010
0001
0100
0010
,
0110
0000
0000
0000
1000
0010
0100
0001
,
1001
0000
0000
0000
0001
0100
0010
1000
,
1001
0000
0000
0000
1000
0100
0001
0100
,
0110
0000
0000
0000
0010
1000
0001
1000
,
1001
0000
0000
0000
0010
0001
1000
0001
,
1001
0000
0000
0000
0010
0001
0100
0000
,
0010
1000
0100
0000
0010
0001
0100
0010
,
0110
0000
0000
0000
1000
0010
0100
0001
,
1001
0000
0000
0000
0001
0100
0010
1000
,
0001
0000
0000
0000
1000
0100
0001
0100
,
0010
0000
0000
2002
,
0000
0000
0000
3003
0000
0000
0000
0220
,
0000
0000
0330
0220
0000
0330
2002
0000
,
0000
0000
0000
0000
0000
0000
0000
0000
0000
0000
0000
0000
0000
0000
0000
3003
;

//--------------- dance-single - ----------------
#NOTES:
     dance-single:
     :
     Easy:
     9:
     0,0,0,0,0:
0000
0000
0000
0000
,
0000
0000
0000
0000
,
0000
0000
0000
0000
,
0000
0000
0000
0000
,
0000
0000
0000
0000
,
0200
0000
0000
0000
,
0302
0000
0000
0000
,
0023
0000
0000
0000
,
0230
0000
0000
0000
,
0301
0010
1000
0100
,
0010
0000
0001
0000
0100
0010
0100
0000
,
0001
0010
1000
0000
0010
1000
0100
0000
,
0010
0000
0000
0000
,
0001
0000
0010
0000
0100
1000
0001
0000
,
0010
0100
1000
0001
,
0100
0000
1000
0000
0010
1000
0100
0000
,
0001
1000
0010
0001
,
0100
0000
1000
0000
0010
0001
0100
0000
,
0001
1000
0010
0001
,
0100
0000
0010
0000
1000
0100
0001
0000
,
0100
0010
0001
1000
,
0100
0000
1000
0000
0010
0001
0100
0000
,
0001
0000
0010
0000
1000
0010
0001
0000
,
0100
1000
0010
0100
,
0001
0010
1000
0010
,
0002
0000
2003
0000
,
3010
0001
0010
1000
,
0001
0000
0100
0000
0001
0000
0010
0100
,
1000
0001
0010
1000
,
0100
0000
1000
0000
0100
0000
0010
0100
,
0001
0010
1000
0100
,
0010
0001
0100
1000
,
0010
0100
0001
0010
,
1000
0001
1000
0100
0020
0000
0000
0000
,
0030
0200
0000
0000
0000
0000
0000
0000
,
0310
0000
1000
0000
,
0001
1000
0010
0100
,
0001
0010
1000
0100
,
0010
1000
0100
0001
,
0100
0000
0100
0002
0000
0000
0000
0000
,
0000
0000
0003
0000
0001
1000
0010
0000
,
0001
0010
0100
1000
0001
0010
1000
0000
,
0010
0000
0000
0100
0000
0010
0000
0000
1000
0000
0100
0000
0010
0000
0000
0000
,
0001
0010
1000
0100
0010
0001
0100
0000
,
1000
0010
0001
0100
1000
0000
0000
1000
,
0000
0000
1000
0000
0000
0100
0000
0000
,
0010
0100
1000
0002
,
0000
0003
2000
0000
,
3000
0020
0000
0000
,
0000
0230
0000
0000
,
0301
0000
0000
0110
0000
0000
0010
1000
,
0000
0000
0010
0000
0000
0010
0000
0000
,
0010
0000
0001
0100
0000
0000
1000
0000
,
0000
0000
0100
0000
0000
0100
0000
0000
,
0100
0000
0001
0010
0000
0000
0001
0000
,
0000
0000
0010
0000
0000
0100
0000
0000
,
1000
0000
0100
0010
0000
0000
0100
0000
,
0010
0000
0001
0000
0000
0001
0000
0000
,
1000
0000
0001
1000
0000
0000
0010
0000
,
0100
1000
0010
0100
0010
1000
0100
1000
,
0010
0001
1000
0100
,
1000
0001
0010
1000
,
0001
1000
0100
0000
0010
0001
0100
0000
,
0010
0000
0001
0000
,
0100
0000
1000
0000
,
0001
1000
0001
0000
,
0100
0010
0100
0000
,
1001
0000
0000
0110
0000
0000
1001
0000
,
1000
0000
0001
0010
0100
0000
0001
0000
,
0011
1010
0011
0100
,
0001
0000
1000
0000
0100
0001
1000
0000
,
1010
0011
1010
0100
,
1000
0000
0001
0000
0010
1000
0001
0000
,
0101
1100
0101
0010
,
0001
0000
1000
0000
0010
0001
1000
0000
,
0200
0000
0000
0000
0310
0000
0000
0100
,
1000
0001
0000
0010
0100
0010
0000
0011
,
0000
0110
0000
1100
0000
0001
0000
0100
,
0000
1000
0001
0010
0100
0010
0000
1010
,
0000
0110
0000
0101
0000
1000
0100
0001
,
0010
1000
0000
0010
0000
0100
0001
0100
,
0000
0010
0000
1000
0000
0100
0010
0001
,
1000
0001
0000
1000
0100
1000
0001
1000
,
0010
0100
0010
0000
0100
0001
1000
0001
,
1001
0000
0010
0000
0100
1000
0001
1000
,
1001
0000
0010
0000
0100
1000
0010
0000
,
0100
0001
0010
0000
0100
1000
0010
0100
,
0010
1000
0100
0010
0001
0100
0010
1000
,
1001
0000
0010
0000
1000
0010
0100
0001
,
1001
0000
0010
0000
0001
0010
1000
0010
,
0001
1000
0010
0001
0100
0001
1000
0001
,
1001
0000
0000
0000
0100
1000
0001
1000
,
0001
0100
0001
0000
0100
1000
0010
0000
,
0100
0001
0010
0000
0100
1000
0010
0100
,
0100
0000
0010
0000
0001
0100
0010
1000
,
1001
0000
0100
0000
1000
0010
0100
0000
,
1000
0000
0000
0000
0001
0010
1000
0000
,
0100
0000
0000
2002
,
0000
0000
3003
0110
0000
0000
0000
0202
,
0000
0000
0303
2200
0000
3300
2002
0000
,
0000
0000
0000
0000
0000
0000
0000
0000
0000
0000
0000
0000
0000
0000
0000
3003
;

//--------------- dance-single - ----------------
#NOTES:
     dance-single:
     :
     Medium:
     13:
     0,0,0,0,0:
0000
0000
0000
0000
,
0000
0000
0000
0000
,
0000
0000
0000
0000
,
0000
0000
0000
0000
,
0000
0000
0000
0000
,
0002
0000
0000
0000
,
0203
0000
0000
0000
,
0320
0000
0000
0000
,
2030
0000
0000
0000
,
3001
0010
0100
1000
,
0001
1000
0100
0000
0010
0001
1000
0000
,
0001
0010
0100
1000
0001
0010
0100
0001
,
0010
1000
0000
0200
0000
0000
0000
0000
0000
0000
0000
0000
0000
0000
0000
0000
,
0310
0000
0101
0000
1000
0010
0001
0000
,
0010
1000
0001
0100
0010
0001
0100
0000
,
0001
0000
1100
0000
0010
1000
0001
0000
,
0010
1000
0001
1000
0010
0001
0100
0000
,
1000
0000
0110
0000
0010
1000
0001
0000
,
0100
1000
0001
1000
0010
0001
0100
0000
,
1000
0000
0101
0000
0100
1000
0001
0000
,
0010
1000
0001
0100
1000
0010
0100
0000
,
0010
1000
0001
0100
0010
0100
1000
0001
,
0100
0010
0001
0010
0100
0001
0010
0100
,
1000
0001
0010
0000
0100
1000
0001
0010
,
1000
0000
1000
0001
0000
0010
0100
0000
,
0100
0100
0100
0100
0100
0100
0010
0010
0010
0010
0010
0010
,
0010
1000
0100
0000
0001
0010
0100
0000
,
0001
1000
0100
0001
0010
0100
1000
0010
,
0001
1000
0010
0000
0100
0001
0010
0000
,
0100
1000
0010
0100
0001
0010
1000
0000
,
0100
1000
0010
0000
0100
0001
1000
0000
,
0100
1000
0010
0000
0001
0100
1000
0000
,
0100
0001
0010
0000
0100
0001
1000
0000
,
0001
0000
0010
0000
0100
0000
1000
0000
0010
0000
0000
0100
0000
0010
1000
0100
,
0001
0010
0100
0000
0010
0000
0001
0000
1000
0000
0000
0000
0100
0000
0000
0000
0001
0000
0000
0000
0000
0000
0000
0000
0100
0000
0000
0000
0000
0000
0000
0000
,
0010
0000
0100
0000
,
1000
0001
0100
0000
1000
0001
0100
0000
,
0010
0100
0001
0000
0010
0100
0001
0000
,
1000
0001
0010
0100
1000
0001
0010
1000
,
0100
0000
0100
0002
0000
0000
0000
0000
,
0000
0000
0000
0000
1003
0010
0100
0001
,
1000
0000
0010
0000
1000
0000
0001
0000
0100
0010
0001
0000
0100
0000
0001
0000
,
0010
0000
0100
0001
0000
1000
0001
0000
0210
0000
1300
0100
0010
1000
0001
0100
,
0010
0000
0100
0000
1000
0000
0001
0000
0100
0000
0000
0000
0010
0000
1000
0001
1000
0000
0100
0000
0001
0000
0010
0000
0100
0000
0001
0000
1000
0000
0010
0000
,
0100
0001
0010
0100
1000
0010
1000
0001
0010
0000
0000
0000
0100
0000
0100
0000
,
0000
0000
0000
0000
2001
0000
0000
0000
0000
0000
0020
0000
0000
3000
0000
0000
,
0200
0000
0000
0030
0000
0000
0310
0000
0000
0000
0000
0000
1001
0000
0000
0000
0000
0000
0100
0000
0000
0000
0100
0000
,
0100
0000
0100
0100
0000
0000
0010
0010
0000
0010
0010
0000
,
0010
0000
0000
1000
1000
0000
0001
0001
0000
0200
0000
0000
,
0310
0001
0010
0001
1000
0001
1000
0100
,
0022
0000
0033
2002
0000
3003
0000
0220
,
0000
0330
0000
0000
1001
0000
0000
0000
0100
0000
0010
0000
0000
0000
0100
0000
,
1000
0000
0000
1001
0000
0010
0012
0000
,
0003
0000
0110
0000
0001
1000
0000
0010
,
0100
0000
0100
0010
0000
1000
0001
0000
,
0010
0000
1010
0000
0010
0100
0000
0001
,
1000
0000
0010
0100
0000
0000
1001
0000
,
0000
0000
0110
0000
0100
0010
0000
0001
,
1000
0000
0010
0100
0000
0010
0110
0000
,
0010
1000
0100
0010
0001
0010
0100
0001
,
0010
1000
0010
0100
,
1000
0001
0100
0010
,
0001
1000
0100
0010
0001
0010
0100
0010
,
0100
1000
0010
0100
,
0001
0100
0010
0100
,
0010
0100
1000
0000
0010
0001
1000
0000
,
0100
0001
1000
0000
0001
1000
0010
0000
,
0200
0000
0000
0310
0000
0001
1001
0000
,
0010
0000
1000
0001
0010
0001
0100
1000
,
0010
0000
0001
0000
1000
0010
1000
0000
0100
0000
0010
0000
1000
0000
0010
0000
,
0001
0000
0000
0000
0100
0000
0010
0000
0001
0000
0010
0000
0100
0000
1000
0010
,
0001
0100
1000
0010
0100
0001
0010
0001
,
0100
0000
0000
0010
1000
0000
0100
0000
0001
0000
0010
0000
0100
0000
1000
0000
,
0010
0001
1000
0000
0100
1000
0010
0100
,
0001
0010
0100
1000
0001
0100
0010
1000
,
0001
0100
0000
0100
0000
0001
0000
0000
1001
0000
0000
0000
0200
0000
0310
0000
,
0001
1000
0100
0001
0010
0100
1000
0001
,
0010
0000
1000
0001
0100
0000
0000
0000
0001
0000
0010
0000
1000
0000
0001
0000
,
0100
0010
0100
0000
1000
0000
0001
0000
0100
0000
1000
0000
0010
0000
0001
0000
,
0100
0010
1000
0010
0001
1000
0100
0001
,
0010
1000
0100
0000
0001
1000
0010
0001
,
0100
0000
1000
0100
0220
0000
0330
0000
,
0010
0100
1000
0100
0010
0100
0010
0100
,
0001
0000
1000
0000
0010
0001
0010
1000
0100
0000
0000
0000
0010
0000
0001
0000
,
0100
0010
1000
0001
0100
0010
1000
0100
,
0001
1000
0010
0001
0100
0010
1000
0100
,
0010
1000
0100
0010
0001
0010
0100
1000
,
0010
0001
0100
1000
0001
0100
0010
0100
,
0001
0010
1000
0100
0001
1000
0010
0001
,
0100
0010
1000
0100
0001
1000
0010
0001
,
0100
1000
0010
0100
0001
1000
0010
0100
,
0001
0010
0100
0010
0001
1000
0010
0001
,
0100
1000
0010
0001
0100
0010
1000
0001
,
0100
0010
1000
0010
0001
0100
1000
0001
,
0010
1000
0100
0001
0010
0001
0100
1000
,
0010
0100
1000
0010
0002
0000
2003
0000
,
0000
0000
3200
0320
,
0000
0000
0000
0230
,
0000
0000
0000
0302
0000
0000
1003
1002
,
0000
0000
0000
0203
0000
0310
2002
0000
,
0000
0000
0000
0000
0000
0000
0000
0000
0000
0000
0000
0000
0000
0000
0000
3003
;

//--------------- dance-single - ----------------
#NOTES:
     dance-single:
     :
     Hard:
     17:
     0,0,0,0,0:
0000
0000
0000
0000
,
0000
0000
0000
0000
,
0000
0000
0000
0000
,
0000
0000
0000
0000
,
0000
0000
0000
0000
,
2002
0000
0000
0000
,
0000
0000
3000
0000
,
0200
0000
0000
0000
,
0003
0000
0000
0000
,
0310
0001
1000
0001
0100
0001
0010
0100
,
0010
0001
1000
0010
0100
0010
0100
0010
,
0001
0100
0010
1000
0001
0010
0001
0010
0001
0100
0010
1000
0010
0100
0010
1000
,
0100
0010
0000
2002
0000
0000
0000
0000
0000
0000
0000
0000
3003
0000
0000
0000
,
1001
0000
0000
0000
0110
0000
0001
0000
1000
0100
0001
0000
0100
0000
1000
0000
,
0001
0010
1000
0000
1000
0010
0001
0000
1000
0000
0010
0000
0200
0000
0000
0000
,
0310
0000
0000
0000
0110
0000
1000
0000
0001
0010
1000
0000
0010
0000
0001
0000
,
1000
0100
0001
0000
0001
0100
1000
0000
0001
0000
0100
0000
0020
0000
0000
0000
,
0130
0000
0000
0000
0110
0000
0001
0000
1000
0010
0001
0000
0010
0000
1000
0000
,
0001
0100
1000
0000
1000
0100
0001
0000
1000
0000
0100
0000
0020
0000
0000
0000
,
0130
0000
0000
0000
0110
0000
1000
0000
0001
0100
1000
0000
0100
0000
0001
0000
,
1000
0010
0001
0000
0001
0010
1000
0000
0100
0000
0010
0000
0110
0000
0000
0000
,
0001
0000
0000
0000
0100
0000
0000
0000
0010
0000
0000
0000
0100
0000
0000
0000
0010
0000
0000
0000
1000
0000
0000
0000
0010
0000
0000
0000
0100
0000
0010
1000
,
0001
0000
0000
0000
0100
0000
0000
0000
0010
0000
0000
0000
1000
0000
0010
0000
0001
0000
0000
0000
1000
0000
0000
0000
0001
0000
0000
0000
1000
0001
0000
1000
,
0010
0100
0001
0010
0001
1000
0010
1000
,
0010
1000
0001
0100
0010
0100
0020
0000
,
1030
0100
0010
0001
0010
0100
1000
0100
0010
0001
0010
1000
,
0100
0010
1000
0100
1000
0001
1000
0001
,
0010
0100
0010
0100
0010
0001
1000
0010
,
1000
0100
1000
0001
0010
0001
0100
0010
,
1000
0100
1000
0010
1000
0001
0100
0001
,
1000
0010
1000
0100
0010
0100
0010
0001
,
1000
0100
1000
0001
0100
0001
0100
0001
,
1000
0100
1000
0100
0010
0001
1000
0010
,
0020
0000
0000
0000
0230
0000
0000
0000
2300
0000
0000
0000
3020
0000
0000
0000
0031
0000
0000
0000
1000
0000
0010
0000
0001
0000
1000
0100
0001
0010
0100
1000
,
0010
0001
0100
1000
0010
0000
0001
0000
0100
0000
0010
0000
0100
0000
1000
0000
0001
0000
0000
0000
0100
0000
0000
0000
0010
0000
0000
0000
0100
0000
0000
0000
0001
0000
0000
0000
0000
0000
0000
0000
1000
0000
0000
0000
0000
0000
0000
0000
0100
0000
0000
0000
0000
0000
0000
0000
0010
0000
0000
0000
0000
0000
0000
0000
,
0001
0100
1000
0100
,
0100
0010
0100
0010
0100
1000
0010
1000
,
0100
0010
0100
0010
0001
0100
0001
0010
,
0100
0010
0100
1000
0010
1000
0001
0010
,
0100
0000
0100
0002
0000
0000
0000
0000
,
0000
0000
0000
0000
0000
0000
0000
0000
1003
0000
0100
0000
0001
0010
0100
0000
,
1010
0000
0001
0000
0010
1000
0000
0001
1000
0010
0100
0000
0001
0100
1000
0001
,
0020
0000
2030
0000
0000
3002
0000
0000
1003
0000
0100
0001
0010
0001
1000
0001
,
0100
0000
0020
0000
0000
0000
0000
0000
1030
0000
0000
0000
0000
0000
0001
0010
0100
0000
0000
0000
1000
0000
0010
0000
0100
0000
0010
0000
0001
0000
1000
0000
,
0100
0010
0001
1000
0100
0010
1000
0001
0220
0000
0000
0000
0330
0000
2002
0000
,
0000
3003
0202
0000
0303
2002
0000
3003
,
0100
0000
0000
0010
0000
0000
0110
0000
0000
1001
0000
1010
,
0110
0000
0110
1001
0000
0000
0101
0110
0000
1001
0110
0000
,
1001
0000
0000
0000
0000
0000
0101
0000
1010
0000
0000
0000
0110
0000
1001
0000
0000
0000
0100
0000
0000
1000
0000
0000
,
0100
1000
0100
1000
0001
1000
0001
0010
,
2200
0000
3300
2002
0000
3003
0000
0220
,
0000
0330
0000
0000
1001
0000
0000
0000
1000
0010
0100
0000
0001
0000
0010
0001
,
0010
0001
1000
0001
0000
0001
0100
0000
0010
1000
0010
0000
2000
0000
0100
0000
,
3001
0000
0000
0000
1001
0000
0000
0000
0010
0100
0010
0000
1000
0000
0100
0010
,
0100
0010
0001
0010
0001
0000
0001
0000
1000
0000
1000
0000
0020
0000
0100
0000
,
1030
0000
0000
0000
1001
0000
0000
0000
0001
0010
0100
1000
0100
0000
1000
0001
,
1000
0001
1000
0000
0001
0010
0001
0000
0100
0000
0010
0000
0200
0000
0010
0000
,
0301
0000
1000
0000
0001
0010
0100
0000
1000
0010
0100
0000
0001
0010
0100
0000
,
1000
0010
0100
0000
0010
0000
0000
0010
0000
0000
0010
0100
0010
0000
1000
0000
,
0001
0100
1000
0100
0001
1000
0001
0100
,
0010
1000
0001
0100
,
0010
0100
1000
0001
,
0100
0010
0001
1000
0001
0010
0100
0010
,
0100
1000
0100
1000
0100
0010
0001
1000
,
0100
1000
0001
1000
0001
0100
0001
1000
,
0010
1000
0100
0010
0001
0100
0010
0100
,
0001
0100
0010
1000
0010
1000
0001
0010
,
0220
0000
0330
1001
0000
0001
2002
3003
,
1001
0000
0100
1000
0000
0010
1000
0000
0100
0010
0000
0001
0100
0010
0100
0001
,
1000
0000
0100
0010
0000
0001
1000
0000
0010
0100
0000
0001
1000
0010
1000
0100
,
1000
0000
0100
0001
0000
0100
1000
0000
0010
0000
1000
0000
0001
0100
0001
0100
,
0002
0000
0000
0000
0103
0000
0000
0000
1010
0000
0000
1100
0000
0000
0101
0000
,
1000
0000
0000
0000
0110
0000
0001
0000
1000
0010
0000
1000
0100
0010
0001
0000
,
0110
0000
1000
0010
0000
0100
0001
0000
0010
0001
0000
0010
0100
1000
0100
0000
,
0110
0000
0100
0010
0000
0100
1000
0000
0001
0100
0000
0010
0100
1000
0100
0000
,
0010
1001
0000
0110
0000
0110
0000
0000
0101
0000
0000
0000
0010
0000
1000
0000
,
1001
0000
0100
0001
0000
0100
0010
0000
1000
0100
0000
0010
0001
1000
0010
0100
,
0010
0000
1000
0001
0000
0010
1000
0000
0010
0001
0000
1000
0100
1000
0001
0010
,
0001
0000
0100
0010
0000
1000
0010
0000
1000
0001
0000
0010
0100
1000
0100
1000
,
0001
0000
0000
0000
1001
0000
0000
0000
0011
0000
0000
0101
0000
0000
1100
0000
,
1010
0000
0001
0100
0000
0010
1000
0000
0001
0010
0000
0001
1000
0010
0100
0000
,
0110
0000
1000
0100
0000
0010
0001
0000
1000
0010
0000
1000
0001
0010
0100
0000
,
1100
0000
0010
0001
0000
0010
0001
0000
0100
0000
1000
0000
0010
0000
1000
0000
,
0001
0010
1000
0010
0001
0000
0010
0000
1000
0000
0001
1000
0000
0001
0100
0000
,
0001
0000
1000
0001
0000
0100
0001
0000
1000
0000
0001
0100
0000
0001
0010
0000
,
0001
0000
1000
0100
1000
0000
0000
0000
0001
0000
1000
0100
0000
1000
0010
0000
,
1000
0000
0001
0100
0000
0001
0010
0000
0001
0000
1000
0100
0000
1000
0010
0000
,
2000
0000
0000
0000
3100
0000
0010
0000
0001
0000
1000
0001
0000
1000
0100
0000
,
1000
0000
0001
1000
0000
0100
1000
0000
0001
0000
1000
0100
0000
1000
0010
0000
,
1000
0000
0001
0100
0001
0000
0000
0000
1001
0000
0000
1100
0000
0000
0101
0000
,
1001
0000
0000
0011
0000
0000
1010
0000
1001
0000
0000
0110
0000
0000
1010
0000
,
0001
0010
1000
0001
0100
0010
1000
0001
1000
0000
0001
1000
0000
0001
0100
0000
,
0001
0000
1000
0001
0000
0100
0001
0000
1000
0000
0001
0100
0000
0001
0010
0000
,
0001
0000
1000
0100
1000
0000
0000
0000
0001
0000
1000
0100
0000
1000
0010
0000
,
1000
0000
0001
0100
0000
0001
0010
0000
0001
0000
1000
0100
0000
1000
0010
0000
,
2000
0000
3100
0010
0002
0000
0203
0000
,
0000
0000
2300
3020
,
0000
0000
0000
0230
,
0000
0000
0000
0302
0000
0000
0000
2003
,
0000
0000
3001
0110
0000
0000
2002
0000
,
0000
0000
0000
0000
0000
0000
0000
0000
0000
0000
0000
0000
0000
0000
0000
3003
;
