#TITLE:SONIC DRIVE;
#SUBTITLE:TVアニメ「ソニックX」;
#ARTIST:影山ヒロノブ;
#SUBTITLETRANSLIT:TV Anime「SONIC X」;
#ARTISTTRANSLIT:Hironobu Kageyama;
#GENRE:アニメ;
#MUSIC:SONIC DRIVE.ogg;
#BANNER:SONIC DRIVE.png;
#BACKGROUND:SONIC DRIVE-bg.png;
#CDTITLE:./CDTitles/NAMCO MUSEUM.png;
#SAMPLESTART:49.400;
#SAMPLELENGTH:15.000;
#SELECTABLE:YES;
#OFFSET:0.000;
#BPMS:0.000=204.000;
#STOPS:;
#BGCHANGES:;
#FGCHANGES:;

//--------------- dance-single - ----------------
#NOTES:
     dance-single:
     :
     Beginner:
     3:
     0,0,0,0,0:
0000
0000
0000
0000
,
0000
0000
0000
0000
,
0000
0000
0000
0000
,
0000
0000
0000
0000
,
0000
0000
0000
0000
,
0000
0000
0000
0000
,
0010
0000
0000
0001
0000
0000
1000
0000
,
0000
0100
0000
0000
0000
0000
0000
0000
,
0001
0000
0000
0000
,
1000
0000
0000
0000
,
0001
0000
0000
0000
,
0010
0000
0000
0000
,
0100
0000
0000
0000
,
0010
0000
0000
0000
,
1000
0000
0000
0000
,
0001
0000
0000
0000
,
0100
0000
0000
0000
,
1000
0000
0000
0000
,
0001
0000
0000
0000
,
0010
0000
0000
0000
,
0100
0000
0000
0000
,
0010
0000
0000
0000
,
1000
0000
0000
0000
,
0001
0000
0000
0000
,
0100
0000
0000
0000
,
0010
0000
0000
0000
,
0001
0000
0000
0000
,
1000
0000
0000
0000
,
0010
0000
0000
0000
,
0100
0000
0000
0000
,
2000
0000
0000
0000
,
3000
0000
0000
0000
,
0002
0000
0000
0000
,
0003
0000
0000
0000
,
0010
0000
0000
0000
,
0100
0000
0000
0000
,
1000
0000
0000
0000
,
0001
0000
0000
0000
,
0010
0000
0100
0000
,
1000
0000
0000
0000
,
0000
0000
0000
0000
,
0000
0000
0000
0000
,
1001
0000
0000
0000
,
0100
0000
0010
0000
,
0100
0000
1000
0000
,
0001
0000
0100
0000
,
0010
0000
0000
0000
,
1000
0000
0000
0000
,
0001
0000
0010
0000
,
0100
0000
0000
0000
,
1000
0000
0001
0000
,
0010
0000
0000
0000
,
0100
0000
0010
0000
,
0100
0000
0000
0000
,
1000
0001
1000
0000
,
0100
0010
0100
0000
,
0001
0010
0100
0000
,
1000
0000
0001
0000
,
0100
0000
0010
0000
,
1000
0000
0001
0000
,
0010
0000
0100
0000
,
1000
0000
0001
0000
,
0100
0010
0100
0000
,
1000
0000
0001
0000
,
0010
0000
0000
0000
,
1000
0000
0000
0000
,
0001
0000
0000
0000
,
0100
0000
0000
0000
,
0010
0000
0000
0000
,
1000
0000
0000
0000
,
0001
0010
0000
0000
,
0100
0000
0000
0000
,
0000
1000
0000
0000
,
0010
0000
0000
1000
0000
0000
0001
0000
,
0000
0100
0000
0000
0000
0000
1000
0001
,
0000
0000
0000
1001
;

//--------------- dance-single - ----------------
#NOTES:
     dance-single:
     :
     Easy:
     6:
     0,0,0,0,0:
0000
0000
0000
0000
,
0000
0000
0000
0000
,
0000
0000
0000
0000
,
0000
0000
0000
0000
,
0000
0000
0000
0000
,
0000
0000
0000
0000
,
0001
0000
0000
1000
0000
0000
0001
0000
,
0000
0100
0000
0000
0000
1000
0001
0000
,
1000
0000
0010
0000
,
0100
0000
0010
0000
,
0100
0000
1000
0000
,
0001
0010
0100
0000
,
1000
0000
0001
0000
,
0100
0000
0010
0000
,
1000
0000
0000
0000
,
0001
0000
0000
0000
,
0100
0000
0010
0000
,
0100
0000
0000
0000
,
1000
0000
0100
0010
,
0001
0000
0000
0000
,
0010
0000
0100
1000
,
0010
0000
0000
0000
,
0001
0000
0010
0000
,
0100
0000
1000
0000
,
0001
0000
0010
0000
,
0100
0000
0010
0000
,
1000
0100
0010
0000
,
0001
0010
0100
0000
,
1000
0000
0001
0000
,
0100
0010
1000
0000
,
0001
0000
0010
0000
,
0100
0000
0001
0000
,
1000
0000
0001
0000
,
0010
0000
0100
0000
,
1000
0001
0100
0000
,
0010
0000
0100
0000
,
0010
0000
1000
0000
,
0001
0000
0010
0100
,
2000
0000
0000
0000
,
3002
0000
0000
0000
,
1003
0000
0100
0000
,
0010
0000
0000
0000
,
1000
0000
0001
0000
,
0010
0100
1000
0000
,
0001
0000
0010
0000
,
0100
0010
0100
0000
,
1000
0000
0001
0000
,
0010
0000
0100
0000
,
0010
0000
1000
0000
,
0001
0010
0100
0000
,
1000
0000
0001
0000
,
0010
0001
0010
0000
,
0100
0000
0010
0000
,
1000
0100
1000
0000
,
0100
0000
0010
0000
,
0001
0000
1000
0000
,
0001
0000
0010
0000
,
0100
0000
0010
0000
,
0100
0000
1000
0000
,
0001
0000
0000
0000
,
0100
0000
0000
0000
,
1000
0000
0001
0000
,
0010
0000
0000
0000
,
1000
0000
0000
0000
,
0001
0000
0010
0000
,
0100
0000
0000
0000
,
1000
0000
0000
0000
,
0001
0000
0000
0000
,
0010
0000
0100
0000
,
0001
0000
1000
0000
,
0001
0010
0000
0000
,
0100
0000
0010
0000
,
0100
0001
0000
0000
,
0001
0000
0000
1000
0000
0000
0001
0000
,
0000
0100
0000
0000
0000
1000
0001
0000
,
1000
0000
0000
0010
0000
0000
1001
0000
;

//--------------- dance-single - ----------------
#NOTES:
     dance-single:
     :
     Medium:
     10:
     0,0,0,0,0:
0000
0000
0000
0000
,
0000
0000
0000
0000
,
0000
0000
0000
0000
,
0000
0000
0000
0000
,
0000
0000
0000
0000
,
0000
0000
0000
0000
,
0001
0000
0000
1000
0000
0000
0001
0000
,
0000
0100
0000
0000
0000
1000
0001
0000
,
1000
0010
0100
0001
,
1000
0001
0100
0010
,
0100
0001
1000
0001
,
0100
0010
0100
0001
,
0010
0100
0001
1000
,
0001
0000
0100
0000
0010
0001
0100
0000
,
1000
0001
0010
0100
,
0001
1000
0001
0000
,
0100
0010
0100
0001
,
0100
0010
0100
0000
,
1000
0001
0100
0010
,
0001
0010
0100
0010
,
0001
0000
0010
0000
,
0100
0000
0010
0000
1000
0000
0001
0100
,
1000
0001
0010
0100
,
0001
0010
0100
1000
,
0001
0100
0010
0100
,
1000
0001
0100
0010
,
1001
0100
0010
0100
,
1000
0001
0100
0010
,
0100
0001
1000
0001
,
0100
0000
0010
0000
1000
0001
0100
0000
,
1000
0001
0100
0010
,
0100
0000
1000
0000
,
0001
0010
0001
0100
,
1000
0000
0001
0000
,
0100
0010
0100
0001
,
1000
0000
0001
0000
,
0100
0010
1000
0000
,
0001
1000
0001
0000
,
0100
0000
0010
0000
,
0100
1000
0001
0000
,
0100
0000
0010
0000
,
0200
0000
0000
0300
,
0001
0010
0100
0001
,
0100
1000
0001
0000
,
0100
1000
0001
0100
,
0010
0100
1000
0000
,
0001
0100
0001
0000
,
1000
0100
1000
0000
,
0010
0000
0100
0000
,
0010
0100
0110
0000
,
1000
0001
0100
0010
,
0100
1000
0001
0000
,
0100
0001
1000
0001
,
0100
0010
0100
0000
,
1000
0000
0001
0000
,
0100
0000
0010
0000
,
0001
0000
1000
0000
,
0001
0100
0010
0000
,
1000
0001
0100
0000
,
0010
1000
0001
0100
,
0010
0000
1000
0000
,
0002
0000
0000
0000
,
1003
0000
0000
0000
,
0010
0000
0100
0000
,
2000
0000
0000
0000
,
3001
0000
0010
0000
,
0100
0001
1000
0000
,
0001
0000
0100
0000
,
0010
1000
0001
0000
,
0010
0001
0100
0010
,
1000
0100
0000
0000
,
0001
0010
0100
1000
,
0001
0100
0000
0000
,
0001
0000
0000
0010
0000
0000
0100
0000
,
0000
1000
0000
0000
0000
1000
0001
0000
,
0010
0000
0100
1001
;

//--------------- dance-single - ----------------
#NOTES:
     dance-single:
     :
     Hard:
     14:
     0,0,0,0,0:
0000
0000
0000
0000
,
0000
0000
0000
0000
,
0000
0000
0000
0000
,
0000
0000
0000
0000
,
0000
0000
0000
0000
,
0000
0000
0000
0000
,
0011
0000
0000
0011
0000
0000
0110
0000
,
0000
1100
0000
0000
0000
0001
1000
0000
,
0010
0000
0100
1000
0001
0000
0100
0000
,
0010
0100
1000
0001
0010
0000
0100
0000
,
0010
0000
0100
0001
0010
0000
0100
0000
,
1000
0001
0010
0100
1000
0000
0001
0000
,
0100
0010
1000
0001
0000
0010
0000
0000
,
1000
0001
0000
0010
0100
0000
1000
0000
,
0001
0000
0100
0000
1000
0001
0100
0000
,
0010
0000
0100
0000
0001
0010
0100
0000
,
1000
0000
0001
0000
0100
0010
0100
0000
,
1000
0000
0001
0010
0100
0000
1000
0000
,
0002
0000
1003
0000
0010
0100
1000
0000
,
0001
0000
0010
0000
0100
0001
0010
0000
,
0200
0000
0310
0000
1000
0001
0100
0000
,
0010
0000
0100
1000
0001
0010
0100
1000
,
0001
0000
0010
0000
0100
1000
0001
0000
,
0010
0000
0100
0000
0001
0010
0100
0000
,
1000
0000
0001
0010
0100
0000
1000
0000
,
0001
0010
0100
0000
1000
0000
0001
0000
,
2000
0000
3001
0000
0010
0100
1000
0000
,
0001
0000
0010
0000
0100
1000
0001
0000
,
0020
0000
0130
0000
1000
0001
0010
0000
,
1000
0001
0010
0100
1000
0001
0010
0100
,
2000
3001
0020
0130
,
2000
3001
0020
0130
,
0002
1003
0002
0103
,
0010
0100
1000
0001
,
0100
1000
0001
0000
0100
0000
0010
0000
,
0100
1000
0001
0000
0010
0000
0100
0000
,
1000
0000
0001
0010
0000
0100
1000
0000
,
0000
0001
0010
0000
1000
0000
0001
0000
,
0110
1000
0010
0100
,
1000
0001
0010
0100
1000
0001
0010
0100
,
2000
3200
0320
0032
,
2003
0000
0000
3000
,
0110
1001
0110
1000
,
0010
0000
0100
1000
0000
0001
0010
0000
,
0110
0001
0010
0110
,
1000
0000
0001
0010
0000
1000
0100
0000
,
0001
0000
0001
0010
1000
0000
0100
0000
,
1000
0000
0001
0010
0100
0000
1000
0000
,
0001
1000
0001
0000
0100
0010
0100
0000
,
0010
1000
0000
0001
0100
1000
0100
0000
,
0010
0101
0100
1010
,
0010
0000
0001
0010
0000
0100
1000
0000
,
0011
0100
0110
1000
,
0010
0000
0100
1000
0000
0001
0010
0000
,
0100
0001
0010
0100
0000
1000
0100
0000
,
0001
0010
0100
1000
0001
0000
0010
0000
,
0100
0001
0010
0000
0100
0000
0010
0000
,
0100
0010
0000
0100
1000
0000
0001
0010
,
0000
1000
0100
0001
0010
1000
0100
0000
,
0002
0000
0000
1003
,
0200
0000
0000
0310
0000
0000
0010
0000
,
0200
0000
0000
0000
1300
0000
0100
0010
,
0001
0010
0100
1000
,
0002
0000
0000
1003
,
0200
0000
0000
0310
0000
0000
0010
0000
,
0200
0000
0000
0000
1300
0000
0100
0010
,
0001
0000
0010
0000
0100
0001
1000
0000
,
0001
0000
0010
0000
0100
1000
0001
0000
,
0100
0000
0010
1000
0000
0001
0010
0000
,
1000
0100
0010
0001
,
0010
0220
0330
0000
,
1000
0001
0100
0010
,
0010
2002
3003
0000
,
0011
0000
0000
0011
0000
0000
0110
0000
,
0000
1100
0000
0000
0000
0001
1000
0000
,
0010
0000
0000
0010
0000
0000
2002
0000
,
0000
3003
0000
0000
;
