#TITLE:ロケットモード;
#ARTIST:アタリメ feat. 力石好乃;
#TITLETRANSLIT:Rocket Mode;
#ARTISTTRANSLIT:Atarime feat. Yoshino Chikaraishi;
#GENRE:ナムコオリジナル;
#MUSIC:Rocket Mode.ogg;
#BANNER:Rocket Mode.png;
#BACKGROUND:Rocket Mode-bg.png;
#CDTITLE:./CDTitles/NSD A3.png;
#SAMPLESTART:42.632;
#SAMPLELENGTH:15.000;
#SELECTABLE:YES;
#OFFSET:0.000;
#BPMS:0.000=190.000;
#STOPS:233.000=0.316
,233.500=0.158
;
#BGCHANGES:;
#FGCHANGES:;

//--------------- dance-single - ----------------
#NOTES:
     dance-single:
     :
     Beginner:
     3:
     0,0,0,0,0:
0000
0000
0000
0000
,
0000
0000
0000
0000
,
0000
0000
0000
0000
,
0000
0000
0000
0000
,
0000
0000
0000
0000
,
0000
0000
0000
0000
,
0000
0000
0000
0000
,
0000
0000
0000
0000
,
0000
0000
0000
0000
,
0000
0000
0000
0000
,
1000
0000
0000
0000
,
0010
0000
0000
0000
,
0100
0000
0000
0000
,
0001
0000
0000
0000
,
0010
0000
0000
0000
,
0100
0000
0000
0000
,
1000
0000
0000
0000
,
0100
0000
0000
0000
,
0010
0000
0000
0000
,
0001
0000
0000
0000
,
1000
0000
0000
0000
,
0001
0000
0000
0000
,
0100
0000
0000
0000
,
0010
0000
0000
0000
,
1000
0000
0000
0000
,
0001
0000
0000
0000
,
0100
0000
1000
0000
,
0100
0000
0000
0000
,
0010
0000
0001
0000
,
0010
0000
0000
0000
,
0100
0000
0010
0000
,
0100
0000
0000
0000
,
1000
0000
0000
0000
,
0001
0000
0000
0000
,
0100
0000
0000
0000
,
0010
0000
0000
0000
,
0100
0000
0000
0000
,
0010
0000
0000
0000
,
1000
0000
0000
0000
,
0001
0000
0000
0000
,
0100
0000
0000
0000
,
0001
0000
0000
0000
0000
0000
0000
1001
,
0000
0000
0100
0000
,
0000
0000
0010
0000
,
0000
0000
0001
0000
,
1000
0000
0001
0000
,
0000
0000
0010
0000
,
0000
0000
0000
0000
,
1000
0000
0001
0000
,
0100
0000
0000
0000
0010
0000
0000
0200
,
0000
0000
0000
0000
0000
0000
0000
0300
,
0000
0000
0000
0000
0000
0000
0000
0020
,
0000
0000
0000
0000
0000
0000
0000
0030
,
0000
0000
0000
0000
0000
0000
0000
2000
,
0000
0000
0000
0000
0000
0000
0000
3000
,
0000
0000
0000
0000
,
0002
0000
0000
0000
0000
0000
0000
1003
,
0000
0000
0000
0000
,
0000
0000
0010
0000
,
0000
0000
1000
0000
,
0010
0000
0100
0000
,
0000
0000
0001
0000
,
1000
0000
0001
0000
,
0000
0000
0010
0000
,
0100
0000
1000
0000
,
0001
0000
0000
0000
,
0000
0000
0000
0000
,
0100
0000
0010
0000
,
0100
0000
1000
0000
,
0001
0000
0000
0010
,
0000
0100
0010
1000
,
0001
0000
0010
0000
,
0000
0000
1000
0000
,
0000
0000
0001
0000
,
0010
0000
0100
0000
,
1000
0000
0001
0000
,
0000
0000
0000
0000
,
0000
0000
1000
0000
,
0000
0000
0000
0000
,
0000
0000
0010
0000
,
0000
0000
0100
0000
,
0000
0000
1000
0100
,
0010
0001
0000
0001
,
1000
0001
2002
0000
,
0000
0000
0000
0000
,
0000
0000
3003
0000
,
0000
0000
0000
0000
,
0000
0000
0001
0000
,
1000
0000
0000
0010
,
0100
0000
0000
0000
0000
0000
0000
0010
,
0000
0000
1000
0000
,
0001
0100
1000
0000
;

//--------------- dance-single - ----------------
#NOTES:
     dance-single:
     :
     Easy:
     7:
     0,0,0,0,0:
0000
0000
0000
0000
,
0000
0000
0000
0000
,
0000
0000
0000
0000
,
0000
0000
0000
0000
,
0000
0000
0000
0000
,
0000
0000
0000
0000
,
0000
0000
0000
0000
,
0000
0000
0000
0000
,
0000
0000
0000
0000
,
0000
0000
0000
0000
,
1000
0001
0100
0010
,
1000
0000
0001
0000
,
1000
0001
0100
0010
,
0100
0000
1000
0000
0001
0000
0100
1000
,
0010
0000
0100
0000
,
1000
0001
0010
0100
,
1000
0001
0100
0010
,
0100
0000
1000
0000
0001
1000
0001
0000
,
1001
0100
1000
0001
,
0100
0010
0100
1000
,
0001
0000
0100
0000
,
0001
1000
0001
0000
1000
0000
0001
0000
,
0100
0000
0010
0000
0100
0000
1000
0001
,
0100
0010
0100
1000
,
0001
0010
0100
0000
0001
0010
0100
0000
,
1000
0100
1001
0010
,
1000
0001
1000
0000
0010
0000
0100
1000
,
0000
0000
0001
0100
0000
0010
0000
0000
,
1000
0000
0001
1000
0000
0000
0001
0000
0010
1000
0000
0000
,
0001
1000
0001
0100
,
0010
1000
0001
0000
0100
0000
0010
0000
,
0100
1000
0001
0010
,
0100
1000
0001
0000
0010
0100
1000
0000
,
0001
0000
0000
0000
1000
0000
0000
1000
,
0100
0001
0000
0001
0000
1000
0000
0001
,
0100
0010
0000
0100
0000
1000
0000
0001
,
0010
0100
0000
1000
0000
0001
1000
0001
,
0000
0010
0100
0000
1000
0001
0010
1000
,
0001
0000
0001
0000
1000
0001
0010
0000
,
0100
0000
1000
0001
1000
0000
0010
0000
,
0100
0000
0001
0000
1000
0001
0000
0100
,
0000
1000
0001
0010
0100
0000
0000
0110
,
0000
0000
0001
0000
1000
0001
0010
0000
,
0100
0000
1000
0001
0010
0000
0100
0000
,
0010
0100
0001
0000
0020
0000
0000
0230
,
0000
1300
0001
1000
,
0001
1000
0001
0000
0010
0100
1000
0000
,
0001
0010
0100
1000
0010
0002
0000
1003
,
0100
0000
0010
0100
0000
1000
0010
0001
,
0000
0100
0000
0010
0100
1000
0000
0001
,
0000
0100
0000
1000
0000
0000
0000
0000
0000
0001
0000
0000
0000
0010
0000
0100
0000
0000
0000
0000
0000
0010
0000
0000
,
1000
0000
0001
1000
0000
0020
0000
0130
,
0000
1000
0001
1000
0010
0000
0001
1000
,
0001
1000
0001
0200
0000
0320
0000
2030
,
0000
0000
0100
0000
3001
0010
0100
1000
,
0000
0001
0000
1000
0000
0100
0001
0010
,
1000
0100
0010
0000
0000
0001
0000
1001
,
0000
0000
0100
0000
0000
0001
0000
0000
,
1000
0010
0100
0100
0001
0000
1000
0000
,
0001
0000
1000
0000
1001
0000
0001
1000
,
0001
0000
1000
0000
0001
0100
0010
0000
,
0100
0000
1000
0000
0001
0010
0100
0000
,
1000
0000
0001
1000
0001
0000
0010
0100
,
0000
1000
0001
0010
1000
0001
0000
0001
,
0000
1000
0001
0010
0000
0100
0000
1000
,
0001
1000
0000
0010
0000
0100
0000
0001
,
0000
1000
0001
0000
0100
0000
1000
0001
,
0010
0100
0000
0000
0110
0000
0000
0001
,
0000
1000
0001
0010
0000
0100
0000
1000
,
0001
0010
0000
0100
0000
0010
0100
0001
,
0000
0020
0000
0000
0230
0000
0000
1300
,
0000
0001
0000
1000
0000
0001
1000
0001
,
0000
0010
0100
1000
0000
0001
0010
0100
,
1000
0010
0002
0000
1003
0100
0000
0010
,
0100
0000
1000
0010
0001
0000
0100
0000
,
0010
0100
1000
0000
0001
0000
1000
0000
,
0001
0100
0010
1000
,
0001
0000
0000
0000
0010
0100
0000
0010
,
0000
0100
0000
1000
0000
0001
0000
1000
,
0000
0001
1000
0001
0010
0000
0000
1000
,
0000
0001
0000
0010
0000
0100
0000
1000
,
0000
0001
0000
0000
0000
0100
0001
0100
,
0000
1000
0001
0000
0100
0000
0010
0000
,
1000
0001
1000
0100
,
0010
0001
1000
0001
,
0100
0010
0100
1000
,
0001
0000
0100
0000
0010
0000
0100
1000
,
0010
1000
0001
0100
,
0010
0000
1000
0010
0001
0000
1000
0000
,
2002
0000
0000
3003
0000
0100
0000
0010
,
0000
0000
1000
0001
0100
0000
0000
0000
,
0010
1000
1001
0000
;

//--------------- dance-single - ----------------
#NOTES:
     dance-single:
     :
     Medium:
     12:
     0,0,0,0,0:
0000
0000
0000
0000
,
0000
0000
0000
0000
,
0000
0000
0000
0000
,
0000
0000
0000
0000
,
0000
0000
0000
0000
,
0000
0000
0000
0000
,
0000
0000
0000
0000
,
0000
0000
0000
0000
,
0000
0000
0000
0000
,
0000
0000
0000
0000
,
0001
0000
1000
0100
0010
0000
0100
1000
,
0001
0000
0010
0000
1000
0001
0010
0000
,
0001
0000
1000
0000
0010
1000
0100
0000
,
0010
0000
0001
0100
1000
0000
0010
0001
,
0100
0010
1000
0100
0010
0000
0001
1000
,
0001
1000
0100
0010
,
0001
0100
1000
0000
0010
0001
0100
0000
,
0010
1000
0001
0000
1000
0001
1000
0000
,
1001
0000
0010
0000
0001
0010
1000
0000
,
0010
0000
0100
1000
0010
0000
0001
0000
,
1000
0000
0100
0000
0010
0100
0010
0000
,
1000
0001
1000
0000
0001
0000
1000
0000
,
0010
1000
0100
0000
0010
0000
0001
1000
,
0010
0001
0100
0000
0010
0000
0001
0000
,
1000
0100
0010
0001
1000
0100
0010
0000
,
0001
0010
1001
0110
,
0001
1000
0001
0000
0100
1000
0010
0002
,
0000
0000
1003
0010
0000
0100
1000
0000
,
0001
0000
1000
0001
0000
0000
1000
0000
0100
0001
0000
0000
,
1000
0010
0001
0000
1000
0100
0010
0000
,
0100
0001
1000
0000
0010
1000
0100
0000
,
0010
0100
0001
0000
1000
0001
0100
0000
,
0010
0001
1000
0000
0100
0010
0001
0000
,
2000
0000
0010
0100
3001
0100
0000
1001
,
0000
1000
0001
1000
0100
0001
0010
1000
,
0010
0100
1000
0010
0100
0001
0000
1000
,
0100
0010
0000
0001
0010
1000
0001
1000
,
0000
0100
0010
0000
0001
1000
0100
0001
,
1000
0010
2000
0000
3001
1000
0100
1000
,
0010
0000
0001
1000
0002
0000
0103
0000
,
0010
0100
1000
0010
0001
1000
0100
0010
,
0100
0001
1000
0100
0010
1000
0000
0120
,
0000
0100
1030
0100
0001
1000
0100
0000
,
0010
0000
0001
1000
0100
1000
0010
0000
,
0100
0010
1000
0001
0200
0000
0000
0320
,
0000
0000
0031
0000
1000
0010
0001
0000
,
1000
0001
1000
0010
0100
0010
0001
0100
,
1000
0100
0010
0001
0100
2000
0000
3001
,
0010
0000
0100
0010
0000
0001
0100
1000
,
0000
0010
1000
0100
0010
0001
0000
1000
,
0000
0010
0000
0001
0000
0000
0000
0000
0000
1000
0000
0000
0000
0100
0000
0010
0000
0000
0000
0000
0000
0100
0000
0000
,
0001
0000
1000
0001
0000
0200
0000
0310
,
0100
0001
1000
0001
0100
0000
1000
0001
,
1000
0001
1000
0020
0000
0230
0000
0302
,
0000
0000
0010
0000
1003
0100
0010
0001
,
0010
1000
0010
0001
0100
0010
1000
0100
,
0001
0010
0100
0000
0000
0110
0000
1001
,
0000
0000
0010
0100
0010
1000
0001
0100
,
0001
0100
0010
0010
1000
0000
0001
0010
,
1000
0100
0001
0000
1001
0000
1000
0001
,
1000
0010
0001
0100
1000
0010
0100
1000
,
0010
0000
0001
0100
1000
0100
0010
1000
,
0001
0100
1000
0001
1000
0010
0100
0010
,
0000
0001
1000
0100
0001
1000
0010
1000
,
0000
0001
1000
0100
1000
0010
0000
0001
,
1000
0001
0000
0100
0001
0010
0000
1010
,
0000
0001
1000
0000
0110
0000
0001
1000
,
0100
0010
1000
0000
0110
0000
0001
1000
,
0010
0001
1000
0100
1000
0010
0100
0001
,
1000
0100
0001
0010
1000
0100
0010
1000
,
0001
0200
0000
0000
0320
0000
0000
0031
,
0000
1000
0010
0001
0100
1000
0001
1000
,
0000
0100
0010
0001
0010
1000
0100
0010
,
0001
0100
2000
0000
3001
0010
1000
0100
,
0010
0000
0001
0100
1001
0000
0110
0000
,
0100
0010
0001
0000
1001
0000
0001
0010
,
1000
0000
0010
0000
0100
1000
0001
0010
,
1000
0010
0100
0001
0100
0010
0000
0100
,
1000
0010
0100
0001
0010
1000
0100
0001
,
0010
1000
0001
1000
0200
0000
0000
0301
,
0000
1000
0001
0100
0000
0010
1000
0001
,
0000
1000
0001
1000
0000
0010
1000
0010
,
0000
0001
1000
0000
0010
1000
0100
0000
,
0001
0000
1000
0000
0001
0000
0010
1000
,
0100
0000
1000
0000
0001
0010
1000
0000
,
0010
0001
0100
1000
0010
0000
0001
0100
,
1000
0000
0010
1000
0100
0000
0010
0001
,
0100
0000
0001
0010
1000
0100
0010
0001
,
0100
0000
0001
0100
1000
0000
0001
0000
,
2002
0000
0000
3003
0000
0010
1000
0100
,
0000
0000
0001
1000
0110
0000
0000
0000
,
0110
0101
1001
0000
;

//--------------- dance-single - ----------------
#NOTES:
     dance-single:
     :
     Hard:
     15:
     0,0,0,0,0:
0000
0000
0000
0000
,
0000
0000
0000
0000
,
0000
0000
0000
0000
,
0000
0000
0000
0000
,
0000
0000
0000
0000
,
0000
0000
0000
0000
,
0000
0000
0000
0000
,
0000
0000
0000
0000
,
0000
0000
0000
0000
,
0000
0000
0000
0000
,
0002
0000
1003
0000
0100
1000
0010
0100
,
0001
0010
1000
0100
1000
0010
0100
1000
,
0001
0010
1000
0001
0100
1000
0010
0001
,
0100
1000
0001
0010
1000
0010
0100
0001
,
0010
1000
0001
0010
0100
0010
1000
0001
,
0000
0000
0001
1000
0010
0001
0100
0010
,
1000
0010
0001
0010
0100
1000
0010
1000
,
0100
0001
1000
0010
0001
1000
0001
0000
,
1001
0000
0100
0001
1000
0100
0001
1000
,
0100
1000
0010
0001
0100
0010
1000
0000
,
0001
1000
0010
0001
0100
0010
0100
1000
,
0001
1000
0001
0010
1000
0100
0001
0010
,
0100
0001
0010
0000
0100
0010
1000
0001
,
0100
1000
0010
0001
0100
0010
1000
0100
,
0001
0010
0100
1000
0001
0010
0100
0001
,
1000
0010
0100
0000
1001
0000
0110
0000
,
1000
0000
0001
0010
1000
0000
0100
0000
0010
0000
0001
0000
0100
0000
2000
0000
,
0000
3010
0001
0200
0000
0320
0000
0031
,
1000
0000
0100
0000
0001
0000
1000
0000
0010
0000
0100
0000
0001
0000
1000
0000
0010
0000
1000
0000
0000
0100
0000
0000
,
0001
0100
1000
0010
0001
0010
0100
0000
,
0010
0000
1000
0010
0001
0000
0010
0000
0100
0000
0001
0000
0010
0000
1000
0000
,
0100
0010
1000
0100
0001
1000
0010
0000
,
0100
1000
0001
1000
0010
0100
1000
0010
,
0002
1000
0100
0010
1003
0010
0000
1001
,
0000
0001
1000
0001
0010
1000
0100
0001
,
0100
0010
0001
0100
0010
1000
0100
0001
,
0010
0100
0001
1000
0100
0001
1000
0001
,
1000
0010
0100
0001
1000
0001
0010
2000
,
0000
0000
3002
0000
1003
0001
0010
0001
,
0100
0010
1000
0001
2000
0000
3010
0001
,
0100
0010
0001
0100
1000
0001
0010
0100
,
0010
1000
0001
0010
0100
0001
0000
0210
,
0000
0010
0301
0010
1000
0001
0010
1000
,
0100
0010
1000
0001
0010
0001
0100
1000
,
0010
0100
0001
1000
0020
0000
0000
0230
,
0000
0000
1300
0000
0001
0100
1000
0020
,
0000
1030
0001
0100
0010
0100
1000
0010
,
0001
0010
0100
1000
0010
0002
0000
1003
,
0100
1000
0010
0100
0001
1000
0010
0001
,
1000
0000
0000
0100
0000
0000
0001
0000
0000
0010
0000
0000
0100
0000
0000
1000
0000
0000
0100
0000
0000
0001
0000
0010
,
0000
0100
0000
1000
0000
0100
0000
0010
0000
0001
0000
1000
0000
0010
0000
0100
0000
0000
1000
0000
0000
0010
0000
0000
,
1000
0100
0001
1000
0100
0020
0000
0130
,
0010
0000
1000
0000
0001
0000
1000
0000
0010
0000
0100
0000
0001
0000
1000
0010
,
0001
1000
0001
0200
0000
0320
0000
2030
,
0000
0000
0100
0000
3001
0010
0100
1000
,
0100
0001
0100
1000
0010
0100
0001
0010
,
1000
0100
0010
0000
0000
0110
0000
1001
,
0000
0010
0100
0010
0100
0001
1000
0010
,
1000
0010
0100
0100
0001
0000
1000
0100
,
0001
0010
1000
0000
1001
0000
0001
1000
,
0001
0010
0100
0000
1000
0100
0010
0000
0001
0000
0100
0000
0010
0000
0001
0000
,
0100
0010
1000
0010
0001
0010
0100
0001
,
1000
0000
0010
0100
0001
0000
1000
0010
0001
0000
0100
0000
0010
0000
0100
0000
,
0001
0000
1000
0000
0001
0000
0010
0000
1000
0100
0001
0000
0100
1000
0001
0000
,
0010
0000
1000
0000
0001
0000
0010
0000
0001
0000
0100
0010
0100
0000
1000
0100
,
0001
0000
1000
0000
0020
0000
0000
0000
1030
0000
0100
0000
1000
0010
0001
0000
,
0100
0010
1000
0000
0001
0000
1000
0000
0110
0000
0000
0000
1000
0000
0001
0000
,
0010
0100
0001
0000
0110
0000
1000
0001
,
0100
0010
1000
0000
0001
0100
0010
0000
0001
0000
0100
0000
0010
0000
1000
0100
,
0001
0000
0010
0001
1000
0000
0100
0000
0001
0000
0010
0000
0100
0000
0001
0000
,
1000
0000
0010
0000
1000
0000
0001
0000
0100
0000
1000
0100
0001
0000
1000
0100
,
0001
0000
0001
0000
0100
0000
1000
0000
0010
0000
0001
0000
1000
0100
0001
0000
,
1000
0100
0010
0000
0100
0000
1000
0000
0100
0000
0001
0000
0010
0000
0100
0000
,
1000
0010
0002
0000
1003
0100
0001
0010
,
0100
0001
1000
0010
1001
0000
0110
0000
,
0010
0100
1000
0100
1001
0000
1000
0100
,
0001
1000
0100
0001
0010
0001
1000
0100
,
0001
0100
0010
1000
0010
0100
1000
0010
,
0001
0100
0010
1000
0100
0001
0010
1000
,
0100
0001
1000
0001
0020
0000
0000
1030
,
0100
0001
1000
0010
0001
0100
0001
1000
,
0010
0000
0001
0000
1000
0000
0001
0000
0010
0000
0100
0000
0001
1000
0100
0000
,
0001
0010
1000
0000
0001
0000
0010
0000
0100
0000
0001
0000
0010
0000
0100
0000
,
1000
0100
0010
0000
0001
0010
0100
0000
1000
0000
0001
0000
0100
0000
0001
0000
,
0010
0100
0001
0010
1000
0100
0001
0010
,
0100
0000
1000
0000
0010
0000
0001
0000
0100
0000
0010
0000
1000
0100
0010
1000
,
0001
0010
1000
0001
0100
0000
0001
0000
0010
0000
1000
0000
0100
0000
1000
0000
,
0010
0100
1000
0100
0001
0010
0100
1000
,
0010
0100
0001
0000
1000
0100
0010
0000
0001
0000
0000
0000
1010
0000
0000
0000
,
2002
0000
0000
3003
0000
0100
0001
0010
,
0000
0000
1000
0001
0110
0000
1000
0000
,
0110
1010
1001
0000
;
