#TITLE:Rising on the horizon;
#ARTIST:TAG;
#GENRE:春を呼ぶ桜の祝祭;
#MUSIC:Rising on the horizon.ogg;
#BANNER:Rising on the horizon.png;
#BACKGROUND:Rising on the horizon-bg.png;
#CDTITLE:/CDTitles/Music Gun Gun 3 -Shoot Away!-.png;
#SAMPLESTART:45.594;
#SAMPLELENGTH:15.000;
#SELECTABLE:YES;
#OFFSET:0.000;
#BPMS:0.000=100.000
,20.000=200.000
,48.000=400.000
,51.000=200.000
,52.000=100.000
,83.000=200.000
,96.000=400.000
,99.000=200.000
,164.000=100.000
,180.000=200.000
,208.000=400.000
,216.000=100.000
,218.000=800.000
,218.250=202.000
,218.375=101.000
,218.500=50.500
,218.625=24.360
,218.667=90.170
,219.000=800.000
,219.250=202.000
,219.375=101.000
,219.500=50.500
,219.625=24.360
,219.667=92.000
,220.000=100.000
,228.000=200.000
,262.000=400.000
,266.000=200.000
,293.000=400.000
,295.000=200.000
;
#STOPS:48.000=0.450
,82.000=0.145
,82.125=0.080
,82.375=0.075
,96.000=0.450
;
#DISPLAYBPM:100.000:400.000;
#BGCHANGES:;
#FGCHANGES:;

//--------------- dance-single - ----------------
#NOTES:
     dance-single:
     :
     Beginner:
     6:
     0,0,0,0,0:
0000
0000
0000
0000
,
0000
0000
0000
0000
,
0000
0000
0000
0000
,
0001
1000
0100
0000
,
0001
1000
0100
0000
,
1000
0001
0100
0010
,
1000
0001
0100
0000
,
0000
1000
0001
0100
,
0010
0100
1000
0000
,
0001
1000
0001
0100
,
0010
0100
1000
0000
,
0001
0100
1000
0001
,
0010
0000
0000
0000
,
2000
0000
3002
0000
,
0023
0230
2300
3002
,
2003
3200
0320
0032
,
2003
0000
0002
3003
,
0100
0010
0001
1000
,
0001
0000
0100
0000
1000
0001
0100
0000
,
1000
0001
0100
0010
,
1000
0001
0100
0010
1000
0000
0000
0000
,
0001
0000
1000
0000
,
0001
0100
0010
0000
,
1000
0001
0100
0010
,
0110
0000
0000
0000
,
1001
0100
0010
1000
,
0001
0100
0010
0000
,
1000
0001
0100
0010
,
0100
0001
0010
0000
,
1000
0001
0100
0010
,
1000
0001
0100
0000
,
0010
0001
0010
0000
,
0200
0000
0300
0000
,
1000
0001
0100
0010
,
0001
0010
0100
0000
,
0001
1000
0001
0100
,
0010
0000
0100
0000
,
1000
0001
0100
0010
,
0001
0000
0010
0000
,
0100
1000
0001
0010
,
0110
0000
0000
0000
,
1001
0000
0100
1000
0010
0000
0001
0000
,
0010
0000
0100
0001
1000
0000
0001
0000
,
0100
0000
1000
0001
0100
0000
0010
0000
,
0001
0000
1000
0001
0100
0000
0010
0000
,
1000
0001
0100
0000
,
0010
0100
1000
0000
,
0001
1000
0001
0000
,
0100
0010
0001
0000
,
1000
0000
0001
0000
,
0100
0000
0010
0000
,
0010
0010
0100
0100
,
1000
0000
0001
0000
,
1000
0000
0001
0000
,
1001
0000
0010
0100
,
1001
0000
0100
0000
,
0010
0001
1000
0000
,
0001
0000
1000
0000
,
0001
0000
0100
0000
,
0010
1000
0001
0000
,
0100
0000
0000
0001
0000
0000
0000
0000
,
1000
0000
0000
0010
0000
0000
0000
0000
,
0001
0000
0000
0010
0000
0000
1000
0000
,
0001
0000
1000
0010
0001
0000
1000
0000
,
0001
0000
1000
0000
,
0001
0100
0020
0000
,
0000
0000
1030
0001
,
1000
0000
0100
0000
,
0010
0000
0001
1000
,
0001
0000
0100
0010
,
0001
0000
1000
0000
,
0001
0000
0000
0000
0000
0000
0000
0000
1000
0000
0000
0001
0000
0000
2002
0000
,
0000
0000
3003
0000
,
0000
0110
0000
1000
,
0001
0100
0000
0010
,
1000
0001
0000
0100
,
0010
1000
0001
0100
,
0010
1000
0000
0001
,
1000
0001
0000
0100
,
1000
0001
0000
0100
,
1000
0001
0000
0010
,
0000
1000
0000
0001
0100
0000
1000
0000
,
0001
1000
0001
1001
;

//--------------- dance-single - ----------------
#NOTES:
     dance-single:
     :
     Easy:
     11:
     0,0,0,0,0:
0000
0000
0000
0000
,
0000
0000
0000
0000
,
0000
0000
0000
0000
,
1000
0100
0001
1000
0010
0001
0100
0000
,
1000
0010
0001
1000
0010
0001
1000
0000
,
0001
0000
1000
0001
0010
1000
0100
0000
,
0001
0010
1000
0100
0010
0000
1000
0000
,
0100
0000
0001
0100
1000
0001
0010
0000
,
0100
1000
0010
0100
0001
0000
0010
0000
,
1000
0000
0001
0010
1000
0100
0010
0000
,
0100
0001
0010
1000
0001
0000
0100
0000
,
1000
0100
0000
1001
0000
0010
1000
0001
,
0100
0000
0000
0000
,
0002
0000
2003
0000
,
3200
0320
0032
2003
,
3002
0023
0230
2300
,
3002
0000
2000
3003
,
0010
0001
0100
0000
1000
0100
0001
0000
,
1000
0001
0010
0000
0001
1000
0010
0000
,
0001
0100
1000
0001
0010
1000
0100
0010
,
0001
1000
0010
0100
0001
0000
0000
0000
,
1000
0000
0100
0000
0001
0100
0001
0000
,
1000
0000
0010
0000
0100
1000
0010
0000
,
0001
0010
1000
0000
0010
0001
0100
0000
,
0110
0000
0000
0000
,
1001
0010
0100
0001
,
1000
0001
0010
0000
0100
1000
0001
0000
,
0001
1000
0010
0100
,
0010
0001
1000
0000
0100
0001
1000
0000
,
0001
1000
0010
0100
,
0001
0010
1000
0000
0010
1000
0001
0000
,
0100
0000
1000
0000
0100
0000
0001
1000
,
0020
0000
0000
0000
0030
0001
1000
0010
,
0001
0000
1000
0000
0010
0000
0100
0001
,
1000
0000
0100
1000
0010
0000
0001
0000
,
1000
0000
0001
0000
1000
0001
0010
0000
,
0100
1000
0001
0000
0010
0000
1000
0000
,
0001
0100
1000
0000
0010
0000
0100
0000
,
1000
0001
1000
0000
0100
0000
1000
0000
,
0010
0100
0001
0000
1000
0001
0100
0000
,
0110
0000
0000
1001
0000
0000
0110
0000
0000
0000
0000
0000
0000
0000
0000
0000
,
1001
0100
0010
0001
0100
0001
1000
0000
,
0100
0001
0010
1000
0001
0010
1000
0000
,
0010
1000
0001
1000
0010
0001
0100
0001
,
1000
0010
0001
1000
0010
1000
0100
2000
,
3001
0000
1000
0000
0010
0001
1000
0000
,
0100
0000
0010
0000
0001
0010
0100
0000
,
1000
0000
0001
0000
1000
0000
0001
1000
,
0010
0100
1000
0010
,
0001
0010
0100
0000
1000
0000
0001
0000
,
0010
0001
1000
0000
0100
0000
0001
0000
,
0100
1000
0100
0000
0010
0001
0010
0000
,
0001
0000
1000
0000
,
0001
0000
1000
0000
,
2002
0000
3003
0000
0200
0000
0020
0330
,
1001
0000
0010
0000
0100
0000
1000
0000
0010
1000
0001
0000
1000
0001
0000
1000
,
0100
0001
0010
0000
1000
0100
0010
0000
0001
0010
1000
0000
0010
0100
0001
0000
,
1000
0000
0100
0000
0001
0000
0010
0001
,
1000
0000
0001
1000
0010
0000
1000
0000
,
0100
0001
1000
0100
,
0010
0001
0000
1000
0000
0001
0100
0000
,
0001
1000
0000
0100
0000
0010
0001
0000
,
1000
0001
0000
0100
0000
1000
0001
0000
,
1000
0010
0000
0100
1000
0000
0001
0010
,
2000
0000
3002
0000
,
1003
0010
0200
0000
,
0000
0000
0000
0000
0301
0000
1000
0100
,
0001
0000
0001
1000
0010
0000
0001
0000
,
0100
0000
0001
0000
1000
0010
0001
0100
,
1000
0010
0100
0000
0010
1000
0100
0001
,
1000
0000
0010
1000
0001
0000
0100
0000
,
1000
0000
0001
0000
0010
0000
0000
0000
0001
0000
0000
1000
0000
0000
2002
0000
,
0000
0000
3003
0000
,
0000
0110
0000
0001
,
1000
0001
0010
0000
1000
0000
0100
0010
,
0001
0000
1000
0010
0001
0000
0010
0000
,
0100
1000
0001
0000
1000
0000
0010
0001
,
0100
0000
0001
1000
0010
0000
1000
0000
,
0001
0100
1000
0000
0100
0001
0010
0000
,
0001
0100
1000
0000
0001
1000
0010
0000
,
0001
0000
1000
0000
0010
0000
0100
0001
,
0000
0001
0000
1000
0010
0000
0001
0000
,
1000
0001
1000
1001
;

//--------------- dance-single - ----------------
#NOTES:
     dance-single:
     :
     Medium:
     14:
     0,0,0,0,0:
0000
0000
0000
0000
,
0000
0000
0000
0000
,
0000
0000
0000
0000
,
0001
0010
0100
1000
0001
0100
0010
1000
,
0001
0100
0010
1000
0001
0010
0100
1000
,
0001
0000
1000
0001
0010
0100
1000
0000
,
0001
0010
0100
1000
0001
0000
0010
1000
,
0100
0000
1000
0001
0010
0100
1000
0000
,
0001
0010
0100
0001
0010
0100
1000
0010
,
0001
0000
1000
0100
0001
1000
0001
0000
,
0010
0100
1000
0001
0010
1000
0001
1000
,
0001
1000
0010
0000
0100
0000
1000
0000
0001
0100
0010
0000
0100
0000
1000
0000
,
0001
0000
0001
1000
0001
0000
0220
0330
,
2002
0003
3200
0000
,
0302
0000
0020
0003
0230
0000
2000
0300
,
3002
0000
0020
0003
0200
0030
2000
0300
,
0002
3000
0000
0000
2000
0000
3003
0000
,
1000
0001
0000
0001
0100
0000
1000
0000
0001
1000
0000
0001
1000
0000
0001
0000
,
0010
0100
0000
1000
0001
0000
0010
0000
0100
1000
0000
0001
0010
0000
0100
0000
,
1000
0001
0000
0010
0100
0000
1000
0000
0001
0010
0000
0100
0001
0000
1000
0000
,
0001
0000
0010
0000
0100
0000
0000
0000
1000
0000
0001
0000
0010
0000
0000
0000
0010
0100
0000
0010
1001
0000
0000
0000
0000
0000
0000
0000
0000
0000
0000
0000
,
1000
0001
1000
0000
0010
1000
0001
0000
,
0010
0100
1000
0000
0001
0010
0100
0000
,
0100
0001
1000
0001
0010
0100
1000
0001
,
0110
0000
0000
0000
,
1000
0000
0000
0001
0000
0000
1000
0000
0001
0000
0000
0010
0000
0000
0001
0000
,
1000
0000
0000
0001
0000
0000
1000
0000
0010
0000
0100
0000
0001
0000
0010
0000
,
0001
0000
0000
1000
0000
0000
0001
0000
1000
0000
0000
0010
0000
0000
1000
0000
,
0001
0000
0000
1000
0000
0000
0001
0000
1001
0000
0000
0000
1000
0000
0000
0000
,
0010
0000
0000
0100
0000
0000
0010
0000
0100
0000
0000
1000
0000
0000
0100
0000
,
1000
0000
0000
0001
0000
0000
1000
0000
0001
0000
0010
0000
0001
0000
0000
0000
,
0100
0000
0000
0100
0000
0000
0100
0000
0001
0000
0000
0001
0000
0000
0001
0000
,
1000
0000
0000
1000
0000
0000
1000
0000
0020
0000
0000
0000
0000
0000
0000
0000
,
1030
0000
0000
0001
0000
0000
1000
0000
0001
0000
0000
0010
0000
0000
0001
0000
,
1000
0000
0000
0001
0000
0000
1000
0000
0010
0000
0100
0000
0001
0000
0010
0000
,
0001
0000
0000
1000
0000
0000
0001
0000
1000
0000
0000
0010
0000
0000
1000
0000
,
0001
0000
0000
1000
0000
0000
0001
0000
1001
0000
0000
0000
0001
0000
0000
0000
,
0010
0000
0000
0100
0000
0000
0010
0000
0100
0000
0000
1000
0000
0000
0100
0000
,
1000
0000
0000
0001
0000
0000
1000
0000
0001
0000
0010
0000
0001
0000
0000
0000
,
0100
0000
0000
0100
0000
0000
0100
0000
0001
0000
0000
0001
0000
0000
0001
0000
,
1000
0000
0000
1000
0000
0000
1000
0000
0000
0002
0000
0000
0000
0000
0000
0000
,
0023
0000
2030
0000
3002
0000
0203
0000
0302
0000
0000
2003
0000
3200
0320
0032
,
2003
0000
3020
0000
0032
0000
0023
0000
0230
0000
0000
0320
0000
2030
3200
0320
,
0032
0000
2003
0000
3002
0000
0203
0000
0302
0000
0000
2003
0000
3200
0320
0032
,
2003
0000
0000
0000
0000
0000
0000
0000
3002
0000
0000
0023
0000
0000
2030
0000
3020
0000
0000
0000
0000
0000
0032
0000
0000
0000
0000
0000
1003
0000
1000
0000
,
2000
0001
0000
0001
,
3200
0010
0000
0010
,
2300
0010
0000
0010
,
3002
0000
0000
0000
0000
0000
0000
0000
0000
0000
0000
0000
0000
0000
0000
0000
0000
0000
0000
0000
0000
0000
0000
0000
0000
0000
0000
0000
0000
0000
0000
0000
0000
0000
0000
0000
0000
0000
0000
0000
0000
0000
0000
0000
0000
0000
0000
0000
0100
0000
0000
0000
0000
0000
0000
0000
0000
0000
0000
0000
0000
0000
0000
0000
0000
0000
0000
0000
0000
0000
0000
0000
0000
0000
0000
0000
0000
0000
0000
0000
0000
0000
0000
0000
0000
0000
0000
0000
0000
0000
0000
0000
0000
0000
0000
0000
0000
0000
0000
0000
0000
0000
0000
0000
0000
0000
0000
0000
0000
0000
0000
0000
0000
0000
0000
0000
0000
0000
0000
0000
0000
0000
0000
0000
0000
0000
0000
0000
0000
0000
0000
0000
0000
0000
0000
0000
0000
0000
0000
0000
0000
0000
0000
0000
0100
0000
0000
0000
0000
0000
0000
0000
0000
0000
0000
0000
0000
0000
0000
0000
0000
0000
0000
0000
0000
0000
0000
0000
0000
0000
0000
0000
0000
0000
0000
0000
0000
0000
0000
0000
0000
0000
0000
0000
0000
0000
0000
0000
0000
0000
0000
0003
,
1000
0100
1000
0000
1000
0010
1000
0000
,
0001
0010
0001
0000
0001
0100
0001
0000
,
1000
0100
0001
0100
1000
0010
0001
0010
,
2000
0000
0000
0000
,
0000
0000
0000
0000
,
3001
0000
0110
1001
,
0010
0001
0100
0010
1000
0100
0010
0001
0100
0010
1000
0100
1000
0010
0100
0001
,
1000
0010
0001
1000
0100
0001
1000
0010
0001
1000
0100
0001
1000
0001
0010
0100
,
1000
0100
0010
0001
0100
0010
1000
0100
,
0010
0001
0100
0010
1000
0100
0010
0001
,
0001
0010
0100
0100
0010
1000
1000
0010
,
0100
0100
0010
0001
0001
0010
0001
0100
,
1000
0001
0000
0110
0000
0001
0100
0010
,
1000
0001
0000
1001
0000
0100
1000
0100
,
0001
0000
1000
0000
0000
0000
0001
0000
0000
0000
1000
0001
1000
0000
0010
0000
,
0200
0000
0320
0000
,
0130
1100
1001
0000
,
0000
0000
0000
0000
0010
0000
0001
0100
,
0000
0100
0010
0100
0000
0010
1000
0000
,
1010
0000
0101
0000
1100
0000
0001
0100
,
0000
0100
1000
0100
0000
0001
1000
0000
,
0110
0000
1001
0000
0110
0000
1000
0001
,
0000
0000
0010
0000
0001
0000
1000
0000
0010
0000
0000
0100
0000
0000
0101
0000
,
0000
1000
0001
0000
0100
0000
0010
0000
1000
0001
0100
0000
1000
0000
0100
0000
,
0001
0000
0100
0000
0000
0000
0010
0000
0000
0000
1000
0000
0100
0000
0000
0010
,
1000
0000
0100
0000
0000
0010
0001
0000
0100
0000
0010
0000
0100
0000
0000
0001
,
1000
0000
0200
0000
0000
0000
0010
0000
0301
0000
0100
0000
0010
0000
0000
1000
,
0100
0000
0010
0000
0000
0100
1000
0000
0010
0000
0100
0000
0001
0000
0000
0010
,
0100
0000
2000
0000
0000
0000
0001
0000
3100
0000
0010
0000
0100
0000
0000
0001
,
1000
0000
0100
0000
0000
0010
0100
0000
1000
0000
0001
0000
0100
0000
0000
0010
,
0100
0010
1000
0100
0010
0000
0001
0100
,
0010
1000
0001
0100
0010
1000
0100
0010
,
0001
1000
0100
0010
0001
0100
1000
0001
,
1000
0001
0010
0100
0001
0010
0110
0000
;

//--------------- dance-single - ----------------
#NOTES:
     dance-single:
     :
     Hard:
     17:
     0,0,0,0,0:
0000
0000
0000
0000
,
0000
0000
0000
0000
,
0000
0000
0000
0000
,
0001
0100
1000
0010
0100
1000
0001
0010
0100
1000
0001
0100
0010
0100
0001
0010
,
0100
1000
0001
0010
0100
0010
0001
1000
0010
0100
1000
0001
0010
0100
0010
0100
,
1000
0000
0001
0100
1000
0010
0100
0000
,
1000
0001
0100
0010
0100
0001
0010
0001
,
0100
0001
0010
0100
1000
0001
0100
0000
,
0100
0000
0010
0000
1000
0000
0001
0000
1000
0000
0010
0001
0100
1000
0010
0000
,
1000
0001
0100
0010
1000
0001
0010
0100
,
1000
0010
0100
0010
0100
0010
1000
0001
,
0100
1000
0100
1000
0100
1000
0100
0010
0100
0010
0001
0010
0001
0010
0001
0010
,
0001
0000
0001
0100
1000
0000
0200
0300
,
2002
0003
3200
0000
,
0302
0000
0020
0003
0230
0000
2000
0300
,
3002
0000
0020
0003
0200
0030
2000
0300
,
0002
3000
0000
0000
2000
0000
3003
0000
,
1000
0001
0100
0000
0010
0000
1000
0000
0001
0010
0100
0000
0010
0000
0001
0000
1000
0001
0100
0000
0010
0000
0100
0000
0001
1000
0100
0000
1000
0000
0001
0000
,
0010
0100
1000
0000
0010
0000
0100
0000
0001
1000
0010
0000
0100
0000
0001
0000
1000
0100
0010
0000
0001
0000
0100
0000
0010
0000
0100
0001
0000
1000
0100
0010
,
0100
0000
1000
0001
0010
0000
1000
0001
0010
0000
1000
0001
0100
0000
0010
0000
0100
0000
1000
0010
0001
0000
1000
0000
0001
0010
1000
0000
0001
0000
0000
0000
,
0110
0000
0001
1000
0010
0000
0001
1000
0010
0000
0001
1000
0100
0000
0010
0000
0100
1000
0000
0100
0001
0010
1000
0000
0001
0000
0000
0000
0000
0000
0000
0000
,
1000
0001
0100
0000
1000
0001
0010
0000
,
0100
0000
1000
0000
0001
0000
0000
0000
0010
0000
0100
0000
1000
0000
0000
0010
,
0001
0000
1000
0000
0001
0000
0100
0000
0010
1000
0100
0001
1000
0000
0001
0000
,
0110
0000
1000
0000
0100
0010
0001
0100
,
1000
0000
0001
1000
0000
0001
0100
0000
0001
0000
1000
0001
0000
0100
0001
0000
,
1000
0000
0001
0100
0000
0001
0010
0000
0001
0000
1000
0100
1000
0000
0000
0000
,
0001
0000
1000
0100
0000
1000
0010
0000
1000
0000
0001
0100
0000
0001
0010
0000
,
0001
0000
1000
0100
0000
1000
0010
0000
2000
0000
0000
0000
3100
0000
0010
0000
,
0001
0000
1000
0001
0000
1000
0100
0000
1000
0000
0001
1000
0000
0100
1000
0000
,
0001
0000
1000
0100
0000
1000
0010
0000
1000
0000
0001
0100
0001
0000
0000
0000
,
1001
0000
0000
1100
0000
0000
0101
0000
1001
0000
0000
0011
0000
0000
1010
0000
,
1001
0000
0000
0110
0000
0000
1010
0000
2002
0000
0000
0000
0000
0000
3003
0000
,
0001
0000
1000
0001
0000
1000
0010
0000
1000
0000
0001
1000
0000
0010
1000
0000
,
0001
0000
1000
0010
0000
1000
0100
0000
1000
0000
0001
0010
0001
0000
0000
0000
,
1000
0000
0001
0010
0000
0001
0100
0000
0001
0000
1000
0010
0000
1000
0100
0000
,
1000
0000
0001
0010
0000
0001
0100
0000
0002
0000
0000
0000
0013
0000
0100
0000
,
1000
0000
0001
1000
0000
0001
0010
0000
0001
0000
1000
0001
0000
0010
0001
0000
,
1000
0000
0001
0010
0000
0001
0100
0000
0001
0000
1000
0010
1000
0000
0000
0000
,
1001
0000
0000
0011
0000
0000
1010
0000
1001
0000
0000
1100
0000
0000
0101
0000
,
1001
0000
0000
0110
0000
0000
0101
0000
0000
0001
1000
0000
0001
0000
1000
0000
,
0020
0000
2030
0000
3002
0000
0203
0000
0302
0000
0000
2003
0000
3200
0320
0032
,
2003
0000
3020
0000
0032
0000
0023
0000
0230
0000
0000
0320
0000
2030
3200
0320
,
0032
0000
2003
0000
3002
0000
0203
0000
0302
0000
0000
2003
0000
3200
0320
0032
,
2003
0000
0000
0000
0000
0000
0000
0000
3002
0000
0000
0023
0000
0000
2030
0000
3020
0000
0000
0000
0000
0000
0032
0000
0000
0000
0000
0000
1003
0000
1000
0000
,
2000
0001
0000
0001
,
3020
0100
0000
0100
,
2030
0100
0000
0100
,
3002
0000
0000
0000
0000
0000
0000
0000
0000
0000
0000
0000
0000
0000
0000
0000
0000
0000
0000
0000
0000
0000
0000
0000
0000
0000
0000
0000
0000
0000
0000
0000
0000
0000
0000
0000
0000
0000
0000
0000
0000
0000
0000
0000
0000
0000
0000
0000
0010
0000
0000
0000
0000
0000
0000
0000
0000
0000
0000
0000
0000
0000
0000
0000
0000
0000
0000
0000
0000
0000
0000
0000
0000
0000
0000
0000
0000
0000
0000
0000
0000
0000
0000
0000
0000
0000
0000
0000
0000
0000
0000
0000
0000
0000
0000
0000
0000
0000
0000
0000
0000
0000
0000
0000
0000
0000
0000
0000
0000
0000
0000
0000
0000
0000
0000
0000
0000
0000
0000
0000
0000
0000
0000
0000
0000
0000
0000
0000
0000
0000
0000
0000
0000
0000
0000
0000
0000
0000
0000
0000
0000
0000
0000
0000
0010
0000
0000
0000
0000
0000
0000
0000
0000
0000
0000
0000
0000
0000
0000
0000
0000
0000
0000
0000
0000
0000
0000
0000
0000
0000
0000
0000
0000
0000
0000
0000
0000
0000
0000
0000
0000
0000
0000
0000
0000
0000
0000
0000
0000
0000
0000
0003
,
1000
0010
1000
0010
1000
0100
1000
0100
,
0010
0001
0010
0001
0100
0001
0100
0001
,
0010
0001
0100
0010
0100
0010
1000
0100
0010
0100
0010
0001
0100
0010
0100
0010
,
2000
0000
0000
0000
,
0000
0000
0000
0000
,
3002
0003
0110
1001
,
0100
0010
0100
0000
0001
0000
0100
0010
0100
0000
0001
0000
1000
0100
1000
0000
0001
0100
0001
0000
0010
0000
0100
0010
0100
0000
1000
0000
0010
0000
0100
0000
,
0001
0010
0001
0000
1000
0000
0010
0100
0010
0000
0100
0000
0001
1000
0001
0000
0010
0100
0010
0000
0100
0000
1000
0010
1000
0000
0001
0000
0010
0000
0100
0000
,
0020
0001
0130
0000
0010
0000
0200
0001
0310
0000
0100
0000
0020
0001
0130
0000
,
0020
1000
0130
0000
0010
0000
0200
1000
0310
0000
1000
0000
0001
0000
0010
0000
,
0200
1000
0301
0000
0100
0000
0002
1000
0103
0000
0001
0000
0200
1000
0301
0000
,
0011
0011
0000
0101
0000
1010
1010
1010
,
1010
0000
1100
0000
0000
0000
1001
0000
0000
0000
0010
0000
0001
0100
0010
0000
,
1010
1010
0000
0011
0000
1100
1100
1100
,
1100
0000
0101
0000
0000
0000
0001
0000
1000
0010
0100
0000
0001
0010
0100
0000
,
2000
3002
0023
0000
,
0230
1300
1001
0000
,
0110
0000
0000
0000
0000
0000
0000
0000
0010
0000
1000
0100
0000
1000
0010
0000
,
1000
0001
0000
0100
0001
1000
0001
0010
0001
0000
1000
0010
0000
0100
0010
0000
,
0100
0001
0000
0100
0010
1000
0100
0010
0001
0000
0100
0010
0000
0100
0001
0000
,
1000
0100
0000
0010
0001
1000
0010
0100
0001
0000
0100
0010
0000
0100
1000
0100
,
0010
0000
1000
0100
0000
0010
0001
1000
0001
0000
0010
0100
0000
1000
0100
0000
,
1000
0010
0000
0100
0001
1000
0010
0100
0010
0000
1000
0100
0000
1000
0010
0000
,
0100
0001
0000
1000
0001
0010
0100
1000
0001
0000
0100
0010
0000
0010
1000
0000
,
1001
0000
0100
0010
0100
0000
0000
0000
0000
0000
0000
0000
0001
0000
1000
0100
,
1000
0010
0100
0000
0010
1000
0100
0010
0001
0000
1000
0001
0100
0000
1000
0100
,
0001
0010
0100
0000
1000
0010
0100
0001
1000
0000
0100
0010
0001
0000
0100
0010
,
1000
0010
0100
0000
0001
1000
0100
0010
0001
0000
1000
0001
0010
0000
0010
0100
,
0000
0100
1000
0000
0010
0100
0000
0100
0001
0000
0100
0000
0010
0000
1000
0100
,
0001
0100
1000
0000
0010
0001
0010
1000
0100
0000
1000
0001
0010
0000
0010
0001
,
0000
0001
0100
0000
0010
0000
1000
0100
0000
0100
0010
0000
0001
0000
0100
0010
,
0000
0010
0100
0000
0001
1000
0100
0010
0001
0100
0010
1000
0100
0000
1000
0010
,
0000
0000
1001
0000
0000
0000
0100
0000
1000
0000
0001
0010
0001
0010
0001
0010
,
0000
0000
1000
0001
1000
0001
1000
0001
1000
0001
1000
0000
2002
0000
0000
0000
,
0000
0000
3003
0000
;
