#TITLE:Reaching To The Top;
#ARTIST:Rasmus Faber;
#GENRE:ミュージックガンガン3×NonStopDance ~2022夏のMUSIC CHOICE!~;
#MUSIC:Reaching To The Top.ogg;
#BANNER:Reaching To The Top.png;
#BACKGROUND:Reaching To The Top-bg.png;
#CDTITLE:./CDTitles/Music Gun Gun 3 -Shoot Away!-.png;
#SAMPLESTART:60.045;
#SAMPLELENGTH:15.000;
#SELECTABLE:YES;
#OFFSET:0.000;
#BPMS:0.000=139.853;
#STOPS:;
#BGCHANGES:;
#FGCHANGES:;

//--------------- dance-single - ----------------
#NOTES:
     dance-single:
     :
     Beginner:
     3:
     0,0,0,0,0:
0000
0000
0000
0000
,
0000
0000
0000
0000
,
0000
0000
0000
0000
,
0000
0000
0000
0000
,
0000
0000
0000
0000
,
0000
0000
0000
0000
,
0000
0000
0000
0000
,
1000
0000
0000
0000
,
1000
0000
0000
0000
,
0001
0000
0000
0000
,
0001
0000
0000
0000
,
0010
0000
0000
0000
,
0100
0000
0000
0000
,
1000
0000
0000
0000
,
0001
0000
0000
0000
,
1000
0000
0000
0000
,
0010
0000
0000
0000
,
0100
0000
0000
0000
,
1000
0000
0000
0000
,
0002
0000
0003
0000
,
0000
0000
0000
0000
,
2000
0000
3000
0000
,
0000
0000
0000
0000
,
0020
0000
0030
0000
,
0000
0000
0000
0000
,
0200
0000
0300
0000
,
0000
0000
0000
0000
,
1000
0000
0000
0000
,
0001
0000
0000
0000
,
1000
0100
0010
0001
,
0010
0100
1000
0001
,
0100
0000
0000
0000
,
0001
0000
0000
0000
,
0010
0010
0100
0100
,
1000
0001
1000
0001
,
0100
0000
0001
0000
,
1000
0000
0001
0000
,
0010
0000
0100
0000
,
1000
0000
0001
0000
,
0010
0000
0100
0000
,
0001
0000
1000
0000
,
0001
0000
0010
0000
,
0100
0000
1000
0000
,
0001
0000
0000
0000
,
0000
0000
0000
0000
,
1000
0000
0000
0000
,
0000
0000
0000
0000
,
0010
0000
0000
0000
,
0000
0000
0000
0000
,
0001
0000
0000
0000
,
0100
0000
0000
0000
,
1000
0000
0001
0000
,
0010
0000
0100
0000
,
1000
0000
0010
0000
,
0010
0000
0001
0000
,
1000
0000
0001
0000
,
0100
0000
1000
0000
,
0010
0000
0001
0000
,
1000
0000
0000
0001
,
0010
0000
0000
0000
,
0010
0000
0000
0000
,
0001
0010
0100
1000
,
0010
0100
0001
0000
,
1001
0000
0100
0000
,
0010
0001
1000
0000
,
0010
0000
0100
0000
,
1000
0001
0010
0000
,
0100
0000
1000
0000
,
0001
0010
0100
0000
,
1000
0000
0001
0000
,
0010
0100
0010
0000
,
1000
0000
0001
0000
,
0010
0100
0010
0000
,
0001
0000
1000
0000
,
0001
0010
0100
0000
,
1000
0000
0001
0000
,
0010
0000
0100
0000
,
0010
0000
0001
0000
,
1000
0100
0010
0000
,
1001
0000
0000
0000
;

//--------------- dance-single - ----------------
#NOTES:
     dance-single:
     :
     Easy:
     5:
     0,0,0,0,0:
0000
0000
0000
0000
,
0000
0000
0000
0000
,
0000
0000
0000
0000
,
0000
0000
0000
0000
,
0000
0000
0000
0000
,
0000
0000
0000
0000
,
0000
0000
0000
0000
,
1000
0010
0100
0000
,
0001
1000
0001
0000
,
0010
0100
1000
0001
,
0100
0010
1000
0000
,
0001
0010
0100
0001
,
1000
0100
0010
1000
,
0001
0100
0010
1000
,
0001
0100
0010
1000
,
0002
1000
1000
1003
,
2000
0001
0001
3001
,
0020
0100
0100
0130
,
0200
0010
0010
0310
,
0001
0010
0001
0010
,
0100
0001
1000
0100
,
1000
0001
0010
0100
,
0010
1000
0001
0100
,
0010
1000
0001
0100
,
0010
1000
0001
0100
,
0010
1000
0001
0100
,
0010
1000
0001
0100
,
0010
0000
1000
0000
,
0001
0000
0010
0000
,
0001
0010
0100
1000
,
0001
0010
0100
1000
,
0001
0000
0100
0000
,
1000
0000
0001
0000
,
1000
0100
0010
0001
,
1000
0100
0010
0001
,
1001
0100
0010
1000
,
0001
0100
0010
1000
,
0001
0100
0010
0100
,
1000
0001
0100
0010
,
1000
0001
0100
0010
,
0001
0010
0100
0010
,
0100
1000
0001
0100
,
0010
1000
0001
0010
,
1001
0000
0010
0000
,
0100
0000
1000
0000
,
0001
0000
0010
0000
,
0100
0000
1000
0000
,
0001
0000
0001
0000
,
0100
0000
1000
0000
,
0010
0000
0100
0000
,
0010
0000
1000
0000
,
0001
0010
0100
0000
,
1000
0001
0100
0000
,
0010
0100
0010
0000
,
1000
0001
0100
0000
,
0001
0010
0100
0000
,
0001
1000
0001
0000
,
0010
0000
0100
0000
,
0010
0001
1000
0001
,
0100
0000
0010
0000
,
1000
0000
0001
0000
,
0010
0100
1000
0000
,
0001
1000
0001
0000
,
1001
0010
0100
1000
,
0001
0100
0010
0000
,
1000
0001
0100
0010
,
0100
1000
0001
0000
,
0010
0100
0010
0001
,
1000
0000
0010
0000
,
0001
0100
0010
1000
,
0002
0000
2003
0000
,
3001
0100
0010
1000
,
0001
0000
0100
0000
,
0010
0100
1000
0001
,
0100
0000
0010
0000
,
0001
1000
0100
0010
,
0001
0000
1000
0000
,
0010
0100
1000
0001
,
0100
0010
0001
1000
,
1001
0000
0000
0000
;

//--------------- dance-single - ----------------
#NOTES:
     dance-single:
     :
     Medium:
     7:
     0,0,0,0,0:
0000
0000
0000
0000
,
0000
0000
0000
0000
,
0000
0000
0000
0000
,
0000
0000
0000
0000
,
0000
0000
0000
0000
,
0000
0000
0000
0000
,
0000
0000
0000
0000
,
0001
1000
0001
0100
,
0010
0000
0100
0000
1000
0001
0100
0000
,
0010
0100
1000
0001
,
0100
0010
1000
0001
,
0100
0010
1000
0001
,
0010
0000
0100
0000
0010
1000
0001
0000
,
0100
0010
0001
0010
,
0001
0010
0100
0000
1000
0100
0010
0000
,
0002
0010
0010
0013
,
2000
0100
0100
3100
,
0020
0100
0100
0130
,
0002
0010
0100
1003
,
0010
0100
0010
0100
0010
0000
1000
0001
,
1000
0001
0100
0000
0000
0010
0000
0100
,
1000
0001
0100
0000
0010
0000
1000
0001
,
0100
0000
0010
1000
0000
0001
0100
0000
,
0010
0000
0100
0000
1000
0001
0010
0000
,
0100
0001
0010
0100
1000
0000
0001
0000
,
0001
0100
0010
1000
,
0100
0000
0010
1000
0001
0100
0010
0000
,
1000
0001
0100
0010
,
0100
1000
0001
0010
,
0001
0010
0100
1000
,
1001
0110
1001
0100
,
0001
0010
0100
0001
,
1000
0001
0100
0010
,
1000
0100
0010
0001
,
0001
0110
1001
0110
,
1000
0000
0001
0000
0100
1000
0001
0000
,
0100
0000
0010
0000
0001
1000
0001
0000
,
0100
0000
0010
0000
0100
1000
0001
0000
,
0100
0010
1000
0000
0001
0010
0100
0000
,
0001
0010
0100
1000
,
0001
0100
0010
0001
,
1000
0001
0100
0000
0010
0000
0100
0000
,
1000
0001
0100
0000
0010
0100
1000
0000
,
0002
0000
0000
0000
,
2003
0000
0000
0000
,
3020
0000
0100
0000
,
0130
0000
0100
0000
,
1000
0000
0001
0000
,
0100
0000
0010
0000
,
0001
0000
1000
0000
,
0001
0000
0010
0000
,
1000
0001
0100
0010
0010
0000
1000
0000
,
0001
0100
0010
0000
0001
0000
0010
0000
,
0100
1000
0001
0000
0100
0000
0010
0000
,
0100
0001
0010
0000
0100
0000
1000
0000
,
0001
0100
0010
0000
0100
0000
1000
0000
,
0001
0100
0010
0000
0100
0000
0001
0000
,
0001
0010
0100
0000
1000
0001
0100
0000
,
0010
0100
1000
0001
,
0100
0001
0100
0000
,
1000
0001
0010
0000
,
0001
0010
0100
1000
,
0011
0110
1001
0110
,
0011
0000
0010
0000
0100
1000
0001
0000
,
0100
0000
0010
0000
1000
0001
0100
0000
,
0010
0000
0100
0000
1000
0001
0100
0000
,
0010
0000
0001
0000
0100
0010
1000
0001
,
0100
0010
1000
0000
0001
0000
0100
0000
,
0010
0100
1000
0000
0001
0100
0001
0000
,
0010
0100
1000
0100
0010
0100
1000
0000
,
0001
0010
0100
0001
1000
0001
0100
0000
,
0010
1000
0001
0100
0010
0001
0010
0000
,
0100
0010
1000
0001
,
0010
0100
1000
0000
0001
0000
0010
0000
,
0100
0001
1000
0001
0100
0010
0100
1000
,
0001
0000
0010
0000
0001
1000
0001
0000
,
0100
0010
0100
1000
0001
0000
0100
0000
,
0001
0010
0100
1000
0001
0100
0010
0000
,
1000
0001
0100
0010
0100
1000
0001
0000
,
1001
0000
0000
0000
;

//--------------- dance-single - ----------------
#NOTES:
     dance-single:
     :
     Hard:
     13:
     0,0,0,0,0:
0000
0000
0000
0000
,
0000
0000
0000
0000
,
0000
0000
0000
0000
,
0000
0000
0000
0000
,
0000
0000
0000
0000
,
0000
0000
0000
0000
,
0000
0000
0000
0000
,
1000
0000
0001
0000
0010
1000
0001
0100
,
0010
0000
1000
0000
0100
0001
1000
0001
,
0100
0000
0010
0000
1000
0001
0100
0010
,
0100
0000
1000
0001
1000
0100
0010
0000
,
0001
0000
1000
0000
0001
0100
0010
1000
,
0001
0100
0010
0000
0001
0010
0100
0000
,
1000
0001
0000
0100
0010
0000
1000
0000
,
0001
0100
0010
0000
0001
0000
0100
0000
,
0020
1000
1000
1030
,
0200
0010
0010
0310
,
0002
0010
0010
0013
,
1000
0000
0001
0100
1000
0001
0200
0000
,
0310
1000
0001
0100
0010
0000
0100
0001
,
1000
0001
0100
0010
1000
0001
0200
0000
,
0310
0001
1000
0001
0200
0000
0310
1000
,
0001
0100
0010
0100
1000
0001
0020
0000
,
0130
1000
0001
0100
0020
0000
0031
1000
,
0001
0100
0010
0100
1000
0001
0100
1000
,
0010
0001
0010
0100
,
1000
0000
0001
0100
1000
0001
1001
0000
,
0100
0010
0010
0100
,
1000
0100
0010
1000
0001
1000
0010
0000
,
0011
0110
1100
0010
,
0101
0110
1010
0101
,
0010
0000
1000
0000
0001
0000
0100
1000
,
0001
0010
0100
1000
0001
0100
0010
1000
,
0001
0110
0011
0110
,
1001
0110
1100
0110
,
0100
0000
1000
0000
0001
0000
0010
0000
0100
1000
0010
0000
0001
0000
0010
0000
,
0100
1000
0001
0010
0100
1000
0001
0100
,
0010
0000
1000
0000
0001
0000
0100
0000
0001
0010
0100
0000
0010
0000
1000
0000
,
0100
0010
0001
0100
0001
0100
0010
1000
,
0001
0000
0010
0000
0001
0000
1000
0000
0010
0001
0100
0000
0010
0000
1000
0000
,
0001
0010
0001
0100
0001
0100
0010
1000
,
0100
0000
0010
0000
0100
0000
1000
0000
0010
0001
1000
0000
0100
0000
1000
0000
,
0001
0010
0001
0010
0001
0100
0010
1000
,
0200
0000
0320
0000
,
0230
0000
2300
0000
,
3002
0000
0000
0000
,
2003
0000
0001
0000
,
3010
1000
0001
0010
,
0100
0001
1000
0001
,
0100
0010
1000
0001
,
0100
0000
1000
0000
0001
0100
0010
0000
,
1000
0100
0001
0010
0100
0000
0010
1000
,
0100
0000
0001
1000
0000
0001
0100
0000
,
0010
0100
1000
0001
0200
0000
0310
0000
,
0100
0001
1000
0001
0100
0010
1000
0000
,
0001
0100
0010
0001
2000
0000
3001
0100
,
0010
0000
0100
1000
0001
0110
0000
1000
,
0001
0100
0010
1000
,
0001
0000
0010
1000
0001
0100
0010
0000
,
1000
0001
0100
0010
,
1000
0001
0100
1000
0001
0100
0010
0000
,
0101
1010
0110
0011
,
0110
1010
0100
1010
,
0010
0000
1000
0000
0010
0000
1000
0000
0001
1000
0010
0000
0001
0000
0100
0000
,
0001
0010
0100
0010
0001
0100
0001
1000
,
0010
0000
1000
0000
0010
0000
0100
0000
0001
0010
1000
0000
0001
0000
0010
0000
,
0001
0100
0010
1000
0001
0010
0100
1000
,
0001
0000
1000
0000
0010
0000
1000
0000
0001
0010
0100
0000
0001
0000
0100
0000
,
0010
0100
0001
0010
0100
0010
0100
0010
,
0001
0000
0100
0000
0001
0000
0010
0000
0100
0001
1000
0000
0100
0000
0010
0000
,
0100
1000
0010
0100
0010
1000
0001
1000
,
0001
0000
0100
0000
0001
0000
0010
0000
0100
1000
0010
0000
0001
0000
0100
0000
,
0010
0100
0010
1000
0100
1000
0010
0100
,
0001
0000
1000
0000
0001
0000
0010
0000
0100
0001
1000
0000
0010
0000
1000
0000
,
0010
0100
0010
0100
0001
1000
0010
0100
,
0010
0000
0100
0000
0010
0000
1000
0000
0100
0010
1000
0000
0001
0000
0010
0000
,
0100
0010
0100
0010
0001
0100
0001
0010
,
0001
0000
1000
0000
0010
0000
1000
0000
0100
0001
1000
0000
0010
0000
0100
0000
,
0010
0100
0010
1000
0001
0010
0100
1000
,
2002
0000
3003
0000
;
