
//----- song ID: todo -----//
#TITLE:Prohibited Props;
#ARTIST:BEMANI Sound Team "ZAQUVA";
#TITLETRANSLIT:Prohibited Props;
#GENRE:けものフレンズ×NonStopDance -フレンズの歌の音楽-;
#MUSIC:Prohibited Props.ogg;
#BANNER:Prohibited Props.png;
#BACKGROUND:Prohibited Props-bg.png;
#CDTITLE:./CDTitles/DDR Japari Park Festival.png;
#SAMPLESTART:87.803;
#SAMPLELENGTH:15.000;
#SELECTABLE:YES;
#OFFSET:0.000;
#BPMS:0.000=164.000;
#STOPS:;
#BGCHANGES:;
#FGCHANGES:;

//--------------- dance-single - ----------------
#NOTES:
     dance-single:
     :
     Beginner:
     2:
     0,0,0,0,0:
0000
0000
0000
0000
,
0000
0000
0000
0000
,
0000
0000
0000
0000
,
0000
0000
0000
0000
,
0000
0000
0000
0000
,
0000
0010
0000
0000
,
0000
1000
0000
0000
,
0001
0000
0000
0000
,
0100
0000
0000
0000
,
0010
0000
1000
0000
,
0001
0000
0100
0000
,
0010
0000
1000
0000
,
0001
0000
0100
0000
,
1000
0000
0100
0000
,
0010
0000
0001
0000
,
0010
0100
1000
0001
,
0100
0010
1000
0001
,
0100
0000
0000
1001
,
0110
0000
1000
0000
,
0001
0000
0010
0000
,
0100
0000
1000
0000
,
0001
0000
0010
0000
,
0100
0000
1000
0000
,
0001
0000
0010
0000
,
0100
0000
1000
0000
,
0001
0000
0010
0000
,
1000
0000
0001
0000
,
0100
0000
0010
0000
,
1000
0000
0001
0000
,
0010
0100
0010
0000
,
1000
0000
0001
0000
,
0100
0000
1000
0000
,
0001
0010
0100
1000
,
0001
0000
0000
0000
,
0010
0000
0100
0000
,
1000
0000
0001
0000
,
0100
0000
0001
0000
,
1000
0000
0010
0000
,
0100
0000
1000
0000
,
0001
0000
1000
0000
,
0010
0000
0100
0000
,
0001
0000
1000
0000
,
0010
0000
1000
0000
,
0001
0000
0010
0000
,
0100
0000
0001
0000
,
1000
0000
0001
0000
,
0010
0000
0010
0000
,
0100
0000
0010
0000
,
1000
0000
0001
0000
,
0010
0000
1000
0001
,
0100
0000
1000
0000
,
0001
0000
0010
0000
,
0100
0000
1000
0000
,
0001
0000
0010
0000
,
1000
0000
0001
0000
,
0010
0000
0100
0000
,
1000
0000
0001
0000
,
0010
0100
1000
0001
,
0020
0000
0000
0000
,
0130
0100
0100
0000
,
1001
0100
1000
0000
,
0001
1000
0001
0000
,
0010
0100
0001
0000
,
1000
0001
0100
0000
,
0010
1000
0001
0000
,
0010
0100
0010
0000
,
1000
0001
0010
0000
,
0100
1000
0001
0000
,
0010
0100
0000
0010
,
0000
0100
0000
1000
,
0000
0001
0000
0010
,
0000
0100
0000
1000
,
0000
0001
0010
0100
,
1000
0001
0100
0000
,
0001
0000
1000
0000
,
0010
0100
1000
0001
,
0100
0000
0000
0000
;

//--------------- dance-single - ----------------
#NOTES:
     dance-single:
     :
     Easy:
     5:
     0,0,0,0,0:
0000
0000
0000
0000
,
0000
0000
0000
0000
,
0000
0000
0000
0000
,
0000
0000
0000
0000
,
0000
0000
0000
0000
,
0000
1000
0001
0100
,
0000
1000
0001
0100
,
0010
0000
1000
0000
,
0001
0000
0010
0000
,
0100
1000
0001
0000
,
0100
0010
1000
0000
,
0010
0100
0001
0000
,
1000
0001
0100
0000
,
0010
1000
0001
0010
,
0100
1000
0001
0100
,
0001
0010
0100
1000
,
0002
0100
1000
0100
,
1003
0000
0000
0110
,
1001
0000
0000
0000
1000
0000
0000
0100
,
0000
0001
0010
0000
0100
0000
0001
0000
,
1000
0000
0100
0000
0001
0000
0000
0010
,
0000
0100
1000
0000
0001
0000
0100
0000
,
1000
0000
0000
0000
0001
0000
0000
0100
,
0000
0001
1000
0000
0001
0000
0010
0000
,
0100
0000
0001
0000
1000
0000
0100
0001
,
0000
0100
1000
0000
0001
0000
0110
0000
,
1000
0100
0010
1000
,
0001
0000
0100
0000
0010
1000
0001
0000
,
0100
0010
1000
0001
,
0010
0000
0100
0000
0010
0100
1000
0000
,
0001
0100
1000
0001
,
0010
0100
0010
0100
,
0010
0010
0010
0000
0100
0100
0100
0000
,
0002
0000
1003
1001
,
0110
0000
1000
0000
,
0010
0000
0100
0000
,
0001
0000
0010
0000
,
0100
0000
1000
0000
,
0001
0000
0010
0000
,
0100
0000
0010
0000
,
1000
0000
0001
0000
,
0020
0000
0000
0000
0030
0200
0000
0000
,
0310
0010
1000
0001
,
0010
0001
0100
0001
,
1000
0001
0100
0010
,
1000
0001
0100
0010
,
1000
0001
0001
0010
,
0001
0100
0001
0010
,
1000
0001
0100
0010
,
1000
0001
0200
0010
,
0301
0000
0010
0000
,
1000
0001
0100
0000
,
0010
0000
0100
0000
,
1000
0001
0100
0000
,
0010
1000
0001
0010
,
0100
0001
1000
0001
,
0100
0000
0010
0000
0100
1000
0100
0000
,
0001
0100
1000
0000
0001
1000
0001
0000
,
0200
0000
0320
0000
,
1030
0100
0010
1001
,
0010
0100
1000
0001
,
0010
0001
0100
1000
,
0001
0100
0010
0010
,
0001
1000
0001
0100
,
0010
1000
0001
0100
,
0010
1000
0001
0100
,
1000
0001
0100
1000
,
0001
0100
1000
0001
,
0110
1000
0001
0010
,
0100
0010
1000
0001
,
1000
0010
0001
0100
,
0010
1000
0001
0100
,
0010
1000
0001
0010
,
0100
0010
1000
0001
,
0100
0010
1000
0001
,
0010
0100
0010
1000
,
1001
0000
0000
0000
;

//--------------- dance-single - ----------------
#NOTES:
     dance-single:
     :
     Medium:
     9:
     0,0,0,0,0:
0000
0000
0000
0000
,
0000
0000
0000
0000
,
0000
0000
0000
0000
,
0000
0000
0000
0000
,
0000
0000
0000
0000
,
0000
0010
1000
0001
,
0000
0100
0010
1000
,
0001
0100
1000
0001
,
0100
0000
0000
1000
0000
0000
0001
0000
0100
0000
0000
0000
1000
0000
0000
0000
,
0010
1000
0001
0100
,
0010
1000
0001
0010
,
0100
0010
0100
0000
1000
0000
0001
0000
,
0010
1000
0100
0000
0001
0000
1000
0000
,
0001
0010
0100
0000
1000
0001
0100
0000
,
0010
1000
0001
0000
0010
0100
1000
0000
,
0001
0010
0100
1000
0001
0010
0100
0001
,
0010
0100
1000
0001
0010
0100
1000
0001
,
0200
0000
0000
0310
,
1001
0000
0011
0000
0100
0000
1000
0001
,
0000
0100
1000
0000
0001
0000
0010
0000
,
0100
0010
0100
0000
1001
0000
0000
0010
,
0000
1000
0100
0001
0010
0000
1001
0000
,
0001
0010
0100
0000
1100
0000
0001
0100
,
0000
0010
1000
0000
0011
0000
0100
0000
,
0010
1000
0001
0000
0110
0000
0000
0010
,
0000
1000
0100
0000
0010
0000
0200
0000
,
0301
0000
0000
0000
1100
0000
0000
0000
0001
0000
0000
0010
0000
0000
0100
0000
,
1000
0000
0000
0000
0001
0000
0000
0000
0100
0000
0000
0010
0000
0000
1000
0000
,
0001
0000
0000
0000
0110
0000
0000
0000
0010
0000
0000
1000
0000
0000
0001
0000
,
0010
0000
0000
0000
0001
0000
0000
0000
0100
0000
0000
0001
0000
0000
0100
0000
,
1000
0001
0100
0000
0010
1000
0001
0000
,
0010
0100
1000
0000
0010
0100
0001
0000
,
1000
0001
0010
0100
1000
0001
0010
0100
,
2000
3001
0020
0130
,
1001
0000
0100
0000
1000
0100
0001
0000
,
0100
0000
0010
0000
1000
0100
0001
0000
,
0010
0000
0100
0000
1000
0010
0001
0000
,
0100
0000
0010
0000
0100
0001
1000
0000
,
1001
0000
0010
0000
0100
1000
0010
0000
,
0100
0000
1000
0000
0001
0010
0100
0000
,
0010
0000
0001
0000
1000
0100
0001
0000
,
0020
0000
0000
0000
0030
0200
0000
0000
,
0310
0000
1000
0000
0001
0100
1000
0000
,
0001
0000
0100
0000
0010
1000
0001
0000
,
0100
0000
0010
0000
1000
0001
0100
0000
,
0010
0000
1000
0000
0001
0010
0100
0000
,
0001
0000
1000
0000
0001
0100
0010
0000
,
1000
0000
0001
0000
0100
0010
1000
0000
,
0001
0000
0100
0000
0010
0100
1000
0000
,
0001
0010
2000
3002
,
0103
0000
1000
0000
0001
0000
0100
0001
,
1000
0000
0001
0000
0010
1000
0010
0000
,
0100
0000
1000
0000
0010
0100
1000
0000
,
0001
0000
0100
0000
1000
0001
0100
0000
,
1000
0000
0001
0000
0010
1000
0100
0000
,
0010
0000
1000
0000
0001
1000
0100
0000
,
0010
0100
1000
0000
0001
0010
0100
0000
,
1000
0001
0100
1000
0010
0100
1000
0001
,
0020
0000
0230
0000
,
0310
0010
0100
0110
,
1001
0000
0100
0000
1000
0001
0100
0000
,
0010
0000
0100
0000
0001
0010
0100
0000
,
1000
0001
0100
0000
0010
0000
0100
0000
,
1000
0001
0100
0000
0010
0100
1000
0000
,
0001
0000
0010
0000
0100
0001
0010
0000
,
0100
1000
0101
0010
,
0100
1000
0010
0100
,
1000
0001
0100
0010
,
1001
0110
0010
0011
,
0010
0110
1000
1100
,
0010
0110
0001
0011
,
0100
0110
1000
1100
,
0001
0010
0100
1000
,
0001
0010
0100
1000
,
0001
0100
1000
0000
0001
0100
0010
0000
,
1000
0001
0100
0010
0100
1000
0001
0010
,
0110
0000
0000
0000
;

//--------------- dance-single - ----------------
#NOTES:
     dance-single:
     :
     Hard:
     14:
     0,0,0,0,0:
0000
0000
0000
0000
,
0000
0000
0000
0000
,
0000
0000
0000
0000
,
0000
0000
0000
0000
,
0000
0000
0000
0000
,
0000
0000
0001
0010
0100
0000
1000
0000
,
0000
0000
0001
0100
1000
0000
0001
0000
,
0010
0000
0100
0000
1000
0001
0100
0000
,
0100
0000
0000
1000
0000
0000
0001
0000
0100
0000
0000
0000
1001
0000
0000
0000
,
0010
0000
1000
0100
0001
0000
0100
0000
,
1000
0100
0001
1000
0010
0001
0100
1000
,
0001
0100
1000
0001
0100
0010
0100
1000
,
0010
0001
1000
0100
0001
1000
0100
0001
,
1000
0001
0100
0010
0100
1000
0001
0010
,
0100
0001
0010
0100
1000
0001
0010
0100
,
1000
0001
1000
0000
0001
1000
0001
0000
1000
0001
1000
0000
0001
1000
0001
0000
,
0010
0100
1000
0000
0100
0010
1000
0000
0100
0001
0010
0000
0001
0100
0010
0000
,
0002
0000
0003
1001
,
0001
0000
1100
0000
0020
0000
0031
1000
,
0000
0010
0001
0000
2000
0000
3100
0000
,
0010
0100
0010
0000
1002
0000
0000
0103
,
0000
0001
0010
1000
0200
0000
0301
0000
,
1000
0100
0010
0000
0002
0000
1003
0010
,
0000
0100
0001
0000
0200
0000
0310
0000
,
0100
0001
1000
0000
0120
0000
1030
0100
,
0001
1000
0010
0000
0200
0000
0320
0000
,
1030
0100
1000
0001
0010
0100
0010
0100
,
1000
0100
0001
1000
0001
0100
1000
0001
,
0010
0100
2000
0000
3001
0000
0010
1000
,
0001
1000
0010
0100
1000
0100
0001
1000
,
0010
0100
0001
0010
0100
1000
0001
0010
,
0100
0010
1000
0001
0100
1000
0001
0010
,
0100
1000
0010
0000
0010
0100
0001
0000
0100
1000
0010
0000
0010
0100
0001
0000
,
2000
3200
0320
0032
,
2003
3001
0010
1100
,
0001
0110
1000
0101
,
0002
1003
1000
0110
,
1000
0011
0001
0110
,
2000
3100
0001
0110
,
1000
0011
0100
1010
,
0002
1003
0001
0110
,
1000
0100
0010
0002
0003
0200
0000
0000
,
0320
0000
0130
0010
1000
0001
1000
0010
,
0100
0010
1000
0100
0010
0001
1000
0001
,
2000
0000
3001
0010
0100
0010
0100
0001
,
1000
0001
0100
0001
1000
0100
1000
0100
,
2000
0000
3100
0001
0100
0001
0010
0100
,
1000
0010
1000
0001
0010
0100
1000
0001
,
2000
0000
3010
0001
0010
0100
1000
0001
,
1000
0100
1000
0001
0020
0000
0230
0000
,
0301
0010
0100
0000
1000
0000
0001
0100
,
0000
1000
0001
0000
0100
0010
0100
0000
,
1000
0001
0010
0000
0100
0000
0010
0100
,
0000
1000
0001
0000
0100
0000
0110
0000
,
1000
0010
0100
0000
1000
0000
0001
0100
,
0000
0010
1000
0000
0001
0100
0010
0000
,
1000
0001
0100
0000
0010
0100
1000
0000
,
0001
0010
0100
1000
0001
0010
0100
1000
,
0002
0000
2003
0000
,
3001
0000
0110
0000
0100
1000
1001
0000
,
0010
0000
0100
0000
0010
0000
1000
0000
0010
0001
0100
0000
0001
0000
0100
0000
,
0010
0000
0100
0000
0001
0000
1000
0000
0100
0001
1000
0000
0001
0100
1000
0000
,
0010
0000
0100
0000
0010
0000
0100
0000
0001
1000
0100
0000
0010
0000
1000
0000
,
0001
0000
0100
0000
0001
0000
0010
0000
0100
0001
1000
0000
0010
0100
1000
0000
,
0001
0000
0010
0000
0001
0000
1000
0000
0010
0100
1000
0000
0001
0000
1000
0000
,
0100
0000
0010
0000
0100
0000
0010
0001
0100
0000
1000
0100
0001
0000
1000
0000
,
0001
0000
0000
0110
0000
0000
1000
0000
0000
0100
0000
0001
0010
0000
1000
0000
,
0001
0000
0000
0000
0000
0000
0010
0000
0000
0100
0000
0000
0000
0000
0000
0000
0000
0000
1000
0000
0000
0100
0000
0000
0010
0000
0000
0000
0000
0000
0001
0000
0000
0000
0000
0000
1000
0000
0000
0000
0001
0000
0000
0000
0100
0000
0000
0000
,
0010
0100
1000
1001
0000
0000
0001
0010
0001
1010
0000
0000
,
1000
0100
1000
0101
0000
0000
0100
0010
0100
1001
0000
0000
,
0001
0010
0100
1001
0000
0000
1000
0001
1000
0110
0000
0000
,
0001
0000
0010
0000
0100
0000
1001
0000
0000
0000
0000
0000
0010
0000
0100
0000
0010
0000
1001
0000
0000
0100
0000
0000
,
0010
0000
1000
0000
0001
0000
0010
0000
0100
0000
1000
0100
0010
0000
0100
0000
,
0001
0000
0100
0000
0010
0000
0100
0000
0010
0000
1000
0100
0010
0000
0100
0000
,
0001
0000
0100
0010
0001
0000
1000
0100
0010
0000
1000
0001
0010
0000
1000
0000
,
0100
0001
0010
0000
1000
0100
1000
0000
0001
1000
0001
0000
0100
0010
0100
0000
,
2002
0000
0000
0000
,
3003
0000
0000
0000
;
