#TITLE:Prism;
#ARTIST:Hiroyuki Kawada (Realtime Remix by BEMANI Sound Team "SYUNN");
#GENRE:Beat Square;
#MUSIC:Prism.ogg;
#BANNER:Prism.png;
#BACKGROUND:Prism-bg.png;
#CDTITLE:./CDTitles/Beat Square Ave.png;
#SAMPLESTART:87.630;
#SAMPLELENGTH:15.000;
#SELECTABLE:YES;
#OFFSET:0.000;
#BPMS:0.000=178.000
,100.000=89.000
,112.000=712.000
,113.000=89.000
,114.500=178.000
,115.500=89.000
,141.000=178.000
,157.000=44.500
,165.000=89.000
,173.000=178.000
,316.000=712.000
,316.125=356.000
,316.250=178.000
,316.375=89.000
,316.500=44.500
,316.625=22.250
,317.000=178.000
;
#STOPS:112.000=0.249
,187.000=0.337
;
#DISPLAYBPM:89.000:178.000;
#BGCHANGES:;
#FGCHANGES:;

//--------------- dance-single - ----------------
#NOTES:
     dance-single:
     :
     Beginner:
     2:
     0,0,0,0,0:
0000
0000
0000
0000
,
0000
0000
0000
0000
,
0000
0000
0000
0000
,
0000
0000
0000
0000
,
0000
0000
0000
0000
,
0000
0000
0000
0000
,
0000
0000
0000
0000
,
0000
0000
0000
0000
,
0000
0000
0000
0000
,
0020
0000
0000
0000
0030
0000
0000
0200
,
0000
0000
0000
0000
0300
0000
0000
0002
,
0000
0000
0000
0000
,
0003
0000
0000
0000
,
1001
0000
0000
0000
0000
0000
0000
0200
,
0000
0000
0000
0000
0300
0000
0000
0002
,
0000
0000
0000
0000
,
0000
0000
0000
0003
,
1000
0000
0100
0000
,
0001
0000
0010
0000
,
0100
0000
1000
0000
,
0001
0000
0010
0000
,
0100
0000
1000
0000
,
0001
0000
0010
0000
,
0100
0000
0010
0000
,
0110
0000
0000
0000
,
1000
0100
0010
0001
,
0010
0100
0001
1000
,
0100
0010
0001
1000
,
0100
0000
0000
1000
0000
0001
0000
0010
,
0100
1000
1001
0000
0100
0000
0010
0000
,
0001
0010
0100
1000
,
0001
0100
0010
0100
,
1000
0001
0100
0010
,
0100
0101
1000
0001
,
0100
0010
0100
1000
,
0001
0100
0000
1000
,
0000
0001
0000
0100
,
0000
0010
0000
0100
,
0000
1000
0000
0000
,
0000
1001
0000
0000
,
0000
0000
0000
0000
,
0000
1000
1000
0001
,
0001
0010
0010
0100
,
0100
1000
0000
1000
,
0000
0001
0000
0001
,
0000
1000
0000
0100
,
0000
1001
0000
0000
,
0110
0000
1000
0000
,
0001
0000
0100
0000
,
0010
0001
1000
0000
,
0100
0000
0010
0000
,
0001
0000
1000
0000
,
0001
0000
0100
0000
,
0010
0001
0100
0220
,
0000
0000
0000
0330
,
1001
0000
0100
0000
,
0010
0000
0001
0000
,
0010
0000
1000
0000
,
0001
1000
0001
0000
,
0100
0000
0010
0000
,
0001
0000
0010
0000
,
1000
0001
0100
0000
,
0000
0000
0000
0000
,
0001
1000
0010
0000
,
0100
0000
0010
0000
,
0001
0000
1000
0000
,
0001
0000
0100
0000
,
0010
1000
0001
0000
,
0100
0000
0010
0000
,
0001
0000
1000
0000
,
0010
0000
0100
0000
,
0001
0000
0001
0000
,
1000
0000
1000
0000
,
0001
0000
0100
0000
,
0010
0000
0001
0000
,
1000
0100
0010
0000
,
0001
0010
0100
0000
,
1000
0001
0100
0000
,
0000
0010
0100
0010
,
0110
0000
0000
0000
;

//--------------- dance-single - ----------------
#NOTES:
     dance-single:
     :
     Easy:
     7:
     0,0,0,0,0:
0000
0000
0000
0000
,
0000
0000
0000
0000
,
0000
0000
0000
0000
,
0000
0000
0000
0000
,
0000
0000
0000
0000
,
0000
0000
0000
0000
,
0000
0000
0000
0000
,
0000
0000
0000
0000
,
0000
0000
0000
0000
,
1001
0000
0000
0000
1000
0000
0001
0110
,
0000
0000
0000
0000
0010
0000
0100
1001
,
0000
0000
0000
0000
,
0000
0000
0000
0000
,
0010
0000
0000
0000
0100
0000
1000
0001
,
0000
0000
0000
0000
0100
0000
0010
0100
,
0000
0000
0000
0000
,
0010
0000
0000
0000
,
1000
0000
0001
0000
,
0100
0000
0010
0000
,
0001
0000
1000
0000
,
0001
0000
0010
0000
,
1000
0001
0100
0010
,
1000
0001
0100
0001
,
1000
0001
0100
0000
0010
0100
1000
0000
,
0110
0000
0000
0000
,
1001
0000
0001
0000
0100
0010
1000
0000
,
0001
0000
1000
0000
0001
0100
0010
0000
,
1001
0000
0100
0000
0010
0001
0010
0000
,
0100
0000
0010
1000
0000
0001
0000
0100
,
0010
0100
1000
0000
0001
0000
0100
0000
,
0010
0000
0001
1000
0001
0000
0100
0010
,
0001
0010
0100
0000
1000
0000
0001
0100
,
0010
0000
0100
0000
1000
0000
0001
0100
,
0010
0100
1000
0000
0001
0000
0100
0010
,
0001
1000
0001
0100
,
0010
1000
0001
0100
,
0010
0100
1000
0001
,
0100
0000
0010
1000
0001
0000
0100
1000
,
0001
0100
1010
1000
,
0001
0110
0000
0000
,
0000
0000
0000
0000
0000
0000
0000
0000
1000
0000
0000
0000
0000
0000
0000
0001
0000
0000
0000
0000
0000
0000
0000
0100
0000
0000
0000
0000
0000
0000
0000
0000
,
0000
0000
1000
0100
0001
1000
0010
0001
,
0100
0010
0001
0010
0100
1000
0001
0100
,
0010
1000
0001
0000
1000
0000
0001
0000
,
0100
0010
0100
1000
,
0001
0000
0100
0001
0010
0000
1000
0001
,
0010
0220
0000
0330
,
1001
0100
0010
0001
,
1000
0000
0001
0000
0100
1000
0001
0000
,
0100
0000
0010
0000
0001
0010
0100
0000
,
1000
0001
0100
0010
,
0100
0000
1000
0000
0001
0100
0010
0000
,
0100
0000
1000
0000
0001
0100
0010
0000
,
0001
0000
0010
0000
0100
1000
0001
1000
,
0000
0000
0001
0000
0000
1000
0000
0000
0001
0000
0000
0100
0000
0000
0010
0000
,
0100
0100
1000
0001
,
0100
0010
0100
0000
1000
0000
0001
0000
,
0100
0001
0010
0000
0100
0000
1000
0000
,
0001
0100
0010
0000
0001
0000
0010
0000
,
0100
1000
0001
0000
0100
0001
0010
0000
,
0100
1000
0001
0000
0010
0100
1000
0000
,
1000
0100
0010
0001
,
0220
0000
0000
0330
,
1000
0001
0100
0010
,
0001
0000
0010
0100
,
1000
0000
0100
0000
,
0001
0000
0010
0001
,
0010
0100
1000
0001
,
0100
0000
0010
0001
,
0010
0100
1000
0001
,
0010
0000
0010
0100
,
1010
0100
0010
0001
,
0100
0000
0010
0000
1000
0000
0001
0100
,
1000
0001
0010
0100
,
0001
0000
0010
0000
0100
1000
0001
0000
,
0100
1000
0001
0000
0001
1000
0001
0000
,
0100
0010
0100
0000
1000
0001
0010
0000
,
0100
0010
0100
1000
,
0000
0001
1000
0001
,
0110
0000
0000
0000
;

//--------------- dance-single - ----------------
#NOTES:
     dance-single:
     :
     Medium:
     11:
     0,0,0,0,0:
0000
0000
0000
0000
,
0000
0000
0000
0000
,
0000
0000
0000
0000
,
0000
0000
0000
0000
,
0000
0000
0000
0000
,
0000
0000
0000
0000
,
0000
0000
0000
0000
,
0000
0000
0000
0000
,
0000
0000
0000
0000
,
1001
0000
0000
0000
0100
0010
0100
2000
,
0000
0000
0000
0000
3001
0010
0100
0002
,
0000
0000
0000
0000
,
0000
0000
1003
0000
,
1002
0000
0000
0000
0013
0100
1000
0002
,
0000
0000
0000
0000
0103
1000
0001
0020
,
0000
0000
0000
0000
,
0200
0000
0000
0330
,
1000
0000
0001
0000
0010
0100
1000
0000
,
0001
0000
0010
0000
0001
0010
0100
0000
,
1000
0000
0001
0000
0100
0001
0010
0000
,
0100
0000
1000
0000
0001
0010
0100
0000
,
1000
0001
0010
0000
0100
1000
0001
0000
,
0010
0100
1000
0000
0001
0010
0100
0000
,
0001
1000
0010
0001
0010
0100
1000
0000
,
1001
0000
0000
0000
,
0110
0000
1000
0000
0001
0100
0010
0000
,
1000
0000
0001
0010
0100
0000
0010
0100
1000
0001
0010
0001
0100
1000
0001
0000
,
0010
0000
0100
0000
1000
0001
0010
1000
0100
1000
0001
0100
0010
0000
0100
0000
,
1000
0000
0020
0031
1000
0010
0000
0100
,
1000
0000
0001
0000
0110
0000
1000
0001
0010
0100
1000
0001
0010
0100
0001
1000
,
0001
0010
0100
0000
0010
1000
0001
0010
0100
0001
0010
0100
1000
0001
0010
0100
,
0001
0010
0100
0000
1000
0000
0001
0000
0010
0100
0001
0000
0000
0010
0100
1000
,
0001
0010
0100
0000
0010
0100
1000
0001
0010
0000
0100
1000
0001
0000
0010
0000
,
0100
0000
0010
0000
0110
0000
1000
0000
0001
0100
0010
0000
0100
0000
1000
0000
,
0001
0000
0000
0010
0000
0000
0100
0001
0010
1000
0000
0000
0001
0000
0000
0010
1000
0001
0100
0000
0000
1000
0100
0010
,
0001
0100
1001
0000
0100
0000
0001
1000
,
0001
0000
0010
0000
0100
0000
1000
0001
,
0010
0000
0100
1000
0001
0010
0100
0001
,
0010
0100
2000
3000
0101
0000
1001
0000
,
0110
0000
0000
0000
0000
0000
0000
0000
1000
0000
0000
0000
0000
0010
0100
0001
0000
0000
0000
0000
0000
0100
0001
1000
0000
0010
0000
0000
0000
0000
0000
0000
,
0000
0000
0000
0000
0000
0000
0000
0000
0010
0000
0000
0000
0000
1000
0001
0100
0000
0000
0000
0000
0000
0100
0001
1000
0000
0100
0000
0000
0000
0000
0000
0000
,
0002
0000
1003
0100
0010
1000
0001
0100
,
0001
0000
0000
0000
0010
0000
1000
0100
0001
0000
0000
0000
1000
0000
0000
0000
0001
0000
0000
0000
0010
0000
0000
0000
0100
0000
0000
0000
1000
0000
0000
0000
,
0001
0000
0000
1000
0100
0000
0010
0001
1000
0000
0000
0000
0010
0000
0000
0000
0001
0000
0000
0000
0000
0000
0000
0000
0100
0000
0000
0000
1000
0000
0000
0000
,
0010
0000
0100
0001
1000
0000
0001
0010
,
0100
0000
1000
0100
0001
0010
0100
1000
,
0001
0010
0200
0000
0000
0000
0310
0000
,
1001
0000
0000
0000
1000
0000
0000
0010
0001
0010
0000
0000
0010
0000
1000
0000
,
0100
0000
0000
0000
0001
0000
0000
0001
0100
0001
0000
0000
0001
0000
0100
0000
,
1000
0000
0000
0000
0010
0000
0000
1000
0010
1000
0000
0000
0001
0000
0100
0000
,
0001
0000
0000
0000
1000
0000
0000
0100
0010
0100
0000
0000
0010
0000
0100
0000
,
0010
0000
0000
0000
0001
0000
0000
1000
0010
1000
0000
0000
1000
0000
0001
0000
,
1000
0000
0000
0000
0010
0000
0000
0001
1000
0001
0000
0000
0001
0000
1000
0000
,
0001
0000
0000
0000
0010
0000
0000
0100
1000
0100
0000
0000
1000
0000
0001
0000
,
0201
0000
0010
0000
0000
0010
0000
0000
0010
0000
0000
0010
0000
0000
0310
0000
,
0010
1000
0010
1000
0100
0000
0010
0001
,
0010
0001
0100
0000
1000
0000
0001
0000
,
0100
0001
0100
0001
0010
0000
0100
1000
,
0100
1000
0010
0000
0001
0000
1000
0000
,
1000
0100
1000
0100
0010
0000
0001
0100
,
0001
0100
0010
0000
0010
0000
0001
0000
,
2000
0000
3000
0200
0000
0300
0002
0000
,
0003
0200
0000
0300
1000
0000
0001
0000
,
1000
0010
0100
0001
1000
0000
0001
0100
,
0010
1000
0001
0000
0010
0000
0001
0000
,
1000
0100
0010
0001
1000
0000
0001
0010
,
0100
1000
0001
0000
0100
0000
1000
0000
,
0001
0010
0001
0010
0100
1000
0100
0010
,
0001
0100
0001
0100
0010
1000
0010
0100
,
0001
0010
0100
1000
0010
0100
0001
0010
,
0000
0110
0000
0000
0001
0000
1000
0000
,
0001
0000
0000
0000
0010
0000
0000
0000
1000
0000
0000
1000
0000
0000
1000
0000
,
0100
0000
0000
0000
0001
0000
0000
0000
0010
0000
0000
0010
0000
0000
0010
0000
,
1000
0000
0000
0000
0010
0000
0000
0000
0001
0000
0000
0001
0000
0000
0001
0000
,
0010
0000
0000
0000
0001
0000
0000
0000
0100
0000
0000
0100
0000
0000
0100
0000
,
0001
0010
0100
0000
1000
0010
0100
0000
,
0001
0100
0010
0000
1000
0100
0010
0000
,
0001
0010
0001
0010
0100
1000
0100
1000
,
0010
0210
0010
0010
,
0310
0000
0000
0000
;

//--------------- dance-single - ----------------
#NOTES:
     dance-single:
     :
     Hard:
     16:
     0,0,0,0,0:
0000
0000
0000
0000
,
0000
0000
0000
0000
,
0000
0000
0000
0000
,
0000
0000
0000
0000
,
0000
0000
0000
0000
,
0000
0000
0000
0000
,
0000
0000
0000
0000
,
0000
0000
0000
0000
,
0000
0000
0000
0000
,
2002
0000
0003
0000
3001
0100
0010
2002
,
0000
0000
0003
0000
3001
0100
0010
2002
,
0000
0000
0000
0000
,
0000
0000
0023
3000
,
0200
0000
0300
0000
1030
0001
0100
2020
,
0000
0000
0030
0000
3020
0032
2003
3200
,
0000
0000
0000
0000
,
0020
0000
0000
0330
,
0100
0010
0001
1000
0100
0010
0001
0010
,
0001
1000
0001
0100
0010
0100
0010
1000
,
0010
0100
0001
0010
0100
0010
0001
0100
,
0010
0100
0001
0100
0010
1000
0010
0100
,
0001
0010
0001
1000
0010
1000
0001
1000
,
0010
0100
0010
1000
0100
0010
0100
0010
,
1000
0100
1000
0000
0100
0001
0100
0000
1000
0001
1000
0001
1000
0001
1000
0001
,
2000
0000
0000
3001
,
1001
0000
0000
0000
0001
0000
0010
0000
0100
0000
2000
0000
3002
0000
0000
0000
0103
0000
1000
0000
0001
0000
0100
1000
0010
0000
0001
0000
2000
0000
0000
0000
,
3001
0000
0100
0000
0010
0000
0001
0000
1000
0000
0001
0000
0100
0001
0010
1000
0100
0001
0010
1000
0100
0000
0001
0000
0010
0000
0100
0000
1000
0000
0100
0000
,
0110
0000
0000
0000
0002
0000
0000
0000
1003
0000
0010
0000
0100
0000
0001
0010
0100
0000
1000
0000
0001
0000
0010
0100
1000
0001
0100
0010
0001
0000
1000
0000
,
0100
0000
0000
0000
0020
0000
0031
1000
0010
0001
1000
0000
0000
0000
0101
0000
,
0110
0000
0000
0000
1010
0000
0000
0000
0110
0000
0000
0000
0001
0010
0001
0010
0100
0000
1000
0000
0100
0000
1000
0000
0100
0000
0010
0000
0001
0000
0010
0000
,
0001
0000
1000
0000
0000
0000
0001
0000
0100
0000
1000
0000
0010
0000
0001
0000
0100
0000
1000
0001
0010
1000
0100
0000
0001
0000
1000
0001
0000
1000
0001
0000
,
0100
0000
0001
0010
1000
0000
0001
0000
0200
0000
0000
0000
0320
0000
0000
0000
1030
0000
0000
0001
0100
0001
0100
0001
0000
0001
0100
0001
0100
0000
0010
0000
,
1000
0000
0000
0000
0001
1000
0001
0010
0100
0000
0010
0000
0001
0000
0100
0000
0010
0000
1000
0000
0002
0000
0010
0000
0103
0000
0000
0000
1000
0000
1010
0000
,
0000
0000
0001
0100
0000
0001
1000
0001
2000
0000
0000
0000
3002
0000
0000
0000
0203
0000
0000
0000
0320
0000
0000
0000
2030
0000
0000
0000
3002
0000
0000
0103
,
1000
0000
0000
0000
0001
0000
0000
0000
1000
0000
0000
0000
0001
0000
0000
0000
0000
0000
0010
0000
0000
0000
0000
0000
0100
0000
0000
0000
1000
0000
0000
0000
0001
0000
0000
0000
0100
0000
0000
0000
0000
0000
1000
0000
0000
0000
0000
0000
0010
0000
0000
0000
1000
0000
0000
0000
0001
0000
0000
0000
1000
0000
0000
0100
0000
0000
0010
0000
0000
0001
0000
0000
0010
0000
0000
0000
1000
0000
0000
0000
0001
0000
0000
0000
0100
0000
0000
0000
0001
0000
0000
0000
0000
1000
0000
0000
,
0010
1000
0001
0000
1001
0000
0000
0000
0001
0000
0100
0000
0010
0000
0100
0001
,
0010
0000
1000
0001
0100
0000
0010
1000
0100
0000
1000
0010
0001
0000
0010
1000
,
0100
0000
0010
0001
0100
0000
0010
0000
0001
0000
1000
0000
0010
0000
1000
0000
,
0010
0001
0100
1000
0001
0100
1000
0010
0200
0000
0000
0000
2300
0000
0000
0000
,
0002
0000
0000
0000
0000
0000
0000
0000
0000
0000
0000
0000
3003
0000
0000
0000
0000
0000
0000
0000
0000
0000
0000
0000
0120
0000
0000
0000
0000
0000
0000
0000
0000
0000
0000
0000
0000
0000
0000
0031
0000
0000
1000
0000
0000
0002
0000
0000
0000
0000
0000
0000
0000
0000
0000
0000
0000
0000
0000
0000
0000
0000
0000
1003
0000
0000
0100
0000
0000
0020
0000
0000
0000
0000
0000
0000
0032
0000
0000
0000
0000
0000
0000
0000
0000
0000
0000
0000
0000
0000
0000
0000
0000
0000
0000
0000
,
0000
0000
0000
0000
0000
0000
0000
0000
0000
0000
0000
0000
0000
0000
2003
0000
0000
0000
0000
0000
0000
0000
0000
0000
0000
0000
3001
0000
0010
0000
0200
0000
0000
0000
0000
0000
0000
0000
0000
0000
0000
0000
0310
0000
0100
0000
0002
0000
0000
0000
1003
0100
0002
0000
0000
0000
0000
0000
0000
0000
0000
0000
0000
0000
,
2000
0000
0000
0000
0000
0000
0000
3003
0010
0000
0000
0000
0100
0000
0000
0000
0010
0000
0000
0000
0100
0000
0000
0000
0001
0000
0000
0000
0010
0000
0000
0000
,
0100
0000
0000
0000
0010
0000
1000
0100
0001
0000
0000
0000
0010
0000
0000
0000
0100
0000
0000
0000
1000
0000
0000
0000
0001
0000
0000
0000
0010
0000
0000
0000
,
0001
0000
0000
0010
1000
0000
0001
0010
0100
0000
0000
0000
1000
0000
0000
0000
0100
0000
0000
0000
1000
0000
0000
0000
0001
0000
0000
0000
0010
0000
0000
0000
,
0001
1000
0001
0010
0100
0010
0001
1000
,
0001
0000
0010
0000
1000
0100
1000
0100
1000
0100
1000
0100
1000
0100
1000
0100
,
1000
0100
1000
0100
2000
0000
0000
0000
0000
0000
0000
0000
0002
3003
0000
0000
,
0001
0100
0010
0100
0010
1000
0001
1000
,
0010
1000
0100
0010
0100
0010
0001
1000
,
0001
0010
0001
0010
0100
1000
0010
1000
,
0001
0100
0010
0100
0001
0010
0001
0100
,
0010
0100
0001
0100
0010
1000
0010
0100
,
0010
0100
0001
1000
0001
0010
0001
1000
,
0100
0010
0001
1000
0100
0010
0001
1000
,
0000
0000
0202
0303
0000
2002
3003
0000
0220
0330
0000
2002
3003
0000
0220
0330
,
0001
1000
0001
1000
0010
0100
0010
0100
,
0010
1000
0100
1000
0010
0100
0010
0100
,
0001
1000
0001
0100
0010
0100
0001
1000
,
0001
0010
0100
1000
0100
0010
0100
1000
,
0001
1000
0100
0010
0100
1000
0001
1000
,
0010
0100
0001
0010
0001
1000
0100
0010
,
0001
0100
0001
0100
0001
0100
0010
0100
0010
0100
0010
0100
1000
0100
1000
0100
,
2000
0000
0000
0002
0000
0000
0000
3003
,
0100
1000
0010
1000
0001
0100
0010
1000
,
0010
0000
1000
0000
0010
0000
0100
0000
0001
0000
0100
0000
0001
0000
1000
0001
,
0010
1000
0010
1000
0100
0010
0001
1000
,
0001
0010
0001
1000
0100
0010
0001
0100
,
0001
0100
0001
0010
0100
1000
0001
0010
,
0100
0000
1000
0000
0010
0000
1000
0000
0100
0000
1000
0000
0100
0000
0010
0001
,
0100
1000
0001
0100
0001
0100
0010
1000
,
0100
0000
1000
0100
0001
1000
0010
0001
0100
0010
1000
0100
0001
0000
1000
0000
,
0100
0010
0100
0010
0001
0100
0001
1000
,
0001
0000
0100
0000
0010
0000
0100
0000
0010
0000
0100
0000
0001
0000
1000
0001
,
0100
0010
0001
0010
0001
0100
0001
1000
,
0010
0000
1000
0000
0100
0001
1000
0000
0001
0000
0100
1000
0010
0000
0100
0001
,
0010
1000
0010
1000
0100
0010
0001
1000
,
0010
1000
0001
0010
0100
1000
0010
0100
0001
1000
0100
1000
0100
1000
0001
0010
,
0200
0000
0310
1002
0000
0103
1010
0000
,
0000
1001
0101
1001
,
0220
0000
0000
0000
0000
0330
0000
0000
0000
0000
0000
0000
0000
0000
0000
0000
0000
0000
0000
0000
0000
0000
0000
0000
0000
0000
0000
0000
0000
0000
0000
0000
;
