#TITLE:プリ☆ホリ;
#ARTIST:2℃ feat.ORI姫;
#TITLETRANSLIT:Pri☆Hori;
#ARTISTTRANSLIT:2℃ feat.ORI Hime;
#GENRE:けものフレンズ×NonStopDance -フレンズの歌の音楽-;
#MUSIC:Pri Hori.ogg;
#BANNER:Pri Hori.png;
#BACKGROUND:Pri Hori-bg.png;
#CDTITLE:./CDTitles/NSD A3.png;
#SAMPLESTART:42.579;
#SAMPLELENGTH:15.000;
#SELECTABLE:YES;
#OFFSET:-0.176;
#BPMS:0.000=232.000;
#STOPS:;
#BGCHANGES:;
#FGCHANGES:;

//--------------- dance-single - ----------------
#NOTES:
     dance-single:
     :
     Beginner:
     2:
     0,0,0,0,0:
0000
0000
0000
0000
,
0000
0000
0000
0000
,
0000
0000
0000
0000
,
0000
0000
0000
0000
,
0000
0000
0000
0000
,
0000
0000
0000
0000
,
0000
0000
0000
0000
,
0000
0000
0000
0000
,
0000
0000
0000
0000
,
0001
0000
0000
0000
,
0000
0000
0000
0000
,
0001
0000
0000
0000
,
0000
0000
0000
0000
,
1000
0000
0000
0000
,
0000
0000
0000
0000
,
1000
0000
0000
0000
,
0000
0000
0000
0000
,
0010
0000
0000
0000
,
0000
0000
0000
0000
,
0100
0000
0000
0000
,
0000
0000
0000
0000
,
0010
0000
0000
0000
,
0000
0000
0000
0000
,
1000
0000
0000
0000
,
0001
0000
0010
0000
,
0100
0000
0000
0000
,
1000
0000
0000
0000
,
0001
0000
0000
0000
,
0010
0000
0000
0000
,
0100
0000
0000
0000
,
1000
0000
0000
0000
,
0001
0000
0010
0000
,
0100
0000
0000
0000
,
1000
0000
0000
0000
,
0000
0000
0000
0000
,
0001
0000
0000
0000
,
0000
0000
0000
0000
,
0010
0000
0000
0000
,
0100
0000
0000
0000
,
0020
0000
0000
0000
,
0030
0000
0000
0000
,
1000
0000
0000
0000
,
0100
0000
0000
0000
,
0010
0000
0001
0000
,
0100
0000
0000
0000
,
0010
0000
0000
0000
,
0100
0000
0000
0000
,
0010
0000
0000
0000
,
1000
0000
0000
0000
,
0001
0000
0000
0000
,
0010
0000
0000
0000
,
0100
0000
0010
0000
,
0100
0000
0000
0000
,
1000
0000
0000
0000
,
0001
0000
0000
0000
,
0010
0000
0100
0000
,
0010
0000
0000
0000
,
1000
0000
0000
0000
,
0001
0000
0000
0000
,
0010
0000
0000
0000
,
0100
0000
0000
0000
,
0001
0000
0000
0000
,
1000
0000
0000
0000
,
0010
0000
0000
0000
,
0100
0000
0000
0000
,
1000
0000
0000
0000
,
0001
0000
0000
0000
,
0010
0000
0000
0000
,
0100
0000
0000
0000
,
0010
0000
0000
0000
,
1000
0000
0000
0000
,
0001
0000
0000
0000
,
0010
0000
0000
0000
,
0100
0000
0000
0000
,
1000
0000
0000
0000
,
0001
0000
0000
0000
,
0010
0000
0000
0000
,
0100
0000
0000
0000
,
0001
0000
0000
0000
,
1000
0000
0001
0000
,
0100
0000
0000
0000
,
0010
0000
0100
0000
,
1000
0000
0000
0000
,
1001
0000
0000
0000
,
0010
0000
0000
0000
,
0100
0000
1000
0000
,
0001
0000
0000
0000
,
0100
0000
0000
0000
,
0010
0000
0000
0000
,
1000
0000
0001
0000
,
0100
0000
0000
0000
,
1000
0000
0000
0000
,
0100
0000
0000
0000
,
0010
0000
0100
0000
,
1000
0000
0000
0000
,
0001
0000
0000
0000
,
1000
0000
0000
0000
,
0010
0000
0100
0000
,
0010
0000
0000
0000
,
0001
0000
0000
0000
,
1000
0000
0000
0000
,
0010
0000
0000
0000
,
0100
0000
0000
0000
,
0001
0000
0000
0000
,
1000
0000
0000
0000
,
0010
0000
0000
0000
,
0100
0000
0010
0000
,
1001
0000
0000
0000
;

//--------------- dance-single - ----------------
#NOTES:
     dance-single:
     :
     Easy:
     6:
     0,0,0,0,0:
0000
0000
0000
0000
,
0000
0000
0000
0000
,
0000
0000
0000
0000
,
0000
0000
0000
0000
,
0000
0000
0000
0000
,
0000
0000
0000
0000
,
0000
0000
0000
0000
,
0000
0000
0000
0000
,
0000
0000
0000
0000
,
1000
0000
0000
0000
0010
0000
0000
1000
,
0001
0000
0000
0000
,
0010
0000
0000
0000
0001
0000
0100
1000
,
0000
0000
0010
0000
,
0001
0000
0000
0000
1000
0000
0100
0001
,
0000
0000
0100
0000
,
0010
0000
0100
0000
,
1000
0000
0001
0100
,
0020
0000
0000
0000
,
1030
0000
0000
0010
,
0200
0000
0000
0000
,
0301
0000
0000
1000
,
0002
0000
0000
0000
,
0103
0000
0000
0010
,
0200
0000
0000
0000
,
1300
0000
0001
0000
,
0100
0000
0010
0000
,
1000
0000
0001
0000
,
0100
0000
0010
0000
,
0001
0000
1000
0000
,
0100
0000
0010
0000
,
1000
0000
0001
0000
,
0100
0010
1000
0000
,
0001
0010
1000
0000
,
1001
0000
0010
0000
,
0100
0000
0001
0000
,
1000
0000
0001
0000
,
0100
0000
0010
0000
,
0100
0000
1000
0000
,
0001
0000
0100
0000
,
0010
0000
1000
0000
,
0001
0100
1000
0000
,
1001
0000
0100
0000
,
0010
0000
0001
0000
,
0100
0000
0001
0000
,
1000
0000
0001
0000
,
0100
0000
0010
0000
,
0001
0000
1000
0000
,
0001
0000
0100
0000
,
0010
0100
1000
0000
,
0001
0000
0100
0000
,
1000
0000
0001
0000
,
0100
0000
0010
0000
,
0100
0000
0000
0000
,
1000
0000
0000
0000
,
0001
0000
0000
0000
,
0010
0000
0001
0000
,
0010
0000
0100
0000
,
1000
0000
0001
0000
,
0100
0000
1000
0000
,
0010
0000
1000
0000
,
0001
0000
0000
0000
,
0010
0100
0001
1000
,
0100
0010
0001
0000
,
0100
0000
0010
0000
,
0001
1000
0001
0000
,
0100
0000
0010
0000
,
0100
0000
1000
0000
,
0001
0000
1000
0000
,
0001
0000
0010
0000
,
0100
0000
0001
0000
,
1000
0000
0001
0000
,
0100
0000
0010
0000
,
0001
1000
0001
0000
,
0100
0000
0010
0000
,
0001
0000
1000
0000
,
0001
0000
0100
0000
,
0010
0000
0001
0000
,
1000
0000
0001
0000
,
0100
0010
0100
0000
,
1000
0000
0001
0000
,
0100
1000
0001
0000
,
0100
0010
0100
0000
,
1000
0000
0000
0000
,
1001
0000
0100
0000
,
0010
0000
0100
0000
,
0001
0000
1000
0000
,
0001
0000
0100
0000
,
0010
0000
0100
0000
,
1000
0000
0001
0000
,
0100
0000
0010
0000
,
1000
0000
0001
0000
,
0100
0000
0010
0000
,
0001
0000
1000
0000
,
0001
0000
0100
0000
,
1001
0000
0000
0000
,
0100
0000
0001
0000
,
0010
0000
0100
0000
,
0001
0000
1000
0000
,
0001
0100
0010
0000
,
1000
0000
0001
0100
,
1000
0000
0010
0000
,
0100
0000
0001
1000
,
0001
0000
0100
0000
,
0010
0000
1000
0000
,
0001
0000
0100
0000
,
0010
0100
1000
0000
,
0001
1000
0001
0000
,
1001
0000
0000
0000
;

//--------------- dance-single - ----------------
#NOTES:
     dance-single:
     :
     Medium:
     8:
     0,0,0,0,0:
0000
0000
0000
0000
,
0000
0000
0000
0000
,
0000
0000
0000
0000
,
0000
0000
0000
0000
,
0000
0000
0000
0000
,
0000
0000
0000
0000
,
0000
0000
0000
0000
,
0000
0000
0000
0000
,
0000
0000
0000
0000
,
0100
0000
1000
0000
0001
0100
1000
0000
,
0010
1000
0100
0010
,
0100
0000
0010
0000
0001
1000
0010
0000
,
0001
1000
0100
1000
,
0010
0000
1000
0001
0100
0000
0010
0000
,
0001
0010
0001
1000
,
0001
1000
0010
0000
0100
0000
0010
0000
,
0100
1000
0010
0000
0001
0000
1000
0000
,
0200
0000
0000
0000
,
0302
0000
0000
0203
,
0320
0000
0000
0000
,
0032
0000
0000
0000
,
0203
0000
0000
0000
,
0320
0000
0000
2030
,
3200
0000
0000
0000
,
0000
0301
0010
1000
,
0110
0100
0001
0100
,
0010
1000
0100
1000
,
0100
1000
0001
0100
,
0001
1000
0010
0100
,
0001
0010
0100
0010
,
0001
0100
0001
1000
,
0010
0000
1000
0000
0001
0100
1000
0000
,
0100
0000
0010
0000
0001
1000
0010
0000
,
0100
0010
0001
1000
,
0010
0000
1000
0000
0100
0001
1000
0000
,
0001
0100
0001
0010
,
0100
0000
0010
0000
0001
1000
0010
0001
,
0100
1000
0001
0100
,
0010
1000
0100
1000
,
0110
1001
0101
1010
,
1001
0100
0010
0100
,
1001
0000
0010
0000
0100
1000
0010
0001
,
0100
1000
0010
0100
,
0010
0001
0100
0000
0001
0000
0100
0000
,
0001
1000
0010
0000
0100
0000
0010
0000
,
0110
1000
0100
0010
,
1001
0010
0001
1000
,
0001
0010
0100
1000
,
0100
0001
0000
0010
0000
1001
0000
0000
,
0010
0100
0001
0010
,
0100
1000
0001
1000
,
0110
1000
0110
0100
,
1001
0000
0100
0000
0001
0000
1000
0001
,
0100
0000
0010
0000
0100
0000
0010
1000
,
0001
0000
0010
0000
0100
0000
1000
0001
,
0010
1000
0010
0100
,
0001
1000
0000
0100
0000
1001
0010
0000
,
0001
1000
0010
1000
,
0100
0010
0001
0010
,
0100
1000
0001
0010
,
0001
0000
0010
0000
0100
0001
1000
0000
,
0100
0000
0000
1001
0000
0000
0100
0000
,
0001
0000
0000
0110
0000
0000
1000
0000
,
0001
0000
0010
0000
0100
1000
0000
0100
,
0000
0001
1000
0000
0020
0000
0000
0000
,
0031
0100
0010
0100
,
0010
0000
1000
0000
0010
0000
1000
0001
,
0100
0000
0010
0000
0001
0000
1000
0100
,
0010
0100
0010
0100
,
0001
1000
0010
0000
0100
0000
1000
0000
,
0010
0001
1000
0000
0010
0000
1000
0000
,
0100
0010
0100
1000
,
0001
1000
0100
0000
0001
0000
0010
0000
,
0001
1000
0100
1000
,
0010
0001
0100
0000
0010
0000
1000
0000
,
0001
0000
0010
1000
0001
0000
0100
0000
,
0010
0000
1000
0000
0001
0010
1000
0000
,
0001
0100
0001
0010
,
0100
0010
0100
0010
,
0001
1000
0100
1000
,
0100
1000
0010
0100
,
0010
0001
0000
1000
0000
0010
0000
1000
,
0001
0000
1000
0001
0100
0000
0010
0000
,
1001
0010
0100
1000
,
0010
0100
0010
0100
,
0010
1000
0001
0010
,
0100
0000
0010
0000
0100
0000
1000
0010
,
0001
1000
0010
1000
,
0001
1000
0100
0000
0001
0000
0010
0000
,
0100
0001
1000
0000
0100
0000
1000
0000
,
0010
0100
0000
0001
0000
0100
0000
0000
,
0110
1000
0100
1000
,
0001
0100
0001
0100
,
0010
1000
0010
1000
,
1001
0000
1000
0000
0001
0000
0010
1000
,
0001
0000
1000
0000
0010
0000
1000
0001
,
0100
0010
0100
0010
,
0100
1000
0010
1000
,
0010
0100
0000
0010
0000
0001
1000
0000
,
0100
0010
0001
1000
,
0010
1000
0001
0010
,
0100
1000
0100
1000
,
0100
0010
0001
1000
,
0010
0100
0001
0010
,
0100
0010
0001
0010
,
0001
0100
0010
1000
,
0001
1000
0000
0010
0000
0100
0000
0000
,
1001
0000
0000
0000
;

//--------------- dance-single - ----------------
#NOTES:
     dance-single:
     :
     Hard:
     14:
     0,0,0,0,0:
0000
0000
0000
0000
,
0000
0000
0000
0000
,
0000
0000
0000
0000
,
0000
0000
0000
0000
,
0000
0000
0000
0000
,
0000
0000
0000
0000
,
0000
0000
0000
0000
,
0000
0000
0000
0000
,
0000
0000
0000
0000
,
1000
0000
0001
0000
0100
0000
1000
0001
,
0000
0100
0000
1000
0010
0100
0001
0000
,
1000
0000
0001
0000
0100
0010
0100
1000
,
0100
0001
0100
0000
1000
0001
0010
0000
,
1000
0000
0001
0000
1000
0100
0010
1000
,
0000
0001
0010
0000
0100
0000
1000
0000
,
0001
0010
0100
1000
0001
0100
0001
1000
,
0000
0001
0100
0000
0010
0100
0001
1000
,
1002
0000
0000
0000
,
2003
0000
0000
3002
,
0023
0000
0000
0000
,
0230
0000
0000
0000
,
0320
0000
0000
0000
,
2030
0000
0000
3002
,
0203
0000
0000
0000
,
0310
0000
0001
1000
0010
0000
1000
0000
,
1001
0000
0010
0000
0100
1000
0001
0000
,
0001
0100
1010
0100
,
0010
1000
0100
0010
0001
0000
0020
0000
,
2030
3100
0010
0100
,
0011
0000
1000
0000
0100
0001
1000
0000
,
0100
1000
0010
1100
,
0011
0000
0100
0000
0001
1000
0100
0000
,
0001
0010
1000
0001
0100
0001
1000
0001
,
0100
0000
0010
0000
0001
0100
1000
0000
,
0010
0100
1000
0000
0010
0000
1000
0000
,
0100
0001
0010
0000
0100
0000
1000
0000
,
0100
0001
1000
0000
0001
0000
0100
0000
,
0110
1000
0100
1000
,
0110
1000
0001
0010
,
1001
0110
1001
0110
,
0011
1100
0011
1100
,
1001
0000
0100
0000
0001
1000
0100
0000
,
0010
0000
0100
0000
0010
0001
1000
0000
,
0100
0000
1000
0000
0010
0001
1000
0000
,
0010
1000
0100
0000
0010
0001
1000
0000
,
0001
0010
0100
0000
0010
0000
1000
0000
,
0100
0001
1000
0000
0001
0000
0010
0000
,
0100
0001
0010
0000
0100
0000
0010
1000
,
0001
0010
0000
1100
0000
0001
1000
0000
,
0011
0000
0100
1000
0010
0000
0100
1000
,
0001
0100
1000
0000
0001
0000
1000
0000
,
0010
0001
0100
0000
1001
0000
0010
0000
,
0101
0000
1000
0000
0100
0001
0010
1000
,
0100
0000
0010
0000
0001
1000
0100
0000
,
0010
0000
1000
0000
0100
1000
0010
0000
,
0100
0000
1000
0010
0001
0000
0100
0000
,
0010
0100
1000
0010
0000
1000
0010
0000
,
1001
0000
0200
0000
0310
0000
0100
0001
,
0010
1000
0010
1000
,
0100
0000
1000
0100
0001
0000
0010
0000
,
0200
0000
1300
0000
0001
1000
0010
0000
,
0100
0000
0010
0001
0100
0000
0010
1000
,
0001
0000
0100
1000
0010
0000
1000
0000
,
0100
0000
1000
0001
0010
0000
1000
0000
,
0001
0100
0010
0000
0200
0000
0000
0000
,
0301
0000
1000
0000
0100
0010
1000
0000
,
0001
0000
0100
0000
0001
1000
0100
0000
,
0010
0000
0100
0001
0010
0000
1000
0000
,
0001
0000
1000
0010
0100
0000
1000
0000
,
0001
1000
0010
0000
0100
0001
0010
0000
,
0001
1000
0010
0000
0100
0001
1000
0000
,
0100
0110
1001
0110
,
1001
0000
0010
0000
0100
0001
1000
0100
,
0010
0000
1000
0000
0001
1000
0010
0000
,
0001
0000
0100
0000
0001
0010
1000
0000
,
0100
0000
0010
0001
0100
0000
0010
0000
,
0100
0001
1000
0000
0001
0010
0100
0000
,
0001
0000
0100
1000
0010
0000
1000
0000
,
0010
0000
1000
0001
0010
0000
0100
0000
,
0011
1100
0101
1010
,
0101
0000
1100
0000
0001
0010
1000
0000
,
0001
0100
0000
1000
0010
0001
1000
0100
,
0001
1000
0010
0100
0001
1000
0010
0000
,
0100
0000
1000
0000
0001
1000
0010
0000
,
0001
0000
0010
0000
0001
1000
0100
0000
,
0010
0000
1000
0000
0010
0001
0100
0000
,
0001
0000
1000
0000
0010
0100
1000
0000
,
0001
0000
1000
0001
0100
0000
0010
1000
,
0001
1000
0001
0100
,
0001
0010
1000
0000
0010
0000
1000
0000
,
0100
0001
0000
0010
0001
1000
0010
0000
,
0100
0001
1000
0000
0001
0000
1000
0000
,
0100
1000
0010
0000
0100
0000
0010
0000
,
0001
1000
0010
0000
0100
0000
1000
0000
,
0010
0001
1000
0000
0010
0000
1000
0000
,
0001
0010
0001
0010
,
0001
0100
1000
0000
0100
0000
1000
0000
,
0010
0001
0100
0000
0010
0000
1000
0000
,
0100
0001
0000
1000
0100
0001
1000
0000
,
0010
0100
0010
1000
,
0001
0100
0010
0100
,
0001
0010
1000
0000
0001
0000
0010
0000
,
0001
1000
0010
0100
,
0001
0100
1000
0000
0100
0000
1000
0000
,
0010
0001
0100
0000
0010
0000
0100
0000
,
0001
1000
0010
0000
0100
0001
0010
1000
,
0100
0001
0000
0100
0000
1000
0000
0000
,
2002
0000
0000
0000
,
0000
0000
0000
0000
,
0000
0000
0000
0000
,
0000
0000
0000
0000
,
3003
0000
0000
0000
;
