#TITLE:Polar Night;
#ARTIST:Hommarju;
#GENRE:DANCERUSH STARDOM;
#MUSIC:Polar Night.mp3;
#BANNER:Polar Night.png;
#BACKGROUND:Polar Night-bg.png;
#CDTITLE:./CDTitles/DANCERUSH STARDOM.png;
#SAMPLESTART:51.007;
#SAMPLELENGTH:15.000;
#SELECTABLE:YES;
#OFFSET:-0.180;
#BPMS:0.000=118.000;
#STOPS:;
#BGCHANGES:;
#FGCHANGES:;

//--------------- dance-single - ----------------
#NOTES:
     dance-single:
     :
     Beginner:
     2:
     0,0,0,0,0:
0000
0000
0000
0000
,
0000
0000
0000
0000
,
0000
0000
0000
0000
,
0000
0000
0000
0000
,
0000
0000
0000
0000
,
0001
0000
0000
0000
,
1000
0000
0000
0000
,
0010
0000
0100
0000
,
0010
0100
0010
0000
,
1001
0100
1000
0000
,
0001
0010
0100
0000
,
1000
0001
0100
0000
,
0010
0100
1000
0000
,
0001
0000
0001
0000
,
1000
0000
1000
0000
,
0010
0000
0100
0000
,
0001
0000
1000
0000
,
1001
0000
0000
0000
,
0110
0000
0000
0000
,
0011
0000
0000
0000
,
1100
0000
0000
0000
,
0001
1000
0001
0000
,
1000
0001
1000
0000
,
0010
0010
0010
0010
,
0010
0010
0010
0000
,
1001
0100
1000
0000
,
0001
0010
0001
0000
,
0010
0100
1000
0000
,
0001
0010
0100
0000
,
0001
1000
0001
0000
,
0010
0100
1000
0000
,
0001
0010
0001
0000
,
0100
0010
0100
0000
,
2000
3001
0010
0100
,
1000
1000
1000
1000
,
0000
0010
0000
0100
,
0001
0001
0001
0001
,
0010
0000
0100
0000
,
0010
1000
0001
0100
,
0010
0000
0100
0000
,
0001
0001
0001
0001
,
1001
0000
0000
0000
,
0000
0000
0010
0000
,
1001
0000
0000
0000
,
0010
0000
0000
0000
,
0100
0000
0001
0000
,
1000
0000
0000
0000
,
0010
0000
1000
0000
,
0001
0000
0010
0000
,
0100
0000
0010
0000
,
0010
0100
0010
0100
,
0200
0310
1001
0100
,
0100
1000
0001
0010
,
0000
0010
0100
1000
,
0001
0100
1000
0000
,
0001
0010
0100
0000
,
1000
0001
0010
0000
,
0010
0010
0100
0000
,
0001
1000
0001
0000
,
0220
0000
0000
0000
,
0000
0000
0000
0000
,
0330
0000
0000
0000
;

//--------------- dance-single - ----------------
#NOTES:
     dance-single:
     :
     Easy:
     4:
     0.24,0.306,0.185,0.046,0:
0000
0000
0000
0000
,
0000
0000
0000
0000
,
0000
0000
0000
0000
,
0000
0000
0000
0000
,
0000
0000
0000
0000
,
1000
0000
0000
0000
,
0010
0000
0000
0000
,
1000
0000
0001
0000
,
0100
0010
0100
0000
,
1001
0000
0010
0000
,
0100
0000
1000
0000
,
0001
0000
0010
0000
,
1000
0000
0001
0000
,
0010
0000
0100
0000
,
1000
0000
0001
0000
,
0010
0000
0100
0000
,
1000
0000
0001
0000
,
0001
0000
0000
0000
,
0110
0000
0000
0000
,
1001
0000
0000
0000
,
0011
0000
0000
0000
,
1000
0000
0100
0000
,
0010
0000
0001
0000
,
0001
1000
0001
1000
,
0002
1000
1000
1003
,
1001
0010
0100
0000
,
1000
0100
0010
0000
,
0001
0100
1000
0000
,
0010
0100
0010
0000
,
0001
1000
0001
0000
,
0010
0100
0010
0000
,
1000
0001
0010
0100
,
1000
0001
0010
0100
,
1001
0110
1000
0001
,
0010
0010
0010
0010
,
1000
0001
0010
0000
,
0010
0010
0010
0100
,
1000
0001
1000
0000
,
0010
1000
0001
0000
,
0001
0010
0100
0000
,
1000
0001
1000
0001
,
1001
0000
0000
0000
,
0010
0000
1000
0000
,
1001
0000
0000
0000
,
0110
0000
0000
0000
,
1000
0000
0000
0000
,
0001
0000
0000
0000
,
1000
0000
0010
0000
,
0001
0000
1000
0000
,
0010
0000
0100
0000
,
1000
0001
1000
0000
,
2000
3001
0010
0100
,
0000
0010
1000
0010
,
1000
0010
1000
0001
,
0010
0100
1000
0001
,
0100
0010
1000
0001
,
0100
0001
1000
0001
,
0010
0100
1000
0010
,
0001
0010
1000
0001
,
2002
0000
0000
0000
,
0000
0000
0000
0000
,
3003
0000
0000
0000
;

//--------------- dance-single - ----------------
#NOTES:
     dance-single:
     :
     Medium:
     6:
     0.172,0.259,0.085,0.031,0:
0000
0000
0000
0000
,
0000
0000
0000
0000
,
0000
0000
0000
0000
,
0000
0000
0000
0000
,
0000
0000
0000
0000
,
1000
0000
0010
0000
,
0001
0000
1000
0000
,
0010
1000
0001
0010
,
0020
0000
0000
0000
,
0130
1000
0100
0010
,
0001
0100
1000
0001
,
0010
1000
0001
0010
,
1000
0001
0010
0100
,
1000
0001
0100
1000
,
0001
0010
0100
1000
,
0001
0100
1000
0001
,
0100
1000
0010
0001
,
1001
0000
0000
0000
,
0110
0000
0000
1000
,
0010
0000
0000
0000
,
0011
0000
1100
0000
,
0010
0100
1000
0001
,
0010
1000
0100
0010
,
2000
0001
0001
0001
,
3001
0000
0110
0000
,
1001
1100
0100
0011
,
0100
1100
0010
0100
,
0010
0011
0100
1100
,
0100
0101
0010
0100
,
1010
0100
0011
0100
,
1010
0100
0011
0010
,
0100
0010
1000
0001
,
1000
0010
0001
1000
,
2000
3001
0010
0100
,
1000
1100
1100
1100
,
0010
0100
0001
0010
,
0011
0011
0011
0100
,
1000
0001
0010
0100
,
1000
0001
0100
1000
,
0100
0010
0001
0100
,
1000
0001
1000
0001
,
1001
0000
0000
0000
,
0010
0000
0100
0010
,
0100
0000
1000
0000
,
0001
0000
0010
0000
,
0100
0000
1000
0001
,
0010
1000
0000
0001
,
1000
0001
0100
0010
,
0100
1000
0001
0010
,
1000
0001
1000
0001
,
1000
0010
0020
0000
,
0130
0110
1000
0100
,
0001
0100
1000
0001
,
0010
0100
0001
0100
,
1000
0001
1000
0010
,
0100
0010
1000
0001
,
0100
0010
1000
1000
,
1000
0010
0001
0100
,
0010
0100
0010
0100
,
0002
0000
0000
0000
,
2003
0000
0000
0000
,
3000
0000
0000
0000
;

//--------------- dance-single - ----------------
#NOTES:
     dance-single:
     :
     Hard:
     8:
     0,0,0,0,0:
0000
0000
0000
0000
,
0000
0000
0000
0000
,
0000
0000
0000
0000
,
0000
0000
0000
0000
,
0000
0000
0000
0000
,
0001
0100
0010
0100
,
0010
0100
0001
0010
,
0001
0010
0100
0010
,
1000
0001
1000
0001
1000
0001
1000
0000
,
1001
0001
1000
0001
,
0100
0001
0100
0010
,
1000
0100
1000
0100
,
1000
0010
0100
0010
,
0100
0001
1000
0001
,
0010
0001
0010
0100
,
1000
0010
0100
0001
,
0100
0000
0010
0000
1000
0000
0010
1000
,
0001
0000
0000
0100
0000
0000
0000
0000
1000
0000
0100
0000
0010
0000
0001
0000
,
1002
0100
1000
0100
,
1003
0000
0000
0001
0000
0000
0000
0000
1000
0000
0001
0000
0100
0000
0001
0000
,
2100
0010
0001
0010
,
3001
1000
0010
1000
,
0010
1000
0100
0010
,
0001
1000
0001
1000
0001
1000
0001
1000
,
0001
0000
0001
0000
0001
1000
0100
0000
,
1000
0100
1000
0100
1000
0100
1000
0100
,
1000
0100
0010
0001
0010
0001
0010
0001
,
0010
0001
0010
0001
0010
0100
1000
0100
,
1000
0100
1000
0100
1000
0100
1000
0100
,
1000
0100
0010
0001
0010
0001
0010
0001
,
0010
0001
0010
0001
0010
0001
0010
0001
,
0100
1000
0100
1000
0100
1000
0100
1000
,
0100
1000
0100
1000
0100
1000
0100
1000
,
0110
0000
1001
0000
0100
0010
0100
0010
,
0100
0110
0110
0110
,
0001
0010
0001
0010
0001
0010
0001
0010
,
0001
0011
0011
1001
,
1000
0100
0010
0000
0001
0010
0100
0000
,
1000
0100
0010
0000
0001
0010
0100
0000
,
1000
0001
0100
0010
1000
0001
0010
0100
,
1000
0001
0010
0100
1000
0001
0100
0010
,
1000
0000
0000
0000
,
0000
0000
0000
0000
0000
0000
0000
1000
0001
0000
0100
0000
0010
0000
1000
0000
,
0002
0000
0000
0000
0000
0000
0000
0000
0013
0000
0000
0100
0000
0000
0010
0000
,
0000
0000
1000
0001
0000
0010
0100
0000
,
0002
0000
0000
0000
0000
0000
0000
0000
1003
0000
0000
0001
0000
0000
0100
0000
,
0000
0000
0010
1000
0000
0100
0001
0010
,
0100
0001
0100
0010
,
0100
1000
0001
0100
,
1000
0001
0100
1000
,
0010
0001
0010
0001
0010
0001
0010
0001
,
2000
0000
3001
0010
0001
0010
0001
0010
,
0001
0010
0001
0010
0001
0010
0100
1000
,
0100
1000
0100
1000
0100
1000
0100
1000
,
0100
1000
0100
0010
0001
0010
0001
0010
,
0001
0010
0001
0010
0001
0010
0001
0010
,
0001
0100
1000
0100
1000
0100
1000
0100
,
1000
0100
1000
0100
1000
0100
1000
0100
,
1000
0100
0010
0001
0010
0100
1000
0001
,
2000
0000
0000
0000
,
3002
0000
0000
0000
,
0003
0000
0000
0000
;
