
//----- song ID: pnul -----//
#TITLE:Penultima;
#ARTIST:ZxNX;
#GENRE:ナムコオリジナル;
#MUSIC:Penultima.ogg;
#BANNER:Penultima.png;
#BACKGROUND:Penultima-bg.png;
#CDTITLE:./CDTitles/NSD A3.png;
#SAMPLESTART:108.788;
#SAMPLELENGTH:15.000;
#SELECTABLE:YES;
#OFFSET:0.000;
#BPMS:0.000=112.500
,20.000=225.000
,64.000=450.000
,67.000=225.000
,73.000=450.000
,76.000=225.000
,107.000=112.500
,115.000=225.000
,131.000=450.000
,158.000=225.000
,192.000=112.500
,193.000=225.000
,254.000=112.500
,310.000=225.000
,322.000=56.250
,323.000=112.500
,327.000=225.000
,339.000=56.250
,340.000=225.000
,352.000=450.000
,360.000=225.000
,414.000=450.000
,434.000=225.000
;
#STOPS:64.000=0.133
,73.000=0.133
,74.000=0.133
,75.000=0.133
,91.000=0.133
,91.500=0.133
,98.000=0.133
,98.500=0.133
,155.000=0.133
,207.000=0.269
,360.000=0.533
,433.000=0.133
,434.000=0.267
;
#BGCHANGES:;
#FGCHANGES:;

//--------------- dance-single - ----------------
#NOTES:
     dance-single:
     :
     Beginner:
     6:
     0,0,0,0,0:
0000
0000
0000
0000
,
0000
0000
0000
0000
,
0000
0000
0000
0000
,
0000
0000
0000
0000
,
0000
0000
0000
0000
,
2000
0000
0000
0000
0000
0000
0000
0000
0000
3002
0000
0000
0000
0000
0000
0000
,
0003
0000
0000
2000
0000
0000
0000
3000
0000
0002
0000
0000
1003
0000
0000
0000
,
0100
0000
0000
0200
0000
0000
0000
0000
0000
0000
0000
0000
0000
0310
0000
0000
,
0001
1000
0001
0010
,
0100
0000
1000
0000
,
0001
0000
0100
0000
,
0010
1000
0001
0000
,
0100
0000
0010
0000
,
0001
1000
0001
0000
,
0100
0010
0001
0000
,
1000
0100
0010
0001
,
1001
0000
0000
0000
,
0000
0220
0000
0000
,
0000
0330
0000
0000
,
0000
1001
0000
0100
,
0000
1000
0001
0100
,
0000
0010
0000
0001
,
0000
0010
1000
0001
,
0100
0000
1000
0000
,
0001
0100
0010
1000
,
0000
0001
0000
0100
,
0010
1000
0000
0110
,
1000
0001
0100
0010
,
1000
0001
0100
0010
,
0000
1000
0000
0001
,
0010
0100
0000
1000
,
0001
0100
0000
0010
,
0000
0100
0000
1000
,
0000
0000
0000
0001
,
0000
0000
0000
0100
,
0000
0001
0000
0010
,
0000
0000
0000
1000
,
0000
0100
0000
0010
,
0000
0001
0000
1001
,
0000
0000
0000
0000
,
0220
0000
0000
0330
,
1000
0000
0000
0000
,
0220
0000
0000
0330
,
0001
0000
0000
0000
,
1000
0000
0100
0000
,
0001
0000
1000
0000
,
0100
0000
0010
0000
,
0110
0000
0000
0000
,
1001
0100
0000
1000
,
0000
0001
0000
0100
,
0000
0010
0000
0001
,
0000
0010
0000
2000
,
3001
0000
0100
0000
,
0001
0000
1000
0000
,
0001
0000
0100
0010
,
1000
0000
1001
0000
,
0100
0000
0020
0000
,
0030
0000
0200
0000
,
0000
0300
0001
0000
,
1000
0000
0001
0000
,
0100
0000
0010
0000
,
1000
0000
0001
0000
,
0100
0000
0100
0100
,
0001
0000
2002
0000
,
0000
0000
0000
0000
,
0000
0000
3003
0000
,
0000
0000
0000
0000
,
0000
0000
0001
0000
,
0000
0000
0100
0000
,
0000
0000
1000
0000
,
0000
0000
0001
0000
,
0000
0000
0110
0000
,
0000
1000
0001
0000
,
0000
0010
0100
0000
,
0000
1000
0001
0000
,
0000
0000
0010
0000
,
1000
0000
0001
0000
,
0100
0000
0010
0000
,
0100
0000
1000
0000
,
0001
0000
0100
0010
,
0001
0000
1001
0110
,
0000
1000
0000
0101
,
0000
0000
0000
0000
1000
0001
0000
0000
,
0000
0000
0100
0001
,
0000
0000
0000
0000
1000
0001
0000
0000
,
0001
0000
0000
0000
0000
0000
0010
0100
,
0000
0010
0000
0000
0000
0000
0000
0000
,
1000
0000
0000
0000
0000
0000
0010
0200
,
0000
0000
0000
0000
,
0000
0000
0000
0000
,
0310
0000
0010
0000
,
0001
0000
1000
0000
,
0010
0000
0100
1000
0000
0000
0010
0000
,
0001
0000
0010
0000
,
0000
0000
1000
0001
0000
0100
0000
0000
,
0000
0000
0010
0000
,
0100
0000
1000
0001
,
0100
0000
1010
0000
,
0100
0000
0010
0000
,
1000
0000
0001
0000
,
0100
0000
0010
1000
,
0001
0000
0100
0000
,
0010
0000
0001
0000
,
1000
0000
0001
0010
,
0100
0000
1000
0100
,
0010
0000
2002
0000
,
0000
0000
0000
0000
,
0000
0000
0000
0000
,
0000
0000
3003
0000
;

//--------------- dance-single - ----------------
#NOTES:
     dance-single:
     :
     Easy:
     9:
     0,0,0,0,0:
0000
0000
0000
0000
,
0000
0000
0000
0000
,
0000
0000
0000
0000
,
0000
0000
0000
0000
,
0000
0000
0000
0000
,
1000
0000
0000
0100
0000
0000
0010
0000
0000
0001
0000
0000
0100
0000
1000
0000
,
0001
0000
0000
2000
0000
0000
3100
0000
0000
0002
0000
0000
1003
0000
0000
0000
,
0010
0000
0000
0001
0000
0000
0010
0000
0000
0001
0000
0000
0010
0000
0200
0000
,
0320
0000
0030
0001
0010
0000
0100
0000
,
0001
0100
1000
0000
0100
0000
1000
0000
,
0001
0100
0010
0100
,
0001
0010
1000
0000
0010
0000
0100
0000
,
0010
1000
0010
0100
,
0001
0010
1000
0000
0100
0000
1000
0000
,
0010
0001
0100
0000
0010
0000
0100
0000
,
0010
0001
1000
0000
0100
1000
0010
0000
,
0100
0000
0000
0001
,
0000
2002
0000
0000
,
3003
0200
0000
0000
,
0300
0000
1001
0000
0001
0000
0100
1000
,
0010
0100
0010
0100
,
0001
0000
0010
0000
0001
0000
0010
1000
,
0001
0000
1000
0000
0010
0000
1000
0001
,
0100
0000
1000
0000
0001
1000
0100
0000
,
0001
0000
1000
0000
0010
1000
0100
0000
,
0001
0000
0010
1000
0001
0000
0100
0000
,
0010
0000
1000
0000
0001
0000
1000
0100
,
0010
0001
0010
0100
1000
0000
0001
1000
,
0001
0010
0100
0001
0010
0000
0001
0000
,
1000
0100
0010
0001
,
0010
0001
0100
0010
,
1000
0001
1000
0100
,
0010
0100
0010
1000
,
0000
0001
0010
0100
,
0000
1000
0001
0010
,
0000
0100
1000
0001
,
0000
0010
0000
0100
,
0000
1000
0000
0001
,
0000
0100
0000
0010
,
0000
0000
0000
0000
,
1001
0000
0001
0100
1000
0010
0001
0100
,
1000
0000
0100
0000
0001
0000
0000
1000
0000
0000
0001
0000
0000
1000
0000
0000
,
0200
0000
0301
0010
1000
0010
0001
1000
,
0002
0000
1003
0000
0100
0001
0010
1000
,
0100
0000
0001
0010
1000
0000
0010
0000
,
0100
0010
0001
0000
0100
0000
0010
0000
,
1000
0010
0100
0001
,
0200
0310
0001
0000
,
1001
0100
0001
0010
,
0000
0100
0000
1000
,
0001
0100
1000
0010
,
0100
1000
0001
0010
,
0100
1000
0001
0100
,
0010
0000
0100
1000
,
0001
0100
0010
0001
,
0010
0000
1001
0000
,
0100
0000
0000
0000
0000
0000
0000
0000
0000
0000
0000
0000
0010
0000
0000
0000
0000
0001
0000
0000
0000
0000
1000
0000
,
0000
0000
0000
0000
0000
0000
0000
0000
0000
0001
0000
0000
0000
0000
0000
0000
0000
0000
0000
0000
0000
0000
0000
0000
0000
0000
0000
0000
0000
0000
0000
0000
0000
0000
0000
0000
0000
0000
0000
0000
0000
0000
0000
0000
0000
0000
0000
0000
0001
0000
0000
0000
0000
0000
0000
0000
0000
0000
0000
0000
0000
0000
0000
0000
0000
0000
0000
0000
1000
0000
0000
0000
0000
0000
0000
0000
0000
0000
0000
0000
0000
0000
0000
0000
0000
0000
0000
0000
0010
0000
0000
0000
0000
0000
0000
0000
,
0000
0000
0000
1000
0000
0000
0000
0000
0000
0000
0000
0000
0000
0000
0000
0000
1001
0000
0000
0000
0000
0000
0000
0000
0100
0000
0000
0000
0000
0000
0000
0000
,
0010
0000
0000
1000
0000
0000
0001
0000
0000
0000
0000
1000
,
0001
0000
0000
0010
0000
0000
0100
0000
0000
0000
0000
0001
,
1000
0010
0100
0000
,
1000
0000
0000
0000
0000
0000
0000
0000
0001
0000
0000
0100
0000
0000
0000
0000
,
0100
0000
1001
0000
,
0000
0000
0000
0000
,
0000
0000
0000
0000
,
0000
0000
0000
0000
,
0000
0000
2000
0000
,
3000
0100
0020
0030
,
0001
0000
1000
0000
0200
0000
0000
0300
,
0010
0001
1000
0000
,
0100
0010
1001
0000
,
0100
0010
0001
0000
,
1000
0001
0100
0000
,
0010
0001
1000
0000
,
0001
0000
0110
1000
,
0100
0010
0001
1000
,
0001
0100
0110
0000
,
1000
0000
0001
0000
,
0100
0000
1000
0001
,
0100
0010
0120
1030
,
0100
0010
1000
1001
,
0000
0000
0100
0000
0001
1000
0000
0010
,
0000
1000
0100
1000
,
0000
0010
0000
0000
0001
1000
0200
0000
,
0310
0000
0000
0000
1000
0000
0001
0010
,
0000
0100
0000
0000
0001
0000
0010
0000
,
1000
0000
0100
1000
,
0020
0000
0000
0000
,
0000
0000
0000
0000
,
0130
0000
0000
1001
0000
0000
0100
0000
0100
0000
0100
0000
,
0100
1001
0010
0000
,
0100
0000
1000
0001
0000
0000
0100
0000
,
1000
0001
0100
1000
,
0100
0000
0001
0010
0000
1000
0000
0000
,
0001
0010
0100
0001
,
1000
0100
0001
0100
,
0010
0100
0010
0100
,
0001
0010
0001
0010
,
0001
0100
0010
1000
,
0010
1000
0010
0100
,
0001
0100
0010
1000
,
0001
0010
0100
0010
,
0001
0100
1000
0000
,
0100
0000
0010
0000
,
0000
0220
0000
0000
,
0000
0000
0000
0000
,
0000
0000
0000
0000
,
0000
0330
1001
0000
;

//--------------- dance-single - ----------------
#NOTES:
     dance-single:
     :
     Medium:
     13:
     0,0,0,0,0:
0000
0000
0000
0000
,
0000
0000
0000
0000
,
0000
0000
0000
0000
,
0000
0000
0000
0000
,
0000
0000
0000
0000
,
0001
0000
0000
0010
0000
0000
0100
0000
0000
1000
0000
0000
0010
0000
0001
0000
,
1000
0000
0000
0001
1000
0001
1000
0000
0000
1000
0001
1000
0001
0000
0010
0000
,
0100
0000
0000
1000
0000
0000
0100
0000
0000
1000
0000
0000
0100
0000
0010
0100
,
0020
0000
0130
1000
0100
0000
0010
0000
,
1000
0010
0001
0000
0001
1000
0100
0000
,
0001
0100
1000
0000
0010
0000
0100
0000
,
0010
0001
0100
0000
0001
0100
1000
0000
,
0010
0001
1000
0000
0100
0000
0010
0000
,
0100
0000
1000
0000
0001
1000
0010
0000
,
0001
1000
0100
0000
0001
0010
1000
0000
,
0100
0001
0010
0000
0100
1000
0010
0100
,
0010
0100
0100
0001
,
1001
0220
0000
0000
,
0330
0100
0100
0001
,
1001
0000
0100
0000
0010
0000
0100
0001
,
1000
0000
0010
0001
1000
0000
0100
0001
,
0010
0000
0100
0000
0010
0000
0001
0100
,
1000
0000
0001
0100
0010
0000
0002
0103
,
1000
0000
0100
0000
1000
0100
0001
0000
,
0010
1000
0100
0000
0020
0130
0001
0000
,
1000
0000
0010
0001
0100
0000
0010
1000
,
0100
0000
0000
0000
0000
0000
0010
0000
0000
0000
0000
0000
1000
0000
0000
0000
0000
0000
0010
0000
0000
0100
0000
0001
,
1000
0000
0000
0010
0000
0000
1000
0000
0100
0000
0000
0001
0100
0000
0000
0110
0000
0000
1001
0000
0000
0010
0000
0001
,
1000
0000
0000
0000
0000
0000
0000
0000
0000
0000
0000
0000
0010
0000
0000
0000
0000
0000
0000
0000
0100
0000
0000
0000
0010
0000
0000
0000
0000
0000
0000
0000
0000
1000
0000
0000
0000
0000
0000
0000
0000
0000
0000
0000
0010
0000
0000
0000
0001
0000
0000
0000
0000
0000
0000
0000
0000
0000
0000
0000
1001
0000
0000
0000
0000
0000
0000
0000
0000
0000
0000
0000
0100
0000
0000
0000
0000
0000
0000
0000
0000
0000
0000
0000
0000
0000
0000
0000
0000
0000
0000
0000
0000
0000
0000
0000
,
1000
0000
0100
0001
0010
0000
0001
1000
,
0010
0000
0100
0001
1000
0000
0100
0000
,
0010
0000
0001
0100
1000
0000
0010
0001
,
0100
0010
1100
0001
,
1000
0001
0000
0010
,
0100
0010
0000
1000
,
0001
1000
0000
0010
,
0100
0010
0000
1000
,
0000
0100
0000
0010
,
0000
0001
0000
1001
,
0100
0100
0001
0010
,
1001
0000
0000
0000
1000
0000
0010
0000
0001
0000
0100
0000
1000
0100
0010
0000
,
0001
0000
0010
0000
1000
0000
0000
0001
0000
0000
1000
0000
0000
0001
0000
0000
,
0020
0000
0000
0000
1030
0000
0100
0000
0001
0000
0100
0000
1000
0010
0001
0000
,
2000
0000
3001
0000
0010
1000
0100
0001
,
0010
0000
1000
0100
0001
0000
0100
0000
,
0010
0100
1000
0000
0010
0000
0100
0000
,
0001
0000
0100
0000
0010
0000
1001
0100
,
0020
0130
1000
0010
,
0120
0000
0000
1030
0000
0100
0001
0000
0000
1000
0000
0001
,
0100
1000
0010
1000
,
0100
0000
0000
0010
0000
0001
0100
0000
0010
1000
0000
0001
,
0100
0010
0001
1000
,
0100
0000
0000
0010
0000
0001
0100
0000
0001
1000
0000
0000
,
0010
0000
0000
0100
0000
0000
0010
0000
0000
0100
0000
1000
,
0001
0000
0000
0010
0000
0100
0001
0000
0010
0100
0000
0000
,
0010
0000
0001
1000
0000
0000
0010
0000
0000
0100
0000
0000
,
0001
0000
0000
0000
0000
0000
0000
0000
0000
0000
0000
0000
0000
0000
0000
0000
0000
0000
0000
0000
0000
0000
0000
0000
1001
0000
0000
0000
0000
0000
0000
0000
0000
0000
0000
0000
0000
0000
0000
0000
0000
0000
0000
0000
0000
0000
0000
0000
0010
0000
0000
0000
0000
0000
0000
0000
0000
0000
0000
0000
0000
0000
0000
0000
0000
0000
0000
0000
0001
0000
0000
0000
0000
0000
0000
0000
0000
0000
0000
0000
0000
0000
0000
0000
0000
0000
0000
0100
0000
0000
0000
0000
0000
0000
0000
0000
,
0000
0000
0000
0000
0000
0000
0000
0000
0000
0001
0000
0000
0000
0000
0000
0000
0000
0000
0000
0000
0000
0000
0000
0000
0010
0000
0000
0000
0000
0000
0000
0000
0000
0000
0000
0000
0000
0000
0000
0000
0000
0000
0000
0000
0000
0000
0000
0000
0100
0000
0000
0000
0000
0000
0000
0000
0000
0000
0000
0000
0000
0000
0000
0000
0000
0000
0000
0000
1000
0000
0000
0000
0000
0000
0000
0000
0000
0000
0000
0000
0000
0000
0000
0000
0000
0000
0000
0001
0000
0000
0000
0000
0000
0000
0000
0000
,
0000
0000
0000
0000
0000
0000
0000
0000
0000
0010
0000
0000
0000
0000
0000
0000
0000
0000
0000
0000
0000
0000
0000
0000
1000
0000
0000
0000
0000
0000
0000
0000
0000
0000
0000
0000
0000
0000
0000
0000
0000
0000
0000
0000
0000
0000
0000
0000
0001
0000
0000
0000
0000
0000
0000
0000
0000
0000
0000
0000
0000
0000
0000
0000
0010
0000
0000
0000
0000
0000
0000
0000
0100
0000
0000
0000
0000
0000
0000
0000
0000
0000
0000
0000
0000
0000
0000
0000
0001
0000
0000
0000
0000
0000
0000
0000
,
1000
0000
0000
0110
0000
0000
2000
0000
0000
3001
0000
1000
,
0001
0000
0010
0100
0000
0000
1001
0000
0000
0110
0000
0000
,
1001
0100
0020
0000
,
0230
0000
0000
0000
0000
0000
0000
0000
0000
0000
0000
0000
0310
0000
0000
0000
0000
1000
0000
0000
0000
0000
0001
0000
,
0010
0000
0000
0000
0000
0001
0000
0000
0000
0000
0000
0000
2001
0000
0000
0000
0000
0000
0000
0000
0000
0000
0000
0000
,
3010
0000
0000
1000
0000
0000
0100
0000
0000
0000
0020
0000
0000
0000
0000
0000
,
0000
0000
0130
0000
0002
0000
0000
1003
,
0010
0000
0000
0000
0001
0000
0000
1000
0000
0000
0010
0000
0000
0000
0100
1000
,
0010
0200
0302
0000
,
1003
0000
0100
0000
0001
1000
0020
0000
0000
0000
0000
0000
0130
0000
0001
0100
,
1000
0000
0010
1000
0100
0001
0000
0000
0200
0000
0000
0000
0000
0000
0310
0000
,
2000
0000
3001
0010
0000
1000
0000
2001
0000
0000
3001
0000
0000
0100
0001
0010
,
0100
0000
0001
1000
0000
0200
0000
0000
0310
0000
0001
0000
1000
0000
0010
0000
,
0100
0010
0001
1000
0010
0001
0010
0001
,
1000
0100
1001
0000
1010
0001
1000
0010
,
0100
0000
0010
0000
0001
1000
0000
0000
0010
0000
0100
0000
0010
0000
0001
0000
,
1000
0100
0010
0000
0001
1000
0010
0000
0100
0000
1000
0000
0010
0100
1000
0000
,
0001
0000
0100
0000
1000
0000
0001
0000
0100
0000
1000
0000
0010
1000
0001
0000
,
0100
0010
1000
0100
0010
0000
0100
0000
,
0001
0100
0001
0010
,
0100
0000
0010
0000
0001
1000
0010
0100
,
0001
0010
1000
0100
0002
0000
1003
0000
,
0010
0000
0100
1000
0001
0000
0001
0000
,
1000
0000
0100
0001
1000
0001
0000
0100
,
1000
0000
0010
0000
0100
0000
0010
1000
,
0100
0010
1000
0200
,
0310
0000
0100
0000
1000
0000
0010
0001
,
0100
0001
0010
0001
,
1000
0001
0100
0000
0010
1000
0001
0000
,
0020
0000
0000
0000
,
0000
0000
0000
0000
,
0130
0000
0000
0000
0000
0000
0000
0000
1001
0000
0000
0000
0000
0000
0000
0000
0010
0000
0000
0000
0000
0010
0000
0000
0000
0000
0010
0000
0000
0000
0000
0000
,
2000
3001
0002
1003
,
0010
0000
1000
0000
0001
0010
0100
0000
,
0010
1000
0100
1000
,
0010
0000
1000
0100
0000
0001
0100
0000
,
0001
0100
0001
0100
,
0010
0000
1000
0000
0100
0000
1000
0010
,
0001
0100
0010
1000
,
0010
1000
0100
0000
0001
0000
1000
0000
,
0100
0010
0100
1000
,
0010
0001
1000
0000
0010
0000
0100
0000
,
0001
0000
0100
0000
0001
1000
0010
0000
,
0001
1000
0100
0000
0010
0001
0100
0000
,
0001
1000
0100
0000
1000
0000
0000
0000
,
0100
0000
0010
0000
,
0001
0000
0220
0000
,
0000
0000
0000
0000
,
0000
0000
0000
0000
,
0330
0002
1003
0000
;

//--------------- dance-single - ----------------
#NOTES:
     dance-single:
     :
     Hard:
     17:
     0,0,0,0,0:
0000
0000
0000
0000
,
0000
0000
0000
0000
,
0000
0000
0000
0000
,
0000
0000
0000
0000
,
0000
0000
0000
0000
,
1001
0000
0000
0001
0000
0000
1000
0000
0000
0100
0000
0000
0010
0000
0001
0100
,
1000
0000
0001
0000
0010
0100
1000
0000
0000
0001
0100
0010
2000
0000
3200
0000
,
0320
0000
0000
0230
0000
0000
2300
0000
0000
3200
0000
0000
0310
0000
0001
0000
,
0210
0000
0310
1000
0100
0000
0001
0010
,
0001
0010
1000
0100
0010
0001
1000
0100
,
1000
0100
1000
0010
0100
0010
0100
0010
,
1000
0010
0001
1000
0100
0000
0001
0000
0010
0000
0001
0000
0100
0000
0010
0000
,
0100
0000
0001
0000
0100
0000
0001
0000
0010
0100
0001
0000
1000
0000
0100
0000
,
0010
0001
0100
1000
0010
0000
0100
0000
1000
0001
0010
1000
0100
0000
0010
0000
,
1000
0001
0100
0010
1000
0000
0100
0000
1000
0001
0010
1000
0100
0000
0010
0000
,
0001
0100
0001
0100
0010
0100
0001
0010
0001
0100
0010
1000
0100
1000
0001
0010
,
1000
0100
0100
0002
,
2003
0000
3001
0010
0100
0010
0100
0010
,
0200
0320
0230
2300
,
3001
0000
1001
0000
0001
1000
0001
1000
,
0001
0100
0010
0100
0010
0100
0001
0010
,
0100
0000
0010
1000
0001
0000
0100
0000
0001
0000
0100
0000
0001
0000
0010
0000
,
0100
0010
0100
0010
0001
1000
0110
1010
,
0001
0010
0100
1000
0001
0010
0001
0010
,
0001
1000
0100
1000
0101
1010
0001
0100
,
0010
1000
0100
1000
0001
0100
0001
0100
,
0001
0010
0100
1000
0001
1000
0110
0010
,
1000
0000
0001
0100
0000
1000
0010
0000
0100
0001
0000
0000
1001
0000
0000
0220
0330
0000
0101
0000
0000
0010
0000
0000
,
1000
0000
0001
0100
0000
0010
1000
0000
0100
0010
0000
0000
1001
0000
0000
0010
0000
0000
0110
0000
0000
1000
0000
0000
,
0001
0010
0000
0000
0010
0100
1000
0000
0100
0000
1000
0010
0000
0001
0100
0000
,
0010
0000
1000
0100
0001
0000
0010
0000
0001
0000
0100
0000
0010
1000
0100
0010
,
0001
0000
0010
0000
0001
0010
0000
0001
0100
0000
1000
0001
0000
0010
1000
0000
,
0100
0000
1000
0001
0100
0000
0010
0001
0100
0000
1000
0000
0010
0000
0000
0000
,
1000
0000
0010
0000
0100
0010
0001
0000
,
0100
0000
0010
0000
1000
0001
0100
0000
,
0010
0000
0100
0000
0010
0100
0001
0000
,
1000
0000
0010
0000
0100
0000
0001
0010
,
0100
1000
0100
1000
0100
0010
0001
0010
,
0100
1000
0001
0010
0100
1000
1001
0000
,
0100
0100
0002
1003
,
0110
0000
0000
0000
1000
0100
0010
0000
0001
0010
0100
0000
1000
0100
0010
0000
,
0001
1000
0010
0000
1000
0001
0010
0001
0000
0000
1001
0000
0000
0100
0001
1000
,
0020
0000
0000
0000
1030
0100
1000
0000
0001
0000
0100
0000
1000
0010
0001
0000
,
2000
0000
0000
0000
3001
0010
0001
0000
0010
0000
1000
0100
1000
0010
0001
0000
,
0100
0001
0010
0100
0010
1000
0100
1000
,
0100
0010
0001
0100
0001
1000
0001
1000
,
0010
0100
0010
1000
0001
0100
0001
0100
,
0020
0000
0000
0000
0000
0000
0000
0000
0000
0000
0000
0000
0130
0000
0000
0000
0000
0000
0000
0000
1000
0000
0000
0000
0002
0000
0000
0000
0000
0000
1003
0000
0000
0000
0000
0000
0010
0000
0000
0000
0000
0000
0100
0000
0000
1000
0000
0000
,
0200
0000
0000
0310
0000
0001
0100
0000
0010
1000
0010
0001
,
0100
0000
0010
1000
0000
0000
0101
0000
0000
0100
1000
0100
,
0010
0000
0001
1000
0000
0010
0100
0000
0001
1000
0000
0010
,
0100
0000
1000
0010
0000
0000
0101
0000
0000
1001
0000
0000
,
0110
0000
0000
0010
0000
1000
0100
0000
0001
0010
0000
0100
,
0002
0000
0000
1003
0000
0000
0010
1000
0001
0100
0000
1000
,
0010
0000
0001
0100
0000
0010
0001
0000
1000
0010
0000
0100
,
0001
0000
0001
0100
0000
0000
1001
0000
0000
1000
0001
0000
,
0010
0000
0000
0000
0000
0000
0000
0000
0000
0000
0000
0000
0000
0000
0000
0000
1000
0000
0000
0000
0000
0000
0000
0000
0200
0000
0000
0000
0000
0000
0000
0000
0000
0000
0000
0000
0000
0000
0000
0000
0000
0000
0000
0000
0000
0000
0000
0000
0301
0000
0000
0000
0000
0000
0000
0000
0000
0000
0000
0000
0000
0000
0000
0000
0000
0000
0000
0000
1001
0000
0000
0000
0000
0000
0000
0000
0000
0000
0000
0000
0000
0000
0000
0000
0000
0000
0000
0100
0000
0000
0000
0000
0000
0000
0000
0000
,
0000
0000
0000
0000
0000
0000
0000
0000
0000
0101
0000
0000
0000
0000
0000
0000
0000
0000
0000
0000
0000
0000
0000
0000
0010
0000
0000
0000
0000
0000
0000
0000
0000
0000
0000
0000
0000
0000
0000
0000
0000
0000
0000
0000
0000
0000
0000
0000
0110
0000
0000
0000
0000
0000
0000
0000
0000
0000
0000
0000
0000
0000
0000
0000
0000
0000
0000
0000
1001
0000
0000
0000
0000
0000
0000
0000
0000
0000
0000
0000
0000
0000
0000
0000
0000
0000
0000
0001
0000
0000
0000
0000
0000
0000
0000
0000
,
0000
0000
0000
0000
0000
0000
0000
0000
0000
1010
0000
0000
0000
0000
0000
0000
0000
0000
0000
0000
0000
0000
0000
0000
1001
0000
0000
0000
0000
0000
0000
0000
0000
0000
0000
0000
0000
0000
0000
0000
0000
0000
0000
0000
0000
0000
0000
0000
0001
0000
0000
0000
0000
0000
0000
0000
0000
0000
0000
0000
0000
0000
0000
0000
0010
0000
0000
0000
0000
0000
0000
0000
0100
0000
0000
0000
0000
0000
0000
0000
0000
0000
0000
0000
0000
0000
0000
0000
0001
0000
0000
0000
0000
0000
0000
0000
,
1000
0000
0000
0110
0000
0000
2010
0000
0000
3001
0000
0100
,
0001
0000
1000
0200
0000
0000
1300
0001
0100
1000
0000
0001
,
0100
0210
0302
0000
,
2003
0000
0000
0000
0000
0000
0000
0000
0000
0000
0000
0000
0000
0000
0000
0000
0000
0000
0000
0000
0000
0000
0000
0000
3001
0000
0000
0000
0000
0000
0000
0000
0000
0001
0000
0000
0000
0000
0000
0000
0000
0000
0000
0000
0100
0000
0000
0000
,
1000
0000
0101
0000
0000
0000
1002
0000
0000
0000
0000
0000
,
0203
0000
0000
0302
0000
0000
0023
0000
0000
0000
0230
0000
0000
0000
0000
0000
,
0000
0000
0320
0000
2030
0000
0000
3002
,
0203
0000
0000
0000
2300
0000
0000
3002
0000
0000
0203
0000
0000
0000
0310
0001
,
0200
0320
2030
0000
,
3001
0000
0010
0100
1000
0001
0200
0000
0000
0000
0000
0000
0310
0001
1000
0010
,
0001
0000
0100
0001
0010
1000
0000
0000
0020
0000
0000
0000
0000
0000
0130
1000
,
0002
0000
1003
0100
0000
0001
0000
1002
0000
0000
1003
0000
0000
0010
1000
0100
,
0010
0000
1000
0001
0000
0020
0000
0000
0130
0000
1000
0000
0101
0000
0100
0000
,
0010
0100
1010
0001
0110
1000
0101
1000
,
0001
0010
1001
0000
0101
1000
0001
0100
,
0011
0000
0100
0000
1000
0001
0000
0000
0100
0000
0010
0000
0100
0000
1000
0000
,
0001
0000
0010
0000
0100
0000
0000
0000
1000
0000
0001
0000
0100
0000
0000
0000
1001
0000
0000
0000
0000
0000
1001
0000
0000
0000
0100
0001
1000
0000
0000
0000
,
0101
0000
0000
0000
1000
0000
0000
0000
0202
0000
0000
0000
0303
0000
0000
0000
0101
0000
0000
0000
0000
0000
1001
0000
0000
0000
0001
1000
0010
0000
0000
0000
,
0010
0100
1000
0010
0001
0000
1000
0000
0001
0000
1000
0000
0010
0000
0100
0000
,
0010
1000
0010
1000
0100
0010
0001
0010
,
0001
0000
0010
0000
0100
0000
1000
0000
0010
0001
1000
0000
0100
0000
0010
1000
,
0100
0000
0000
0010
0000
0000
1000
0000
0000
0001
0000
0000
0010
0000
0000
1000
0000
0000
0100
0000
0000
0001
0000
0000
0200
0000
0000
0000
0000
0000
0000
0000
0000
0000
0000
0000
0310
0000
0000
0000
0001
0000
0000
0000
0100
0000
0000
0000
,
0001
0000
0010
0000
0100
0000
0020
0000
0000
0000
0000
0000
2030
0000
0000
0000
0000
0000
3001
0000
0000
0010
0000
0000
,
0100
0010
1000
0100
0010
0100
0010
0001
,
1000
0100
1000
0001
0010
0100
0010
0001
,
0010
0100
1000
0001
0100
0001
0200
0000
,
0310
0000
0001
0000
0100
0000
0000
0000
0100
0001
0010
0000
1000
0000
0100
0000
,
0000
0000
0100
0000
1000
0000
0100
0010
1000
0000
0001
0000
1000
0010
0100
0001
,
0010
0000
0001
0100
0010
1000
0100
0000
1000
0000
0010
0000
1000
0000
0100
0000
,
0020
0000
0000
0000
,
0000
0000
0000
0000
,
0230
0000
0000
0000
0000
0000
0000
0000
0301
0000
0000
0000
1000
0000
0000
0000
0001
0000
0000
0000
0000
0010
0000
0000
0000
0000
1000
0000
0000
0000
0000
0000
,
0101
0000
1001
0000
0120
0000
1030
0001
,
0100
0000
0020
0000
0130
1000
0010
0100
,
0001
0000
0200
0000
0310
0000
1000
0100
,
0010
0000
0001
0000
0100
0000
0000
0001
0000
0000
1001
0000
0000
0000
0010
0100
,
0001
0000
0000
1000
0000
0000
0000
0000
0100
0000
1000
0000
0100
0000
1000
0000
,
0001
1000
0001
0010
0001
0010
0100
0010
,
0100
1000
0010
1000
0001
0100
0001
1000
,
0100
1000
0001
1000
0100
0010
0001
0010
,
0001
0010
0100
1000
0001
0100
0001
1000
,
0010
0100
0010
1000
0001
0100
0010
0100
,
0010
0000
1000
0000
0001
0000
1000
0000
0010
0001
1000
0100
0010
0000
0100
0000
,
0001
0010
0001
0010
0001
0100
0010
1000
,
0010
1000
0001
0010
0001
0100
0001
0000
,
0001
0000
0010
0000
0100
0000
0000
0000
0010
1000
0100
0010
0001
0000
0000
0000
,
0001
1000
0001
1000
0001
0000
0000
0000
0010
0000
0000
0000
0100
0000
0000
0000
,
0001
0010
0001
1000
,
0100
0010
0001
0010
,
0100
0000
1000
0000
0020
0000
0000
0000
0200
0330
0000
0000
0000
0000
0000
0000
;
