#TITLE:Penguin Morning;
#ARTIST:nora2r;
#GENRE:ナムコオリジナル;
#MUSIC:Penguin Morning.mp3;
#BANNER:Penguin Morning.png;
#BACKGROUND:Penguin Morning-bg.png;
#CDTITLE:./CDTitles/NAMCO MUSEUM ARCADE PAC.png;
#SAMPLESTART:50.340;
#SAMPLELENGTH:15.000;
#SELECTABLE:YES;
#OFFSET:-0.178;
#BPMS:0.000=110.000;
#STOPS:;
#BGCHANGES:;
#FGCHANGES:;

//--------------- dance-single - ----------------
#NOTES:
     dance-single:
     :
     Beginner:
     2:
     0,0,0,0,0:
0000
0000
0000
0000
,
0000
0000
0000
0000
,
0000
0000
0000
0000
,
0000
0000
0000
0000
,
0000
0000
0000
0000
,
1001
0000
0000
0000
,
0010
0000
0000
1000
,
0000
0001
0000
0100
,
0000
1000
0000
0010
,
0100
0002
0000
0000
,
0103
2000
0000
3001
,
0100
0000
0000
0000
,
1000
0000
0100
0001
,
0010
1000
0000
0001
,
0000
0010
0000
0100
,
0000
1000
0000
0001
,
0000
0010
0000
0100
,
0000
0010
0000
1000
,
0001
0010
0000
1000
,
0100
0000
0000
1000
0000
0000
0000
0000
0001
0000
0000
0010
0000
0000
0000
0000
,
1000
0000
0000
0001
0000
0000
0000
0000
0100
0000
0000
0000
0010
0000
0000
0000
,
1000
0000
0001
0000
,
1000
0100
0010
1000
,
1001
0100
0000
1000
,
0000
0010
0000
1000
,
0000
0010
0000
1000
,
0000
0001
0000
0010
,
0000
0100
0000
0010
,
0000
1000
0000
0001
,
0000
0100
0000
0001
,
0000
0010
0000
1000
,
0100
0001
0000
1000
,
0100
0001
0010
1000
,
0001
0100
0001
1000
,
0100
0010
1000
0001
,
0010
1000
0001
0010
,
0100
1000
0001
0010
,
1000
0001
0010
1000
,
0001
0010
1000
0001
,
0110
0000
0000
0000
,
0001
0000
0000
1000
,
0000
0001
0000
0010
,
0000
1000
0000
0010
,
0000
0100
0000
0001
,
0000
1000
0000
0001
,
0000
1000
0000
0001
,
0000
0100
0000
0001
,
0100
1000
1000
1000
,
0001
0001
0001
1001
,
0200
0320
0000
0000
,
0000
0000
0000
0000
,
0030
0000
0000
0000
;

//--------------- dance-single - ----------------
#NOTES:
     dance-single:
     :
     Easy:
     4:
     0,0,0,0,0:
0000
0000
0000
0000
,
0000
0000
0000
0000
,
0000
0000
0000
0000
,
0000
0000
0000
0000
,
0000
0000
0000
0000
,
0010
1000
0000
0001
,
0010
1000
0000
0001
,
0010
0100
0000
1000
,
0001
0010
0100
0000
,
0110
2000
0000
0000
,
3001
0002
0000
1003
,
0010
0000
1000
0000
,
0001
0000
0100
0000
,
1000
0001
0000
0100
,
0000
0010
0000
1000
,
0000
0001
0000
0010
,
0000
1000
0000
0010
,
0000
0100
0000
0001
,
0000
1000
0000
0001
,
1000
0000
0000
1000
0000
0000
0010
0000
0001
0000
0000
1000
0000
0000
0001
0000
,
0010
1000
0001
0100
,
1000
0100
0010
0100
,
1000
0000
0000
0000
0001
0000
0000
1000
0000
0000
0020
0000
0000
0030
0000
0000
,
1001
0010
1000
0001
,
0100
1000
0001
0010
,
0100
1000
0001
0100
,
0001
0000
1000
0010
,
1001
0100
1000
0001
,
0100
0010
1000
0001
,
0100
1000
0001
0100
,
1000
0001
0010
1000
,
0010
0100
1000
0001
,
0010
1000
0001
0100
,
0010
1000
0001
0010
,
0100
0001
0001
0100
,
1001
0100
0010
1000
,
0001
0100
1000
0001
,
0010
0100
1000
0001
,
0010
0100
1000
0001
,
1001
0000
0010
0100
,
0010
0000
0010
0100
,
0010
0001
1000
0100
,
1000
0001
0010
1000
,
0001
0010
1000
0001
,
0010
0100
1000
0001
,
0010
0100
1000
0001
,
0100
0010
1000
0001
,
1001
2000
0000
0000
,
3001
0002
0000
0103
,
0010
2002
0000
0000
,
0000
0000
0000
0000
,
3003
0000
0000
0000
;

//--------------- dance-single - ----------------
#NOTES:
     dance-single:
     :
     Medium:
     7:
     0,0,0,0,0:
0000
0000
0000
0000
,
0000
0000
0000
0000
,
0000
0000
0000
0000
,
0000
0000
0000
0000
,
0000
0000
0000
0000
,
0100
0010
0100
1000
,
0001
0010
0001
0010
,
0001
1000
0100
0010
,
0001
0100
0010
0100
,
0001
0000
0100
1000
0001
1000
0010
0001
,
0100
0000
1000
0100
0001
1000
0010
0000
,
0100
1000
0100
0010
,
0001
0010
0100
0010
,
0100
1000
0100
0010
,
0001
0010
0100
0010
,
0100
1000
0010
1000
,
0001
1000
0100
0010
,
0100
1000
0001
0010
,
0100
0010
0100
1000
,
0100
0000
0000
0001
0000
0000
1000
0000
0001
0000
0000
0100
0000
0000
0001
0000
,
0100
1000
0010
0100
0001
1000
0010
0100
,
0001
1000
0100
1000
,
0001
0000
1000
0000
0010
0000
0000
0001
1000
0000
0100
0000
0000
0000
0000
0000
,
0110
0000
1000
0000
0100
1000
0010
0100
,
0001
0000
1000
0000
0001
0010
1000
0100
,
0001
1000
0010
0000
0100
0000
0010
0001
,
0100
0010
1000
0100
0001
1000
0100
0100
,
0001
0000
0100
0000
0001
0100
1000
0001
,
0010
0100
1000
0100
0001
1000
0010
0000
,
0100
0001
0010
0001
0100
0010
1000
0100
,
0001
0100
1000
0010
0001
1000
0100
0001
,
0010
0000
1000
0000
0100
0001
1000
0001
,
0100
0010
1000
0100
0010
0001
0100
1000
,
0010
0000
1000
0000
0001
0010
0100
1000
,
0010
0001
1000
0000
0100
0001
0010
1000
,
0100
0000
0010
0000
0001
1000
0010
0100
,
0001
1000
0100
0000
0010
0001
1000
0000
,
0010
0100
1000
0000
0010
1000
0100
0000
,
0001
0010
1000
0001
0100
1000
0010
0100
,
0001
1000
0100
1000
,
0010
0100
0010
0100
,
0001
1000
0010
1000
,
0001
1000
0001
0100
,
0010
0100
0001
0100
,
0001
1000
0010
1000
,
0100
1000
0001
0010
,
0001
0100
0010
0100
,
0010
0000
0100
1000
0001
0100
1000
1000
,
0100
0000
1000
0001
0010
1000
0100
0000
,
0010
2002
0000
0000
,
0000
0000
0000
0000
,
3003
0000
0000
0000
;

//--------------- dance-single - ----------------
#NOTES:
     dance-single:
     :
     Hard:
     11:
     0,0,0,0,0:
0000
0000
0000
0000
,
0000
0000
0000
0000
,
0000
0000
0000
0000
,
0000
0000
0000
0000
,
0000
0000
0000
0000
,
0010
0100
0010
1000
,
0010
1000
0001
0100
,
0010
0100
0010
1000
,
0001
1000
0001
0100
,
0100
0000
0001
1000
0001
0010
0001
0100
,
0010
0000
0100
1000
0001
0010
0001
0000
,
0100
0010
0100
1000
,
0001
1000
0010
1000
,
0001
0100
0010
0100
,
0001
0010
0001
0010
,
0100
1000
0100
0010
,
0001
1000
0010
1000
,
0001
0100
0010
0100
,
0001
0000
1000
0000
0010
0001
0100
0010
,
0100
0000
1000
0001
0000
0000
1000
0000
0100
0000
0010
1000
0001
0000
1000
0000
,
0010
1000
0001
1000
0001
0010
0100
0010
,
0001
0010
1001
0010
,
0100
0000
0010
0000
0001
0000
0000
0001
0100
0000
0010
0000
1000
0001
0000
0000
,
0110
1000
0100
0010
0001
0010
0001
0100
,
0010
0100
0010
0100
0001
1000
0001
1000
,
0001
0010
0100
0010
0001
0010
0001
0100
,
0010
0100
0010
1000
0100
0010
0001
0100
,
0010
0100
0010
1000
0100
1000
0100
1000
,
0010
0100
0010
0100
0010
1000
0001
0010
,
0001
0100
0001
0010
0100
1000
0100
1000
,
0100
0010
0001
0010
0100
0010
0001
1000
,
0001
0010
0100
0010
0001
0100
0001
1000
,
0001
0100
0010
0100
0001
1000
0010
1000
,
0010
0100
0010
1000
0001
1000
0100
1000
,
0001
0010
0100
1000
0100
1000
0100
0010
,
0001
1000
0001
0010
0001
1000
0010
0100
,
0001
1000
0010
1000
0010
0100
0010
1000
,
0001
0010
0100
1000
0010
1000
0010
0100
,
0001
0100
0001
0010
0001
1000
0010
0100
,
0010
0100
0001
1000
0010
1000
0001
0100
,
0001
0100
0001
0010
0100
0010
0001
0100
,
0010
1000
0010
0100
0001
0100
0010
1000
,
0010
0100
0001
0010
0100
0010
0100
1000
,
0001
0100
0010
1000
0001
0100
0010
0100
,
0001
1000
0010
0100
0001
0010
0100
1000
,
0100
1000
0001
0100
0010
1000
0100
1000
,
0001
1000
0010
0100
0010
1000
0001
1000
,
0001
0010
0001
1000
0010
1000
0001
0010
,
0100
1000
0001
0010
0100
0010
0001
0000
,
0010
2002
0000
0000
,
0000
0000
0000
0000
,
3003
0000
0000
0000
;
