#TITLE:Party Monster;
#ARTIST:Getty;
#GENRE:Enjoy Summer Vacation!;
#MUSIC:Party Monster.ogg;
#BANNER:Party Monster.png;
#BACKGROUND:Party Monster-bg.png;
#CDTITLE:./CDTitles/NSD A3.png;
#SAMPLESTART:104.221;
#SAMPLELENGTH:15.000;
#SELECTABLE:YES;
#OFFSET:0.000;
#BPMS:0.000=175.000;
#STOPS:;
#BGCHANGES:;
#FGCHANGES:;

//--------------- dance-single - ----------------
#NOTES:
     dance-single:
     :
     Beginner:
     5:
     0,0,0,0,0:
0000
0000
0000
0000
,
0000
0000
0000
0000
,
0000
0000
0000
0000
,
0000
0000
0000
0000
,
1001
0000
0000
0000
,
0010
0000
0000
0000
,
0100
0000
1000
0000
,
0001
0010
0100
1000
,
0001
0000
0000
0000
,
0100
0000
0000
0000
,
0010
0000
0100
0000
,
1000
0001
0100
0010
,
1000
0000
0001
0000
,
0010
0000
0100
0000
,
1000
0000
0001
0000
,
0010
0000
0100
0000
,
1000
0000
0001
0000
,
0100
1000
0001
0100
,
0020
0000
0000
0030
,
1000
1000
1000
0000
,
1001
0000
0010
0100
,
0010
0100
0010
1000
,
0001
0000
0100
1000
,
0001
0010
0100
1000
,
0001
0000
0100
0010
,
1000
0001
0100
0010
,
0100
0000
0001
0000
,
1000
0000
0001
0000
,
1001
0000
0100
0010
,
0100
1000
0001
0010
,
0100
0000
0100
0010
,
0100
0010
0001
1001
,
1000
0000
0100
0010
,
0100
0010
0100
1000
,
0002
0000
2003
0000
,
3001
0000
0000
0000
,
0010
0000
0100
0000
,
1000
0000
0001
0000
,
0010
0000
0100
0000
,
1000
0000
0001
0000
,
0010
0000
0100
0000
,
1000
0000
0001
0000
,
0010
0000
0100
0000
,
1000
0000
0001
0000
,
1001
0000
0000
0000
,
0010
0000
0000
0000
,
0100
0000
0000
0000
,
1000
0000
0001
0000
,
0100
0000
0000
0000
,
0010
0000
0000
0000
,
0100
0000
1000
0000
,
0001
0000
0000
0000
,
1001
0000
0000
0000
,
0010
0000
0000
0000
,
0100
0000
0000
0000
,
1000
0000
0000
0000
,
0001
0000
0000
0000
,
0010
0000
0000
0000
,
0100
0000
0000
0000
,
0010
0000
0000
0000
,
1001
0000
0100
0000
,
1000
0000
0001
0000
,
0010
0000
0100
0000
,
1000
0000
0001
0000
,
0010
0000
0100
0000
,
0010
0000
1000
0000
,
0001
0000
0010
0000
,
0100
0000
0000
0000
,
1000
0000
0000
0000
,
0001
0000
0000
0000
,
0010
0000
0000
0000
,
1000
0000
0000
0000
,
0001
0000
0010
0000
,
0100
1000
0001
0100
,
1001
0000
0000
0000
,
0000
0000
0000
0000
,
1001
0000
0100
0000
,
0010
0001
1000
0000
,
0001
0000
1000
0000
,
0001
0010
0100
0000
,
1000
0000
0001
0000
,
0010
0000
0100
0000
,
1000
0000
0001
0000
,
0010
0100
1000
0000
,
0001
0000
1000
0000
,
0001
0000
0010
0000
,
0010
0000
0100
0000
,
0100
0000
0001
0000
,
1000
0000
0001
0000
,
0010
0000
0100
0000
,
1000
0000
0001
0000
,
0010
0100
1000
0000
,
1001
0000
0000
0000
;

//--------------- dance-single - ----------------
#NOTES:
     dance-single:
     :
     Easy:
     9:
     0,0,0,0,0:
0000
0000
0000
0000
,
0000
0000
0000
0000
,
0000
0000
0000
0000
,
0000
0000
0000
0000
,
1001
0000
0000
0100
0010
0000
1000
0000
,
0001
0000
0000
0100
0010
0000
1000
0000
,
0001
0000
0000
0100
0010
0000
0100
0000
,
1000
0001
0010
0100
,
1001
0000
0000
0100
0010
0000
1000
0000
,
0001
0000
0000
0100
0010
0000
0100
0000
,
1000
0000
0000
0001
0100
0000
0010
0000
,
1000
0000
0001
0000
,
0010
0100
1000
0001
,
0100
0010
0001
0100
,
0010
1000
0001
0100
,
0010
1000
0001
0100
,
0010
1000
0001
0000
0100
1000
0001
0000
,
0010
0100
0001
0000
0100
1000
0001
0200
,
0000
0000
0000
0300
,
0001
0010
0100
0000
,
1002
0000
0103
0010
,
1000
0001
0100
0010
,
2000
0000
3001
1000
,
0001
0100
0010
1000
,
1002
0000
0103
0010
,
0001
0100
0001
1000
,
1002
0000
0103
0000
,
0010
0000
0100
1000
0001
0000
0100
0000
,
1002
0000
0103
0010
,
1000
0001
0100
0010
,
2000
0000
3001
0100
,
0010
1000
0001
0100
,
2001
0000
3001
1000
,
0001
0100
0010
1000
,
0001
0000
0100
0000
,
0010
0100
1000
0001
,
1001
0000
0100
0000
,
0010
0000
1000
0001
,
0100
0000
0010
0000
,
0100
0001
0100
0000
,
1001
0000
0100
0000
,
0010
0000
0100
1000
,
0001
0000
0100
0000
,
0010
0001
1000
0001
,
1001
0000
0100
0000
,
0010
0000
0100
0000
,
0001
0000
0010
0000
,
0100
1000
0001
0100
,
0010
0000
1000
0000
,
0001
0000
0010
0000
,
1000
0000
0001
0000
,
1000
0001
0100
0000
,
1001
0000
0000
0000
,
0100
0000
0000
0000
,
0010
0000
0100
0000
,
1000
0000
0001
0000
,
0100
0000
0000
0000
,
0001
0000
0000
0000
,
1000
0000
0001
0000
,
0200
0000
0000
0300
,
1000
0000
0001
0000
,
0010
0000
0100
0000
,
0001
0000
1000
0000
,
0001
0100
0010
1000
,
0001
0000
1000
0000
,
0001
0000
0010
0000
,
0100
0000
0010
0000
,
1000
0001
0100
0010
,
1001
0000
0100
0000
,
0010
0000
0100
0000
,
1000
0000
0001
0000
,
0100
0000
0010
0000
,
1000
0001
0100
0000
0001
1000
0010
0000
,
0100
0001
1000
0000
0001
1000
0100
0000
,
2000
0000
0000
3000
,
0001
0010
0100
0000
,
1001
0100
0010
1000
,
0001
0100
0010
1000
,
0001
0100
0010
1000
,
0001
0001
0100
0010
,
1001
0010
0100
0001
,
1000
0001
0100
0010
,
0100
1000
0001
0100
,
0010
0100
1000
0000
,
0002
0103
0010
0100
,
1000
0001
0100
0001
,
1000
0001
0100
0010
,
0100
1000
0001
0100
,
0002
0013
1000
0001
,
0100
0010
0100
0001
,
1000
0001
0100
0010
,
1000
0000
0001
0000
,
1001
0000
0000
0000
;

//--------------- dance-single - ----------------
#NOTES:
     dance-single:
     :
     Medium:
     12:
     0,0,0,0,0:
0000
0000
0000
0000
,
0000
0000
0000
0000
,
0000
0000
0000
0000
,
0000
0000
0000
0000
0000
0000
1000
0100
,
0010
0000
0000
0000
0000
0000
0001
0000
0100
0000
0000
0001
0000
0000
0100
0000
,
1000
0000
0000
0000
0000
0000
0010
0000
1000
0000
0000
0001
0000
0000
0100
0000
,
0010
0000
0000
0000
0000
0000
0100
0000
1000
0000
0000
0001
0000
0000
0100
0000
,
0010
0000
1000
0000
0001
0100
0010
1000
,
1001
0000
0000
0000
0000
0000
1000
0000
0100
0000
0000
0010
0000
0000
1000
0000
,
0001
0000
0000
0000
0000
0000
0010
0000
0100
0000
0000
1000
0000
0000
0001
0000
,
0010
0000
0000
0000
0000
0000
1000
0000
0001
0000
0000
0100
0000
0000
0010
0000
,
0100
1000
0001
0010
,
0100
1000
0001
0100
,
0010
0001
1000
0001
,
0100
0010
1000
0000
0100
0000
1000
0000
,
0001
0000
0010
0000
0100
0000
0000
0000
0010
0000
0000
0100
0000
0000
0001
0000
,
1000
0001
0100
0000
0010
0100
1000
0000
,
0001
0100
0001
0010
1000
0100
1000
0001
,
0020
0000
0000
0030
,
1000
0001
0100
1001
,
0110
0000
1000
0000
0001
0010
0100
0000
,
1000
0001
0100
0000
0010
0100
1000
0000
,
1001
0000
0100
0010
0100
0000
1000
0001
,
0100
0000
0010
0100
1000
0001
0010
0000
,
0110
0000
1000
0001
0010
0000
0100
1000
,
0001
0000
0001
1000
0001
0000
0010
0000
,
1001
0010
0100
1000
,
0001
0010
0100
0000
1000
0000
0001
0000
,
1001
0000
0010
0100
1000
0000
0001
0010
,
0100
0000
0010
0100
0001
0000
1001
0000
,
0110
0000
0100
1000
0001
0000
0001
0010
,
0100
0000
1000
0001
0000
0000
2000
0000
,
3001
0000
0100
1000
0001
0000
0010
0100
,
0001
0000
1000
0001
0100
0000
0010
0100
,
1000
0001
0100
0010
,
1001
0011
0110
1001
,
0110
0000
0000
1000
0000
0000
0001
0000
0000
0100
0000
0001
0000
0000
1000
0000
,
0100
0000
0000
0001
0000
0000
1000
0000
0000
0010
0000
1000
0010
0000
0100
0000
,
1001
0000
0000
1000
0000
0000
0001
0000
0000
0100
0000
0001
0000
0000
1000
0000
,
0010
0000
0100
0000
1000
0000
0001
0000
0100
1000
0000
0001
0200
0000
0000
0000
,
0310
0000
0000
1000
0000
0000
0010
0000
0000
0100
0000
1000
0000
0000
0001
0100
,
0000
0000
1000
0010
0000
0000
0100
0000
0000
0010
0000
0100
1000
0000
0001
0000
,
1000
0010
0100
1000
0001
0000
0010
0000
,
1000
0000
0000
0000
0100
0000
0001
0000
0010
0000
0000
1000
0000
0000
0001
0000
,
0200
0000
0000
0000
0301
0000
1000
0000
0000
0001
0000
0100
0000
0000
0010
0000
,
0100
0000
1000
0000
0000
0000
0001
0000
0000
0100
0000
1000
0000
0000
0010
0000
,
0100
0000
1000
0001
0000
0000
0100
0000
0000
0010
0000
1000
0000
0000
0001
0010
,
0100
0000
1000
0000
0001
0000
0010
0000
1000
0000
0000
0001
0000
0000
1000
0000
,
0010
0100
1000
0000
0000
0000
1001
0000
0000
0010
0000
0100
0000
0000
1000
0000
,
0001
0000
0100
0000
0000
0000
1000
0000
0000
0010
0000
0001
0000
0000
0100
0000
,
2001
0000
3002
0003
,
0220
0000
0330
0000
,
0002
0000
0023
0000
,
0230
0000
2300
0000
,
3002
0000
2003
0000
,
3200
0000
0320
0000
,
0230
0000
0320
0000
,
0230
0000
2300
0000
,
3002
0000
2003
0000
,
3200
0000
0000
0300
,
0001
0000
0000
0000
1000
0000
0000
0000
0010
0000
0000
1000
0000
0000
0100
0000
,
0001
0000
0000
0000
0010
0000
1000
0000
0001
0000
0000
0100
0000
0000
0010
0000
,
0001
0000
0000
0000
1000
0000
0000
0000
0010
0000
0000
1000
0000
0000
0100
0000
,
0001
0000
1000
0000
0100
0000
0001
1000
0010
0000
0000
0001
0000
0000
0010
0000
,
0100
0000
0000
0000
1000
0000
0100
0000
0001
0000
0000
0100
0000
0000
1000
0000
,
0100
0000
0000
0000
0010
0000
0001
0000
1000
0000
0000
0100
0000
0000
0001
0000
,
0100
0000
0000
0000
1000
0000
0100
0000
0010
0000
0000
0001
0000
0000
1000
0000
,
0002
0000
0000
1003
,
0100
0000
0010
0000
0100
0000
0010
1000
,
0001
0000
0100
0000
0001
0000
0010
1000
,
0001
0000
0010
0000
0100
0000
0010
1000
,
0100
0000
1000
0000
0001
0000
0100
0010
,
0001
0000
0010
0001
0100
0000
1000
0001
,
0010
0100
1000
0100
0010
0001
1000
0100
,
0110
0000
0000
0000
,
0001
0010
0100
0000
,
1001
0000
0010
0000
1000
0000
0001
0010
,
0100
0000
0001
0000
0010
0000
0100
0001
,
0010
0000
0100
0000
1000
0010
0001
0000
,
1000
0000
0001
1000
0100
0000
0010
0001
,
0100
0000
0010
0000
1000
0001
0100
0000
,
0010
0000
0100
1000
0010
0000
0001
0000
,
0010
0001
0100
0000
1000
0010
0100
0000
,
1000
0010
0100
0010
,
2001
0000
3001
0100
1000
0000
0100
0000
,
0010
0001
0100
0000
0010
0000
0100
0001
,
1000
0000
0010
0000
1000
0100
0001
0000
,
1000
0000
0010
0001
0100
0000
0010
0100
,
1000
0000
0001
0000
1000
0100
0001
0000
,
1000
0000
0010
1000
0100
0000
0001
0000
,
0100
0000
0001
0000
0010
0000
0000
0000
1000
0000
0000
0001
0000
0000
0100
0000
,
1000
0100
0010
0100
,
1001
0000
0000
0000
;

//--------------- dance-single - ----------------
#NOTES:
     dance-single:
     :
     Hard:
     16:
     0,0,0,0,0:
0000
0000
0000
0000
,
0000
0000
0000
0000
,
0000
0000
0000
0000
,
0000
0000
0000
0000
0000
0000
1000
0010
,
0110
0000
0000
0000
0000
0000
1000
0000
0001
0000
0000
0100
0000
0000
0010
0000
,
0100
0000
0000
0000
0000
0000
1000
0000
0100
0000
0000
0001
0000
0000
1000
0000
,
0010
0000
0000
0000
0000
0000
0100
0000
1000
0000
0000
0001
0000
0000
0010
0000
,
0100
0000
0000
0000
1000
0000
0010
0000
0100
0000
1000
0001
0100
0000
1000
0000
,
0110
0000
0000
0000
0000
0000
0010
0000
0100
0000
0000
1000
0000
0000
0001
0000
,
0010
0000
0000
0000
0000
0000
1000
0000
0001
0000
0000
0100
0000
0000
0010
0000
,
0100
0000
0000
0000
0000
0000
0001
0000
1000
0000
0000
0001
0000
0000
0100
0000
,
1000
0000
0001
1000
0100
0001
0010
0100
,
1001
0100
0010
0100
,
1000
0001
0100
0010
,
0001
0100
0010
1000
,
0001
0000
0000
0000
0010
0000
0000
0000
0100
0000
0000
1000
0000
0000
0001
0000
,
0010
0100
0010
0100
0010
1000
0001
1000
,
0100
0010
1000
0000
0001
0100
0010
0000
0001
1000
0010
0000
0100
0001
1000
0000
,
2002
0000
0000
3003
,
0100
1000
0010
0100
0001
0100
0001
0100
,
2002
0000
3003
0000
0100
0010
0001
0000
1000
0001
0100
0000
0010
0001
0010
0000
,
1000
0001
0100
0000
0001
0010
0001
0000
1000
0100
1000
0000
2002
0000
3003
0000
,
0220
0000
0330
0000
0010
0100
1000
0000
0001
1000
0010
0000
0100
1000
0100
0000
,
0001
1000
0010
0000
1000
0100
1000
0000
0001
0010
0001
0000
2200
3300
0000
0000
,
2002
0000
3003
0000
0100
0010
0001
0000
1000
0001
0100
0000
0010
0001
0010
0000
,
1000
0001
0100
0000
0001
0010
0001
0000
1000
0100
1000
0000
0022
0000
0033
0000
,
0001
0100
0010
1000
0001
1000
0010
1000
,
0100
1000
0010
0000
0001
0010
0000
1000
0001
0000
0100
0000
2001
0000
0100
0000
,
3001
0000
0000
0000
0100
0010
0001
0000
1000
0001
0100
0000
0010
0001
0010
0000
,
1000
0001
0100
0000
0001
0010
0001
0000
1000
0100
1000
0000
0022
0000
0033
0000
,
2002
0000
3003
0000
0010
0100
1000
0000
0001
1000
0010
0000
0100
1000
0100
0000
,
0001
1000
0010
0000
1000
0100
1000
0000
0001
0010
0001
0000
2200
0000
3300
0000
,
2002
0000
3003
0000
0100
0010
0001
0000
1000
0001
0100
0000
0010
0001
0010
0000
,
1000
0001
0100
0000
0001
0010
0001
0000
1000
0100
1000
0000
0001
0010
0001
0000
,
2000
0000
0000
0000
3002
0000
0203
0000
0310
0000
0000
1001
0000
0000
0110
0000
,
2000
0000
3200
0000
0320
0000
0032
1003
,
1001
0100
0010
1001
0100
0010
1001
0000
,
0110
1000
0001
0110
1000
0001
0110
0000
,
1010
0100
0001
1010
0100
0001
1010
0001
,
0011
0100
1000
0011
0100
1000
0011
0000
,
0010
0000
0001
0000
0100
0000
0010
0000
1000
0000
0001
0100
0001
0000
0010
0000
,
0100
0000
1000
0000
0010
0000
0100
0000
0001
0000
0010
0100
0010
0000
0001
0000
,
0101
0000
1000
0000
0010
0000
0101
0000
1000
0000
0010
1000
0010
0000
0100
0000
,
0101
0000
0001
0000
1000
0000
0010
0000
1010
0000
0000
1001
0000
0000
0110
0000
,
1000
0000
0000
1010
0000
0000
1100
0000
0000
1010
0000
0000
1100
0000
0000
0000
,
0001
0000
0000
0011
0000
0000
0101
0000
0000
0011
0000
0000
0101
0000
0000
0000
,
1010
0000
0000
1010
0000
0000
0101
0000
0000
0101
0000
0000
1100
0000
0000
1100
,
0000
0001
0000
0000
0011
0000
0000
0011
0000
0000
0110
0000
0000
0110
0000
0000
,
1001
0000
0000
1010
0000
0000
1100
0000
0000
1010
0000
0000
1100
0000
0000
0000
,
0001
0000
0000
0011
0000
0000
0101
0000
0000
0011
0000
0000
0101
0000
1000
0000
,
0100
0000
0001
1000
0020
0000
0230
0000
,
2300
3000
0001
0000
,
1002
0000
0023
0000
,
0230
0000
0320
0000
,
2030
0000
3002
0000
,
0103
0001
0010
0100
1000
0100
0010
1000
,
0002
0000
2003
0000
,
3020
0000
0230
0000
,
2300
0000
3002
0000
,
0203
0000
0000
0000
0000
0000
0310
0001
,
0010
0000
0000
1001
0000
0000
1000
0001
0100
0000
0000
0010
0000
0000
0100
0000
,
2000
0000
0000
0000
3100
0000
0001
0010
0100
0000
0000
1001
0000
0000
0110
0000
,
1002
0000
0000
0000
0013
0000
1000
0100
0010
0000
0000
0011
0000
0000
1001
0000
,
0110
0000
1000
0000
0010
0000
1000
0100
0010
0000
1000
0001
0000
0000
1000
0000
,
0110
0000
0000
0000
1100
0000
0001
0010
0100
0000
0000
1001
0000
0000
0110
0000
,
1002
0000
0000
0000
0103
0000
1000
0100
0010
0000
0000
0011
0000
0000
1001
0000
,
0020
0000
0000
0000
0130
0000
1000
0001
0100
0000
0000
1001
0000
0000
0011
0000
,
2000
0000
0000
3001
,
1000
0000
0010
0000
0100
0000
0001
1000
0000
0000
0001
0000
0100
0000
0000
0000
,
0001
0000
0010
0000
0100
0000
1000
0001
0000
0000
1000
0000
0010
0000
0000
0000
,
0100
0000
0010
0000
1000
0000
0001
0010
0000
0000
0001
0000
0100
0000
0000
0000
,
0010
0000
0100
0000
0001
0000
1000
0010
0100
0000
0000
1001
0000
0000
0010
0000
,
1000
0010
1000
0010
1000
0010
0100
0001
,
0010
0001
0010
0001
0010
0001
0100
0010
,
1000
0100
1000
0000
0001
0000
0100
0000
0010
1000
0010
0000
0100
0000
0001
0000
,
0020
0000
0000
0000
0000
0000
0000
0000
0130
0000
1000
0001
1000
0000
0000
0000
,
0001
0000
0010
0000
0100
0000
1000
0000
0010
0100
1000
0000
0010
0000
1000
0000
,
0001
0100
0010
1000
0100
0010
0001
0010
,
0001
0100
0010
0100
0001
1000
0100
1000
,
0100
1000
0010
0000
0100
0001
0010
0000
0001
0000
1000
0000
0010
0000
0100
0000
,
0001
0000
1000
0000
0100
0000
0010
0000
0100
0000
0010
0000
0100
0010
1000
0000
,
0001
0000
0010
0000
0100
1000
0010
0000
0001
0000
0010
0000
0100
0000
1000
0000
,
0100
0000
0010
0000
0001
0100
1000
0000
0100
0000
0010
0000
0100
0000
1000
0100
,
0001
0000
0010
0000
0001
0100
1000
0000
0100
0000
1000
0000
2010
0000
0000
0000
,
3002
0000
0000
0000
0103
0000
1000
0000
0100
1000
0010
0000
0100
0000
0010
0000
,
0001
0000
0100
0010
0001
0000
0100
1000
0010
0000
0100
0000
0010
0000
1000
0100
,
0001
0000
0010
0000
0001
0000
0010
0001
0100
0000
1000
0000
0100
0000
0010
1000
,
0001
0000
0010
0000
0001
0000
0010
0001
0100
0000
1000
0000
0020
0000
0000
0000
,
0032
0000
1003
0010
0100
1000
0001
1000
,
0001
1000
0100
0010
0100
0010
0001
0010
,
0001
1000
0100
0000
0010
0000
0100
0000
0001
0010
0000
0100
0010
0000
1000
0000
,
0001
0100
1000
0000
0010
0001
0100
0000
1000
0001
0000
1000
0001
0000
0010
0000
,
2002
0000
0000
0000
,
3003
0000
0000
0000
;
