#TITLE:PaPaPa★ぱすた;
#ARTIST:chacol;
#TITLETRANSLIT:PaPaPa★Pasta;
#GENRE:EXTRA SAVIOR A3 始動!;
#MUSIC:PaPaPa Pasta.ogg;
#BANNER:PaPaPa Pasta.png;
#BACKGROUND:PaPaPa Pasta-bg.png;
#CDTITLE:./CDTitles/NSD A3.png;
#SAMPLESTART:38.581;
#SAMPLELENGTH:15.000;
#SELECTABLE:YES;
#OFFSET:0.000;
#BPMS:0.000=178.000;
#STOPS:;
#BGCHANGES:;
#FGCHANGES:;

//--------------- dance-single - ----------------
#NOTES:
     dance-single:
     :
     Beginner:
     2:
     0,0,0,0,0:
0000
0000
0000
0000
,
0000
0000
0000
0000
,
0000
0000
0000
0000
,
0000
0000
0000
0000
,
0000
0000
0000
0000
,
0001
0000
0000
0000
,
0001
0000
0100
0200
,
0310
0000
1000
0000
,
0001
0000
0100
0010
,
0100
0000
0000
0000
,
1000
0000
0000
0000
,
0001
0000
0010
0000
,
0100
0010
0100
0000
,
1000
0000
0000
0000
,
0001
0000
0000
0000
,
0010
0000
0000
0000
,
0100
0000
0010
0000
,
0100
0000
0000
0000
,
1000
0000
0000
0000
,
0001
0000
0010
0000
,
0100
0000
1000
0001
,
0100
0000
0010
0000
,
0100
0000
0001
0000
,
1000
0000
0001
0000
,
0010
0000
0000
0000
,
2000
0000
3000
0000
,
0002
0000
0003
0000
,
0010
0000
0100
0000
,
0020
0000
0030
0000
,
1001
0000
0100
0000
,
0010
0000
1000
0000
,
0001
0000
0000
0000
,
0100
0000
0000
0000
,
1000
0000
0000
0000
,
0001
0000
0000
0000
,
0010
0000
0100
0000
,
0001
0000
1000
0000
,
0010
0000
0000
0000
,
1000
0000
0001
0000
,
0010
0000
0000
0000
,
0100
0000
0010
0000
,
1000
0000
0000
0000
,
0010
0000
0000
0000
,
0100
0000
1000
0000
,
0001
0000
0100
0000
,
0010
0000
1000
0000
,
0001
0000
0100
0000
,
0020
0000
0030
0000
,
1000
0000
0000
0000
,
0010
0000
0000
0000
,
0001
0000
0000
0000
,
0100
0000
0000
0000
,
0001
0000
0000
0000
,
1000
0000
0000
0000
,
0001
0000
0010
0000
,
0100
0000
1000
0000
,
0001
0000
0000
0000
,
0100
0000
0000
0000
,
0010
0000
0100
0000
,
1000
0000
0000
0000
,
0020
0000
0030
0000
,
0200
0000
0300
0000
,
1000
0000
0001
0000
,
0100
0000
0010
0000
,
1001
0000
0100
0000
,
0010
0000
0100
0000
,
0001
0000
1000
0000
,
0001
0000
0010
0000
,
0100
0000
1000
0000
,
0001
0000
0010
0000
,
0100
0000
0001
0000
,
1000
0000
0100
0000
,
1001
0000
0000
0000
,
0010
0000
0100
0000
,
0010
0000
1000
0000
,
0001
0000
0000
0000
,
0010
0000
0100
0000
,
0001
0000
1000
0000
,
0002
0000
0003
0000
,
0010
0000
1000
0000
,
0001
0000
0100
0000
,
0010
0000
0100
0000
,
2000
0000
3000
0000
,
0001
0010
0001
0000
,
1000
0100
1000
0000
,
0010
0000
0100
0000
,
0010
0000
1000
0000
,
0100
0000
0000
0010
0000
0000
0000
0000
;

//--------------- dance-single - ----------------
#NOTES:
     dance-single:
     :
     Easy:
     4:
     0,0,0,0,0:
0000
0000
0000
0000
,
0000
0000
0000
0000
,
0000
0000
0000
0000
,
0000
0000
0000
0000
,
0000
0000
0000
0000
,
0001
0010
0000
1000
,
0001
0000
0100
0000
0000
1000
0200
0000
,
0310
1000
0000
0100
,
0010
0100
1000
0001
,
0100
0000
0010
0000
,
1000
0000
0001
0000
,
0010
0001
1000
0001
,
0100
0010
0100
0000
,
1000
0000
0001
0000
,
0100
0010
0100
0000
,
1000
0000
0001
0000
,
0010
0100
0001
1000
,
0001
0000
0100
0000
,
0010
0100
1000
0000
,
0001
0000
1000
0000
,
0001
0000
0100
0010
,
1000
0001
0100
0000
,
0001
1000
0100
0000
,
0010
0000
0001
0000
,
1000
0001
0100
0000
,
0010
0001
1000
0001
,
0100
0010
0100
1000
,
0001
0100
0010
0100
,
2000
0000
3000
0000
,
1001
0110
0001
1000
,
0001
0100
0010
0100
,
1000
0001
0100
0010
,
0200
0000
0310
0000
,
0001
0100
0010
0100
,
1000
0001
0100
0000
,
0010
0100
0001
1000
,
0002
0000
1003
0000
,
0010
0100
1000
0001
,
0100
0010
1000
0001
,
0100
0000
0010
0000
,
0001
1000
1002
0000
,
1003
0000
0010
0000
,
0100
0001
1000
0001
,
0200
0000
0310
0000
,
0100
0001
1000
0001
,
0100
0010
0100
1000
,
0001
0100
0010
0100
,
2001
0000
3001
0000
,
0100
0010
1000
0001
,
0100
0010
0100
0000
,
0001
1000
0001
0100
,
0010
0100
1000
0000
,
0001
0000
0100
0000
,
0010
0000
0100
0000
,
1000
0001
0100
0010
,
2000
0000
3001
0000
,
0100
0010
0100
1000
,
0001
0000
0010
1000
,
0001
0100
0010
0100
,
1000
0000
0001
0000
,
0100
0010
0100
1000
,
0001
0100
0010
1000
,
0001
0000
0100
0000
,
2000
0000
3001
0000
,
1001
0110
1000
0001
,
0100
1000
0001
0100
,
0010
0100
1000
0001
,
0100
0000
0010
0000
,
0100
0001
1000
0001
,
0100
0010
1000
0001
,
0100
0000
0010
0000
,
0001
0100
0010
0000
,
1001
0110
1000
0001
,
0100
0010
0001
1000
,
0001
0010
0100
0010
,
0100
0000
2000
0000
,
3002
0000
0103
0000
,
0010
1000
0001
0000
,
0100
0000
0010
0000
,
1000
0001
0100
0010
,
0100
0001
1000
0001
,
0100
0010
0100
1000
,
0002
0000
1003
0000
,
0010
0100
1000
0000
,
0001
1000
0001
0000
,
0100
0000
0010
0000
,
0010
0100
1000
0000
,
0001
0000
0000
1001
0000
0000
0000
0000
;

//--------------- dance-single - ----------------
#NOTES:
     dance-single:
     :
     Medium:
     8:
     0,0,0,0,0:
0000
0000
0000
0000
,
0000
0000
0000
0000
,
0000
0000
0000
0000
,
0000
0000
0000
0000
,
0000
0000
0000
0000
,
0001
0100
0010
0100
,
1000
0001
0100
0000
1000
0001
0200
0000
,
0310
0000
1001
0000
1000
0100
0000
0001
,
0100
0000
0001
1000
0000
0100
0010
0000
,
0100
0001
0010
0100
0000
1000
0000
0000
,
0010
0001
0100
0010
0000
0001
0000
0000
,
1000
0010
0100
0001
,
0010
1000
0100
0000
0010
0001
0100
0000
,
1000
0001
0010
0001
,
0100
0010
1000
0100
,
0010
0100
0010
0100
,
1000
0000
0001
0100
1000
0000
0001
1000
,
0010
0001
0100
0010
,
1000
0001
0100
0001
,
0100
0010
0100
0010
,
1000
0000
0100
0000
1000
0000
0100
1000
,
0010
0000
0001
0000
1000
0001
0100
0000
,
1000
0000
0100
0000
0010
1000
0001
0000
,
0010
0100
0010
0100
,
0020
0100
2030
3001
,
0100
0010
0100
0001
,
0100
0010
1000
0100
,
1000
0001
0010
0000
1000
0001
0010
0000
,
0200
0010
1300
0000
,
1001
0000
0110
0000
0010
0001
0100
1000
,
0010
0000
0100
0001
1000
0000
0010
0000
,
1000
0000
0100
1000
0010
0000
0001
0000
,
1000
0000
0100
1000
0010
0000
0001
0000
,
2000
3001
1000
0010
,
0100
1000
0001
0000
0010
0000
0100
0000
,
0010
0100
0001
0000
0010
0000
0001
0000
,
2000
0001
3100
0010
,
1001
0000
0110
0000
0010
1000
0001
0100
,
1000
0000
0001
0100
1000
0000
0100
0001
,
0010
0100
0010
1001
,
0002
0100
1003
0100
,
0010
0000
0001
0010
1000
0000
0001
0000
,
0010
1000
0001
0000
0010
0000
0100
0000
,
0002
0100
1000
0013
,
0100
0001
1000
0001
,
0010
0001
1000
0010
,
0002
0100
1000
0013
,
0200
0010
1300
0000
,
0100
0000
0001
0000
1000
0001
0010
0000
,
1000
0000
0001
0000
1000
0100
0001
0000
,
0010
0000
0001
0000
0010
1000
0100
0000
,
0010
0001
0100
0010
,
0100
0000
0001
1000
0100
0000
0010
0000
,
1000
0000
0001
0000
1000
0010
0001
0000
,
0100
0000
0001
0000
0010
0000
0100
0001
,
1000
0100
0010
0100
,
0010
0001
0010
0100
,
1000
0000
0100
0000
0010
0000
0001
1000
,
0100
0010
0100
0010
,
2000
0001
3020
0100
,
1030
0010
0100
0001
,
1000
0100
1000
0010
,
0100
1000
0010
0000
1000
0001
0010
0000
,
0200
0001
0310
0000
,
0110
0000
1001
0000
1000
0001
0100
1000
,
0010
0000
0001
1000
0010
0000
0100
0000
,
1000
0000
0100
0001
1000
0000
0100
0000
,
0010
1000
0001
0000
0010
0000
0100
0010
,
1000
0001
1000
0010
,
0100
0000
0001
0000
0010
1000
0100
0000
,
0010
0000
0100
0000
1000
0001
0100
0000
,
1000
0010
0100
0001
,
0110
0000
0101
0000
1000
0100
0001
1000
,
0010
0000
0001
0000
0100
0000
0010
1000
,
0100
0001
1000
0100
,
1000
0001
0100
0000
0010
1000
0001
0000
,
2000
3010
1000
0100
,
0010
0000
0100
0000
1000
0000
0010
0001
,
2000
0100
0010
3100
,
1000
0000
0100
0000
0010
0000
0001
0010
,
0100
0000
0001
0000
0010
0000
0100
1000
,
0020
0001
0001
0031
,
2000
0001
3100
0001
,
0010
0001
0100
0010
0000
1000
0000
0000
,
0010
1000
0001
0010
0000
0100
0000
0000
,
0100
0010
1000
0010
,
1000
0100
0010
0100
,
0100
0000
0000
1001
0000
0000
0000
0000
;

//--------------- dance-single - ----------------
#NOTES:
     dance-single:
     :
     Hard:
     13:
     0,0,0,0,0:
0000
0000
0000
0000
,
0000
0000
0000
0000
,
0000
0000
0000
0000
,
0000
0000
0000
0000
,
0000
0000
0000
0000
,
0001
0000
0100
0000
1000
0001
0000
0100
,
0010
0000
0100
1000
0000
0001
0200
0000
,
0310
0000
1001
0000
0001
0100
0000
1000
,
0001
0000
0100
0010
0000
0100
2000
0000
,
3001
0100
0020
0130
,
2000
0000
3001
0000
0100
1000
0001
0000
,
0200
0310
0100
1000
,
0001
0100
0010
0100
2000
0000
0000
0000
,
3001
0000
0100
1000
0000
0000
0010
0000
0000
0100
0000
0000
,
0001
0000
1000
0001
0000
0000
0100
0000
0000
0010
0000
0000
,
0001
0000
1000
0010
0000
0000
0010
0000
0000
0100
0000
0000
,
1000
0000
0000
0000
0001
0000
0100
0000
0000
0000
0000
0000
1000
0000
0000
0100
0000
0000
0010
0000
0000
0000
0000
0000
,
0100
0000
0010
0100
0000
0001
1000
0000
0000
0100
0000
0000
,
0001
0000
0100
1000
0000
0000
0001
0000
0000
0100
0000
0000
,
1000
0000
0001
0100
0000
0000
0010
0000
0000
0100
0000
0000
,
1000
0001
0100
0000
1000
0000
0001
0000
,
0100
0010
0100
1000
,
0001
0100
0010
0000
0100
0001
1000
0000
,
0001
0000
0100
0000
0010
1000
0001
0000
,
0200
0000
1300
0000
,
0001
0000
0100
0010
0000
0000
1000
0000
0001
0100
0000
0000
,
0010
0000
0100
1000
0000
0000
0001
0000
0100
0010
0000
0000
,
1000
0001
0100
0010
,
2000
0001
3100
0000
0200
0000
0300
0000
,
1001
0000
0110
0000
1000
0001
0000
0100
,
0010
0000
1000
0001
0000
0100
1000
0001
,
0100
1000
0001
0100
,
0010
0000
0100
1000
0001
0000
0100
0000
,
1000
0001
0100
0000
0010
0000
0001
0000
,
1000
0001
0100
0000
0010
0000
0100
0000
,
0001
1000
0001
0000
0100
0000
0010
1000
,
0001
0000
0000
0100
0000
0000
0010
0000
1000
0000
0001
0000
0100
0000
0001
0000
,
1000
0000
1001
0000
0100
0010
0000
1000
,
0010
1000
0001
0010
0000
0100
1000
0001
,
0100
0010
0100
1000
,
0002
0000
0203
0000
,
0301
0000
0010
1000
0100
0000
0001
0000
,
0010
0000
0100
0001
1000
0000
0001
0100
,
2002
0000
0003
0000
0000
3001
0000
0100
,
1000
0100
0001
1000
0100
0001
0010
1000
,
0100
1000
0001
0100
0010
0100
0010
0001
,
2000
0000
0010
0000
3000
0100
0001
0020
,
1000
0100
1030
1001
,
0110
0000
1000
0000
0001
0100
1000
0000
,
0001
0000
0100
0010
0000
0100
1000
0001
,
0100
0000
0010
0100
1000
0001
0010
0100
,
1000
0000
0001
0000
0100
0001
0010
0000
,
0100
1000
0001
0000
0100
0000
0010
0100
,
0001
1000
0001
0000
0100
0001
0010
0000
,
0100
1000
0001
0000
0010
0100
1000
0010
,
0001
0000
0000
1000
0000
0000
0010
0000
0001
0000
0010
0000
0100
0000
1000
0000
,
0010
0000
0100
1000
0010
0000
0001
0000
,
1000
0010
0100
0000
0010
1000
0001
0000
,
1000
0000
0010
1000
0100
0001
1000
0000
,
0020
0000
0031
0100
,
1000
0000
0010
0100
0000
0000
0001
0000
1000
0010
0000
0000
,
0100
0000
0010
0001
0000
0000
1000
0000
0010
0100
0000
0000
,
0001
1000
0010
0100
,
0002
1000
0013
0000
0020
0000
0030
0000
,
1001
0000
0110
0000
0001
1000
0000
0010
,
0100
0000
0001
1000
0000
0010
0001
1000
,
0010
0001
1000
0010
,
0100
0000
0010
0001
1000
0000
0010
0000
,
0001
1000
0010
0000
0100
0000
1000
0000
,
0001
1000
0010
0000
0100
0000
0010
0000
,
1000
0001
1000
0000
0010
0000
0100
0001
,
1000
0000
0000
0010
0000
0000
0100
0000
0001
0000
1000
0000
0010
0000
1000
0000
,
0001
0000
1001
0000
0010
0100
0000
0001
,
0100
0001
1000
0100
0000
0010
0001
1000
,
0010
0100
0010
0001
,
2000
0000
3020
0000
,
1030
0000
0100
0001
0010
0000
1000
0000
,
0100
0000
0010
1000
0001
0000
1000
0010
,
2002
0000
3000
0000
0000
1003
0000
0010
,
0001
0010
1000
0001
0010
1000
0100
0001
,
0010
0001
1000
0010
0100
0010
0100
1000
,
0002
0000
0100
0000
0003
0010
1000
0200
,
0001
0010
0301
1001
,
0100
1000
0001
0010
0000
1000
0000
0000
,
0001
0100
1000
0001
0000
0100
0000
0000
,
1000
0001
0100
0010
0100
0000
1000
0000
,
0001
0000
0000
1000
0000
0000
0010
0000
0001
0000
0000
0000
0010
0000
0000
0000
,
1001
0000
0000
2002
0000
0000
0000
0000
,
0000
0000
3003
0000
;
