#TITLE:PLUSバトン ~PLUSの未来~;
#ARTIST:Ponchi♪ feat. オミコシスターズ;
#TITLETRANSLIT:PLUS Baton ~PLUS no Mirai~;
#ARTISTTRANSLIT:Ponchi♪ feat. Omiko Sisters;
#GENRE:ナムコオリジナル;
#MUSIC:PLUS Baton -PLUS no Mirai-.ogg;
#BANNER:PLUS Baton -PLUS no Mirai-.png;
#BACKGROUND:PLUS Baton -PLUS no Mirai--bg.png;
#CDTITLE:./CDTitles/NSD A3.png;
#SAMPLESTART:51.640;
#SAMPLELENGTH:15;
#SELECTABLE:YES;
#OFFSET:0.000;
#BPMS:0.000=187.598;
#STOPS:;
#BGCHANGES:;
#FGCHANGES:;

//--------------- dance-single - ----------------
#NOTES:
     dance-single:
     :
     Beginner:
     4:
     0,0,0,0,0:
0000
0000
0000
0000
,
0000
0000
0000
0000
,
0000
0000
0000
0000
,
0000
0000
0000
0000
,
0000
0000
0000
0000
,
0000
0000
0000
0000
,
0000
0000
0000
0000
0000
0000
0000
1001
,
0000
0000
0100
0000
,
1000
0000
0000
0000
0001
0000
0000
1001
,
0000
0000
0001
0000
,
0100
0000
1000
0000
,
1001
0000
0100
0000
,
0010
0000
1000
0000
,
1001
0000
0000
0110
0000
0000
1001
0000
,
0000
2002
0000
3003
,
0001
0100
0010
0000
,
0010
0100
0001
0000
,
0001
0010
1000
0000
,
0100
1000
0010
0000
,
0010
1000
0001
0000
,
0001
0010
0100
0000
,
1000
0000
0000
0001
0000
0000
0000
0000
,
1001
0000
0000
0110
0000
0000
0000
0000
,
0001
1000
0001
0000
,
0100
0010
0100
0000
,
0001
0100
0010
0000
,
0010
0100
0001
0000
,
0001
1000
0001
0000
,
1000
0000
0000
0001
0000
0000
1000
0000
,
0001
0000
0000
0010
0000
0000
0000
2002
,
0000
0000
0000
3003
,
1000
0000
0001
0000
,
0001
0000
0100
0000
,
1000
0000
0000
0000
0001
0000
1000
0001
,
0000
0000
2000
0000
0000
0000
3000
0001
,
0000
0100
0000
0100
,
0000
0001
0000
0001
,
0010
0001
1000
0100
,
0010
0001
0010
0001
,
1000
0000
0000
0000
0000
0000
0000
0001
,
0000
0010
0100
0000
0000
0000
0000
0000
,
1001
0001
0010
0000
,
0010
0001
1000
0000
,
0010
0100
0010
0000
,
1000
0001
0010
0000
,
0100
0010
0100
0000
,
0100
0001
1000
0000
,
1000
0000
0001
0000
1000
0000
0000
0010
,
0000
0001
0000
0001
0000
0000
0000
0000
,
0010
0100
1000
0000
,
0010
0001
0010
0000
,
1000
0010
0100
0000
,
0100
0001
0100
0000
,
1000
0000
0000
0001
0000
0000
0000
0000
,
0100
0000
0000
1000
0000
0000
0000
0000
,
0001
0000
0000
0100
0000
0000
0001
1000
,
0000
0001
1000
0001
,
0100
0000
0000
1000
0000
0001
0000
0000
,
0100
0000
0000
0010
0000
0000
0100
0000
,
1000
0000
0000
0001
0000
0000
1000
0000
,
0001
0000
0000
0100
0000
0000
0000
0000
,
0001
0100
0010
0000
,
0001
1000
0100
0000
,
0100
0010
0100
0000
,
1001
0000
0000
0110
0000
0000
0000
2002
,
0000
0000
0000
0000
0000
0000
3003
2000
,
0000
0000
0000
0000
0000
0000
3000
0002
,
0000
0000
0000
0000
0000
0000
0003
2000
,
0000
0000
0000
0000
0000
0000
3000
0001
,
0000
0010
1000
0001
,
0000
0001
1000
0010
,
0000
0001
1000
0100
,
0010
0100
1000
0100
,
1000
0000
0010
0000
0100
0000
0010
2002
,
0000
0000
0000
3003
,
0000
0000
0000
0000
,
0000
0000
0000
0000
,
0000
0000
0000
0000
,
0000
0000
0000
0000
,
1001
0000
0000
0000
0000
0000
0000
1001
,
0000
0001
1000
0000
0001
0000
0100
0000
,
0000
0000
0000
2000
0000
0000
0000
3001
,
0000
0001
0100
2002
0000
0000
0000
0000
,
3003
1001
0010
1000
,
0000
0100
0001
0010
,
0000
0010
0100
1000
,
0000
0010
0001
0010
,
0000
0010
0100
1000
,
0000
0001
0010
1000
,
0000
1000
0100
1000
,
0001
0010
0100
1000
,
0001
0000
0000
1000
0000
0000
0001
0000
,
0010
0000
0000
1000
0000
0000
0001
0000
,
0100
0000
0000
1000
0000
0000
0001
0000
,
0100
1000
0001
0100
,
1001
0100
0010
0000
,
0010
0100
1000
0000
,
0100
0010
0100
0000
,
2002
0000
0000
3003
,
1000
0000
0000
0001
0000
0000
0010
0000
,
0000
1000
0000
0000
0001
0000
1000
0000
,
0001
0000
0000
0000
,
0000
0000
0000
0000
,
1001
0000
0000
0010
0000
0000
1000
0000
,
0001
0000
0000
1000
0000
0010
0000
0002
,
0000
0000
0000
0000
,
1003
0000
0000
0100
0000
0001
0000
2002
,
0000
0000
0000
0000
,
0000
0000
0000
0000
,
3003
0000
0000
0000
;

//--------------- dance-single - ----------------
#NOTES:
     dance-single:
     :
     Easy:
     7:
     0,0,0,0,0:
0000
0000
0000
0000
,
0000
0000
0000
0000
,
0000
0000
0000
0000
,
0000
0000
0000
0000
,
0000
0000
0000
0000
,
0000
0000
0000
0000
,
0000
0000
0000
0000
0000
0000
0000
1001
,
0000
0000
0100
0000
,
1000
0000
0000
0000
0001
0000
0000
1001
,
0000
0000
0001
0000
,
0100
0000
1000
0000
,
1001
0000
0100
0000
,
0010
0000
1000
0000
,
1001
0000
0000
0110
0000
0000
1001
0000
,
0000
2002
0000
3003
,
0001
0100
0010
0100
,
0010
0100
0001
1000
,
0001
0010
0100
0010
,
0100
1000
0010
0100
,
0010
1000
0001
1000
,
0001
0010
0100
0010
,
1000
0000
0000
0001
0000
0000
0000
0000
,
1001
0000
0000
0110
0000
0000
0000
0000
,
0001
1000
0001
0010
,
0100
0010
0100
1000
,
0001
0100
0010
0100
,
0010
0100
0001
1000
,
0001
1000
0001
0010
,
1000
0000
0000
0001
0000
0000
1000
0000
,
0011
0000
0000
0110
0000
0000
0000
2002
,
0000
0000
0000
3003
,
1000
0000
0001
1000
,
0001
0000
0100
0000
,
1000
0000
0000
0000
0001
0000
1000
0001
,
0000
0000
2200
0000
0000
0000
3300
0001
,
0000
0100
1000
0100
,
1000
0001
0010
0001
,
0010
0001
1000
0100
,
0010
0001
0010
0001
,
2000
0000
0000
0000
0000
0000
3000
0001
,
0000
0010
0100
0000
0000
0000
0000
0000
,
1001
0001
0010
0001
,
0010
0001
1000
0100
,
0010
0100
0010
0001
,
1000
0001
0010
0001
,
0100
0010
0100
0001
,
0100
0001
1000
0100
,
1000
0001
1000
0001
,
0010
0001
0010
0100
,
0010
0100
1000
0100
,
0010
0001
0010
0001
,
1000
0010
0100
0001
,
0100
0001
0100
0010
,
1000
0000
0000
0001
0000
0000
0000
0000
,
0100
0000
0000
1000
0000
0000
0000
0000
,
0001
0000
0000
0100
0000
0000
0001
1000
,
0000
0001
1000
0001
,
0100
0000
0000
1000
0000
0001
0000
0000
,
0100
0000
0000
0010
0000
0000
0100
0000
,
1000
0000
0000
0001
0000
0000
1000
0000
,
0001
0000
0000
0100
0000
0000
0000
0000
,
0001
0100
0010
1000
,
0001
1000
0100
0010
,
0100
0010
0100
1000
,
1001
0000
0000
0110
0000
0000
0000
2002
,
0000
0000
0000
0000
0000
0000
3003
2200
,
0000
0000
0000
0000
0000
0000
3300
0022
,
0000
0000
0000
0000
0000
0000
0033
2200
,
0000
0000
0000
0000
0000
0000
3300
0001
,
0000
0010
1000
0001
,
1000
0001
1000
0010
,
0100
0001
1000
0100
,
0010
0100
1000
0100
,
1000
0000
0010
0000
0100
0000
0010
2002
,
0000
0000
0000
3003
,
1000
0000
0000
0000
,
0000
0000
0000
0000
,
0001
0000
0000
0000
,
0000
0000
0000
0000
,
1001
0000
0000
0000
0000
0000
0000
1001
,
0000
0001
1000
0000
0001
0010
0100
0000
,
0000
0000
0000
2000
0000
0000
0000
3001
,
0000
0001
0100
2002
0000
0000
0000
0000
,
3003
1001
0010
1000
,
0010
0100
0001
0010
,
0001
0010
0100
1000
,
0001
0010
0001
0010
,
0100
0010
0100
1000
,
0010
0100
0010
1000
,
0100
1000
0100
1000
,
0001
0010
0100
1000
,
0001
0000
0000
1000
0000
0000
0001
0000
,
0010
0000
0000
1000
0000
0000
0001
0000
,
0100
0000
0000
1000
0000
0000
0001
0000
,
0100
1000
0001
0100
,
1001
0100
0010
0100
,
0010
0100
1000
0010
,
0100
0010
0100
0001
,
2002
0000
0000
3003
,
1000
0000
0000
0001
0000
0000
0010
0000
,
0000
1000
0000
0000
0001
0000
1000
0000
,
0001
0000
0000
0000
,
0000
0000
0000
0000
,
1001
0000
0000
0010
0000
0000
1000
0000
,
0001
0000
0000
1000
0000
0010
0000
0002
,
0000
0000
0000
0000
,
1003
0000
0000
0100
0000
0001
0000
2002
,
0000
0000
0000
0000
,
0000
0000
0000
0000
,
3003
0000
0000
0000
;

//--------------- dance-single - ----------------
#NOTES:
     dance-single:
     :
     Medium:
     8:
     0,0,0,0,0:
0000
0000
0000
0000
,
0000
0000
0000
0000
,
0000
0000
0000
0000
,
0000
0000
0000
0000
,
0000
0000
0000
0000
,
0000
0000
0000
0000
,
0000
0000
0000
0000
0000
0000
0000
1001
,
0000
0001
0100
0001
,
1000
0000
0001
0000
1000
0000
0010
1001
,
0000
0100
0001
0000
1000
0000
0100
0010
,
0001
0000
1000
0000
0010
0000
0001
1001
,
0000
0100
0010
0000
0001
0000
0100
0000
,
0001
0000
1000
0000
0001
0000
0001
0100
,
1001
0000
0000
0110
0000
0000
1001
0000
,
0000
0000
2002
0000
0000
3003
0000
0000
,
0001
0100
0001
1000
,
0100
0000
0010
1000
0001
0000
0010
0000
,
0100
1000
0001
0010
,
0100
0001
1000
0000
0010
0000
1000
0000
,
0010
0001
1000
0000
0001
0000
0010
0000
,
0001
1000
0100
0000
0001
0000
0100
0000
,
0010
0001
1000
0000
0010
1000
0100
0000
,
0010
1000
0100
1000
,
1001
0100
1000
0001
,
1000
0000
0100
0000
1000
0001
0100
0000
,
0010
0000
0001
0000
0100
0000
0001
1000
,
0010
0000
0001
0000
0100
1000
0010
0000
,
0100
0010
0100
0001
,
0010
0100
0010
0001
,
0100
1000
0001
0000
1000
0001
0010
0000
,
1000
0001
1000
0100
,
0001
0000
1000
0000
,
0010
0000
0100
0000
,
1000
0000
0001
0000
,
0010
0000
0000
0000
1000
0000
0000
1001
,
0000
0001
0100
0001
,
1000
0000
0001
0000
1000
0000
0010
1000
,
0001
0000
1000
0001
1000
0000
0001
1000
,
0001
0000
1000
0001
1000
0000
0001
1000
,
0002
0000
0000
0000
2003
0000
0000
3001
,
0000
0100
0010
1000
0000
0000
0000
0000
,
0001
0100
0001
0010
,
0100
1000
0001
0010
,
0100
0000
1000
0001
0100
0000
1000
0000
,
0010
0000
0100
0000
0001
1000
0100
0000
,
0001
0010
0100
0010
,
0100
0000
0010
0000
0001
0000
0100
1000
,
0010
1000
0001
1000
,
0010
0001
1000
0000
0100
0000
0010
0000
,
0110
0000
1000
0000
0100
0001
0010
0000
,
0001
1000
0010
0100
,
0010
1000
0100
0000
0001
0010
1000
0000
,
0010
0001
0100
0000
0001
0000
1000
0000
,
0100
1000
0001
1000
,
0100
0000
0010
1000
0001
0000
1000
0000
,
0010
0000
1000
0000
0001
1000
0100
0000
,
0001
0100
0001
0010
,
0100
0000
1000
0000
0100
0001
1000
0000
,
0100
0010
0001
0010
,
0001
0010
1000
0000
0001
0000
1000
0000
,
0010
0000
1000
0100
0010
0000
0100
0000
,
0001
0010
0001
1000
,
0010
1000
0010
0100
,
0001
1000
0010
0000
0001
0100
1000
0000
,
0100
0000
0001
1000
0000
0001
1000
2001
,
0000
0000
0000
0001
0000
0000
0000
3002
,
0000
0000
0000
1000
0000
0000
0000
2003
,
0000
0000
0000
0010
0000
0000
0000
3200
,
0000
0000
0300
0001
0000
0100
0000
1000
,
0000
0001
1000
0010
,
0100
0001
0010
0001
,
1000
0010
0100
0001
,
0010
0100
1000
0100
,
1000
0100
0001
1000
0010
0001
0100
2002
,
0000
0000
0000
3003
,
1000
0000
0000
0000
,
0001
0000
0000
0000
,
0010
0000
0000
0000
,
1000
0000
0000
0000
,
1001
0000
0000
0000
0110
0000
0000
1001
,
0000
0001
1000
0001
,
0200
0000
0000
0000
0000
0000
0000
0310
,
0000
1000
0100
2002
0000
0000
0000
0000
,
3003
0010
0100
0001
,
1000
0100
1000
0010
,
1000
0001
0100
0001
,
0010
0001
0010
0100
,
0010
0001
1000
0001
,
0100
0001
1000
0100
,
0010
0100
0010
0001
,
0100
0010
0100
0001
,
1000
0000
0010
0000
1000
0001
0010
0000
,
1000
0000
0100
0000
0010
1000
0001
0000
,
0010
0000
0100
0000
0010
1000
0001
0000
,
0100
0010
1000
0010
,
1000
0100
0001
0000
1000
0000
0100
0000
,
0010
1000
0100
0000
0010
0000
0100
0000
,
1000
0100
0001
0000
0100
0001
0010
0000
,
1010
0001
0100
0001
,
0110
0000
0000
1001
0000
0000
0101
0000
,
0000
1001
0000
0000
0100
0000
0001
0000
,
2002
0000
0000
0000
,
0000
0000
0000
3003
,
0100
0010
0100
0010
,
1000
0000
0100
0001
0000
0100
0010
0002
,
0000
0000
1003
0100
,
0010
0000
0001
1000
0000
0001
0010
2002
,
0000
0000
0000
0000
,
0000
0000
0000
0000
,
3003
0000
0000
0000
;

//--------------- dance-single - ----------------
#NOTES:
     dance-single:
     :
     Hard:
     15:
     0,0,0,0,0:
0000
0000
0000
0000
,
0000
0000
0000
0000
,
0000
0000
0000
0000
,
0000
0000
0000
0000
,
0000
0000
0000
0000
,
0000
0000
0000
0000
,
0000
0000
0000
0000
0000
0000
0000
1001
,
0000
0001
0100
0001
,
1000
0000
0001
0000
1000
0001
0010
1001
,
0000
0100
0001
0000
1000
0000
0100
0010
,
0001
0000
1000
0000
0010
1000
0001
0000
,
1001
0000
0100
0000
0010
0000
0001
0100
,
0000
1000
0001
0000
1000
0000
0001
1000
,
1001
0000
0000
0110
0000
0000
1001
0000
,
0000
2002
0000
3003
,
0001
0010
0001
1000
,
0010
0100
0001
0100
,
0010
0100
0010
1000
,
0001
1000
0001
1000
,
0010
0100
0010
0100
,
0010
1000
0001
0010
,
1000
0001
0100
1000
,
0001
0100
1000
0000
0001
0000
0010
0000
,
1001
0000
0010
0000
1000
0000
0001
0100
,
1000
0001
0010
0100
,
1000
0000
0001
0100
0000
1000
0002
0000
,
0000
0000
1003
0010
1000
0001
0100
0010
,
0001
0000
1000
0001
0000
0001
1000
0000
,
0001
0000
0010
1000
0001
0000
0100
0000
,
1000
0000
0001
0100
0000
0001
1000
0002
,
0100
0100
0100
0103
,
1000
0000
0001
0100
1000
0001
0000
1000
,
0100
0001
0100
1000
0001
0000
1000
0100
,
0001
0000
0100
1000
0010
0001
1000
0001
,
0000
0100
0001
0000
2000
0000
0001
3001
,
0000
0010
0100
0000
1000
0000
0100
0000
,
0010
0001
0100
0001
,
0001
1000
0001
0100
0001
0100
0010
0100
,
0010
1000
0010
0100
0001
1000
0001
0100
,
0000
0000
0000
0000
2000
0000
0000
3001
,
0000
0010
0100
0000
0000
0000
0000
0000
,
0100
0010
0001
1000
0001
0010
0100
0010
,
0100
0010
0001
1000
0100
1000
0010
0100
,
0001
0010
0100
1000
0100
1000
0001
0100
,
0010
0100
0001
0010
0100
1000
0010
0100
,
0001
1000
0010
1000
0100
0010
0001
1000
,
0100
1000
0100
0010
0100
0010
0001
0100
,
0010
0100
0010
0100
0001
1000
0010
0100
,
0001
1000
0001
0010
0100
0010
0001
0010
,
0001
1000
0010
0100
0001
0010
0100
0010
,
0001
0100
0001
1000
0010
0100
0001
0010
,
0100
1000
0001
0010
0100
0010
0001
0100
,
0001
0010
0001
0100
0010
1000
0100
0010
,
0001
0010
0100
1000
0100
0010
0100
1000
,
0010
0100
0001
0100
0001
1000
0100
1000
,
0001
0100
0010
1000
0100
1000
0100
1000
,
0001
0010
0100
0010
0100
1000
0001
1000
,
0010
0100
0001
0010
0100
1000
0010
0100
,
0010
1000
0100
0010
0001
0010
0100
1000
,
0100
0010
0001
0100
0001
0100
0010
1000
,
0100
0010
0100
1000
0100
0010
0001
0100
,
0001
0100
0010
1000
0100
0010
0100
0010
,
0001
0100
0001
0010
0100
0010
0001
1000
,
0010
0100
0001
0010
0100
0010
0001
0010
,
1000
0000
0001
1000
0000
0001
1000
2002
,
0000
0000
0000
0000
0000
0000
3003
0020
,
0000
0000
0000
0000
0000
0000
0000
2030
,
0000
0000
0000
0000
0000
0000
0000
3002
,
0000
0000
2003
0000
0000
0000
0000
3001
,
0000
0000
0001
0100
0001
0100
0001
1000
,
0010
0100
0001
0010
0100
1000
0001
0100
,
0010
1000
0100
1000
0001
0010
0100
1000
,
0100
0010
0001
1000
0100
0010
0001
0100
,
0001
0010
0001
0010
0100
0010
0100
2002
,
0000
0000
0000
3003
,
1000
0000
0000
0000
,
0001
0000
0000
0000
,
0010
0000
0000
0000
,
0100
0000
0010
0000
,
1001
0000
0000
0000
0000
0000
0011
0011
,
0000
1000
0001
0100
0001
0010
1000
0000
,
0002
0000
0000
0000
0000
0000
0003
1001
,
0000
0001
1000
2002
0000
0000
0000
0000
,
3003
0000
0001
0100
0010
1000
0010
1000
,
0001
0100
0001
0100
0010
1000
0010
0100
,
0010
1000
0001
0100
0010
0100
0010
1000
,
0100
1000
0001
0010
0100
0010
0001
0010
,
0001
1000
0100
0010
0001
1000
0001
1000
,
0001
0010
0100
1000
0001
1000
0010
0100
,
0001
1000
0010
0100
0001
1000
0100
1000
,
0100
0010
0001
0100
0001
0010
0001
1000
,
0010
1000
0001
0010
0100
1000
0100
0010
,
0001
0010
0001
1000
0100
0010
0001
1000
,
0100
0010
0001
0010
0100
1000
0100
1000
,
0010
0100
0010
1000
0001
0100
0010
1000
,
0100
0010
0001
0100
0010
1000
0001
1000
,
0010
0100
0010
1000
0001
1000
0100
0010
,
0001
1000
0001
1000
0100
0010
0100
1000
,
0200
0000
0000
0301
,
0011
0000
0000
1100
0000
0000
0011
0000
,
0000
0110
0000
0000
0110
0000
0001
0200
,
0000
0000
0000
0000
,
0000
0000
0000
0000
0000
0300
0001
0000
,
0100
0010
0100
0010
0001
0010
0100
1000
,
0001
0000
1000
0001
0000
1000
0001
2002
,
0000
0000
0000
0000
0000
3003
1000
0001
,
1000
0000
0001
1000
0000
0001
0000
2002
,
0000
0000
0000
0000
,
0000
0000
0000
0000
,
3003
0000
0000
0000
;
