#TITLE:PAC THIS WORLD!!!;
#SUBTITLE:TVアニメ「パックワールド」;
#ARTIST:ヒャダイン;
#SUBTITLETRANSLIT:TV Anime「PAC-MAN and the Ghostly Adventures」;
#ARTISTTRANSLIT:Hyadain;
#GENRE:アニメ;
#MUSIC:PAC THIS WORLD!!!.ogg;
#BANNER:PAC THIS WORLD!!!.png;
#BACKGROUND:PAC THIS WORLD!!!-bg.png;
#CDTITLE:./CDTitles/beatmania ARCADE MON.png;
#SAMPLESTART:42.170;
#SAMPLELENGTH:15;
#SELECTABLE:YES;
#OFFSET:0.000;
#BPMS:0.000=180.000;
#STOPS:124.250=0.670
,302.250=0.670
;
#BGCHANGES:;
#FGCHANGES:;

//--------------- dance-single - ----------------
#NOTES:
     dance-single:
     :
     Beginner:
     3:
     0,0,0,0,0:
0000
0000
0000
0000
,
0000
0000
0000
0000
,
0001
0000
0000
0000
,
1000
0000
0000
0000
,
0010
0000
0100
0000
,
0010
0100
1000
0000
,
0001
0000
1000
0000
,
0010
0000
0000
0000
,
1000
0000
0000
0000
,
0001
0000
0000
0000
,
0010
0000
0100
0000
,
0010
0000
0000
0000
,
1000
0000
0000
0000
,
0001
0000
0000
0000
,
0010
0000
0100
0000
,
0010
0000
1000
0000
,
0001
0000
1000
0000
,
0001
0000
0010
0000
,
0100
0000
0000
0000
,
0001
0000
0000
0000
,
1000
0000
0000
0000
,
0001
0000
0000
0000
,
0010
0000
0100
0000
,
0001
0000
0000
0000
,
1000
0000
0000
0000
,
0001
0000
0000
0000
,
0010
0000
0100
0000
,
0010
0000
1000
0000
,
0001
0000
0010
0000
,
0100
0000
0001
0000
,
1000
0000
0001
0000
,
0100
0000
1000
0000
,
0001
0000
0010
0000
,
0100
0000
0001
0000
,
1000
0000
0001
1000
,
0001
0000
0010
0000
,
0100
0000
0010
0000
,
0001
0000
1000
0000
,
0001
0000
0100
0000
,
0010
0000
0001
0000
,
0000
0000
1000
0000
,
0000
0000
0010
0000
,
0100
0000
0010
0100
,
0010
0000
1000
0000
,
0001
0000
0010
0000
,
0100
0000
0001
0000
,
1000
0000
0001
0000
,
0100
0000
0010
0000
,
0100
0000
1000
0000
,
0001
0000
0010
0000
,
0100
0000
1000
0000
,
0001
0000
0010
0000
,
0100
0000
0001
0000
,
1000
0000
0001
0000
,
0100
0000
2000
0000
,
0000
3000
0001
0000
,
0010
0000
0100
0000
,
1000
0000
0001
0000
,
1000
0000
0002
0000
,
0000
0003
1000
0000
,
0000
0000
0100
0000
,
0000
0000
0010
0000
,
0000
0000
0001
0000
,
0000
0000
1000
0000
,
0000
0000
0001
0000
,
0000
0000
0010
0000
,
0000
0000
0100
0000
,
0000
0000
1000
0000
,
0001
0000
0010
0000
,
0100
0000
0001
0000
,
1000
0000
0010
0000
,
0100
0000
1000
0000
,
0001
0000
0010
0000
,
0100
0000
1000
0000
,
0001
0000
0100
0000
,
0010
0000
0000
0000
,
1000
0000
0001
0000
,
0100
0000
0010
0000
,
0100
0000
1000
0000
,
0001
0000
1000
0000
,
0001
0000
0010
0000
,
0100
0000
0010
0000
,
0100
0000
1000
0000
,
0001
0000
0010
0000
,
0100
0000
0000
0000
,
1000
0000
0000
0000
,
0001
0000
0000
0000
,
1000
0000
0001
0000
;

//--------------- dance-single - ----------------
#NOTES:
     dance-single:
     :
     Easy:
     5:
     0,0,0,0,0:
0000
0000
0000
0000
,
0000
0000
0000
0000
,
0001
1000
0001
0000
,
0100
0010
0100
0000
,
1000
0000
0001
0000
,
0010
0100
1000
0000
,
0002
0000
0000
0003
,
1000
0000
0000
0000
,
0001
0000
0010
0000
,
0100
0000
1000
0000
,
0001
1000
0001
0000
,
0100
0000
0000
0000
,
1000
0000
0001
0000
,
0100
0000
0010
0000
,
1000
0100
0010
0000
,
0001
1000
0001
0100
,
0010
0100
1000
0000
,
0001
1000
0001
0100
,
0010
0100
1000
0001
,
1000
0001
0100
0010
,
0100
1000
0001
0000
,
0100
0000
0010
0000
,
1000
0001
0100
0010
,
1000
0000
0001
0000
,
0010
0000
0100
0000
,
0010
0000
1000
0000
,
0001
0000
0100
0000
,
1000
0000
0001
0000
,
0100
0000
0010
0000
,
0001
0000
1000
0000
,
0001
0000
0100
0010
,
0000
0000
1000
0000
,
0001
0000
0100
0010
,
0100
1000
0001
0000
,
0100
0000
0010
0001
,
0010
0100
1000
0001
,
0100
0010
0100
1000
,
0001
0100
0010
1000
,
0001
0100
1000
1000
,
0001
1000
0100
0010
,
0100
0000
1000
0001
,
0100
0000
0010
0000
,
0100
0000
0001
0100
,
1001
0000
0100
0000
,
1000
0000
0001
0000
,
0010
0000
0100
0000
,
1000
0000
0001
1000
,
0010
0001
0100
0000
,
0010
0000
1000
0001
,
0100
0010
1000
0001
,
0100
0010
0100
0010
,
1000
0000
0001
1000
,
0001
0100
0010
0001
,
1000
0001
0100
0010
,
0001
1000
0001
0100
,
0010
0100
1000
0001
,
0100
0001
0010
0100
,
0001
0100
1000
0100
,
0010
0001
1000
0001
,
0100
0010
1000
0001
,
0100
0000
0001
0000
,
1000
0001
0100
0000
,
0010
0000
0100
1000
,
0001
0000
0100
0000
,
0010
0000
0001
0000
,
1000
0001
0100
0000
,
0010
0000
0100
1000
,
0001
0000
0010
0100
,
1000
0001
0100
0010
,
0100
0001
1000
0001
,
0100
0010
1000
0001
,
0100
0010
0001
1000
,
0001
0100
0010
0100
,
1000
0001
1000
0100
,
0010
1000
0001
0010
,
0100
1000
0000
0000
,
1000
0000
0001
0000
,
0100
0010
0100
1000
,
0001
0000
0100
0000
,
0010
0001
0010
0100
,
1000
0001
0100
0010
,
0100
1000
0001
0100
,
0010
1000
0001
0100
,
1000
1000
0001
1000
,
0100
0010
0100
0000
,
1000
0001
0100
0000
,
0010
0000
0100
0000
,
0001
0100
1001
0010
;

//--------------- dance-single - ----------------
#NOTES:
     dance-single:
     :
     Medium:
     7:
     0,0,0,0,0:
0000
0000
0000
0000
,
0000
0000
0000
0000
,
0010
1000
0001
0100
,
0010
1000
0001
0010
,
0001
0010
0100
0000
0010
0000
1000
0000
,
0001
1000
0100
0011
,
0100
0000
0100
0000
,
0010
1000
0001
1000
,
0001
0000
0100
0000
0010
0001
0100
0000
,
0001
0100
0010
1000
,
0010
0001
0100
0000
0001
1000
0100
0000
,
0001
0100
0010
1000
,
0010
0000
1000
0000
0100
0001
1000
0010
,
0100
0010
0100
0010
,
0001
1000
0010
0000
0100
0001
1000
0000
,
0100
0000
0010
0000
0100
0001
0010
0000
,
0001
0000
1000
0000
0001
0010
0100
0000
,
0010
0000
0100
0000
0001
0100
1000
0000
,
0001
0000
1000
0000
0001
1000
0010
0001
,
0100
1000
0010
1000
,
0100
1000
0010
0000
0100
0000
1000
0000
,
0100
0000
0010
1000
0001
0000
0100
0000
,
0001
0010
0100
0010
,
2000
0000
3001
0000
,
0020
0000
0130
0000
,
2000
0000
3001
0000
,
0200
0000
1300
0000
,
0002
0000
0103
0000
,
0020
0000
0031
0000
,
2000
0000
3001
0000
,
0200
0000
0310
0200
,
0300
0000
0001
0100
,
0001
0000
0010
0000
0001
1000
0100
0000
,
0010
0001
1000
0000
0010
0000
0100
0000
,
0001
0000
0010
0000
0100
0001
1000
0000
,
0010
0001
1000
0000
0010
0000
1000
0000
,
0001
0100
0010
0000
0001
0000
0100
0000
,
0001
0000
1000
0100
0010
0000
0100
0000
,
0010
1000
0100
0010
,
0001
1000
0010
1000
0001
0000
1000
0000
,
0100
1000
0010
0000
0001
0000
0010
0000
,
0001
1000
0010
0000
0100
0000
1000
0000
,
0100
0001
0010
0000
0100
0000
0110
0000
,
1001
0100
0001
0010
,
0001
0010
0100
1000
,
0010
0100
0001
0100
,
0001
0100
0010
1000
,
0001
0010
0100
1000
0010
0000
0100
0000
,
0010
0100
0001
0010
,
0100
0010
0001
1000
,
0010
0000
1000
0000
0100
0001
1000
0000
,
0010
0100
0010
1000
,
0001
0000
0100
0000
0010
0000
1000
0100
,
0010
0000
0100
0000
0010
0000
0100
0010
,
0001
0010
0100
1000
,
0100
0001
1000
0100
0010
0000
0110
0000
,
0001
1001
0010
0100
,
0001
0000
1000
0100
0001
0000
0010
0000
,
0001
0000
0010
0000
0100
1000
0010
0001
,
0100
1001
0100
1000
,
0010
1000
0100
0000
0001
0000
1000
0000
,
0100
0001
0010
1000
0100
0000
0010
0000
,
0001
0010
1000
0000
0010
0000
0100
0000
,
0010
0100
0010
1000
,
0100
1000
0100
0010
,
0100
0001
1000
0000
0001
0000
0100
0000
,
0001
0100
0001
0010
,
0100
0010
0100
1000
,
0010
0001
0100
0000
0001
0000
0010
0000
,
0100
0000
0010
0000
0001
1000
0010
0000
,
0001
0000
1000
0000
0001
0100
1000
0000
,
0010
1000
0001
0010
,
0100
1000
0010
0000
0001
0000
0010
0000
,
0100
0000
1000
0000
0001
1000
0100
0000
,
0010
0000
0100
0000
0001
0000
0010
1000
,
0001
1000
0000
0000
,
0010
0100
0010
0100
,
0001
1000
0010
1000
,
0100
0001
1000
0000
0001
0000
0100
0000
,
0001
1000
0101
1100
,
0010
0000
0100
0000
0010
0000
0100
1000
,
0001
0000
1000
0000
0100
0000
0010
1000
,
0001
0100
0010
0100
,
0001
0000
0100
0000
0001
1000
0010
0100
,
0001
0100
0010
1000
,
0001
1000
0100
1000
,
0001
0010
0001
0100
,
0010
1010
0010
1001
;

//--------------- dance-single - ----------------
#NOTES:
     dance-single:
     :
     Hard:
     13:
     0,0,0,0,0:
0000
0000
0000
0000
,
0000
0000
0000
0000
,
0010
1000
0100
0000
0001
1000
0001
0000
,
0100
0010
0100
0000
1000
0001
0100
0000
,
0100
0001
1000
0000
0001
1000
0100
0000
,
0110
1001
0110
0010
,
0100
0000
0011
0000
1000
0001
0100
0000
,
0010
0000
0110
0000
1000
0000
0000
0001
,
0000
0100
0000
0010
0100
0010
0100
1000
,
0001
0000
0110
0000
0010
0100
0000
1000
,
0000
0001
0100
0000
0110
0000
0101
0000
,
1000
0000
0001
0000
0100
0010
0000
1000
,
0000
0001
0000
0100
0010
0001
0010
0001
,
0010
0000
0110
0000
1000
0001
0000
0100
,
0000
0010
0000
0100
1000
0000
1001
0000
,
0100
0001
1000
0000
0001
0100
0010
0000
,
0100
0001
1000
0000
0001
0100
0010
0000
,
0001
0010
0100
0000
1000
0001
0100
0000
,
0010
0001
0100
0000
1000
0100
1000
0100
,
0010
1000
0100
0000
0001
0010
0100
0000
,
1000
0001
0100
0000
0010
0100
1000
0000
,
0001
1000
0100
0000
0010
0100
0001
0000
,
0100
1000
0010
0001
0100
0000
0010
0000
,
2000
0000
3001
0000
,
0020
0000
0130
0000
,
2000
0000
3001
0000
,
0200
0000
1300
0000
,
0002
0000
0103
0000
,
0020
0000
0031
0000
,
2000
0000
3001
0000
,
0200
0000
0310
0200
,
0300
0000
1000
0001
,
0100
0010
0100
1000
,
0001
0000
0100
0000
1000
0001
0100
0000
,
0010
0100
0010
0100
,
0100
0000
1000
0000
0000
0100
0000
1000
,
0100
0000
0010
0100
0000
1000
0000
0001
,
0000
0100
0010
0001
1000
0010
0000
0100
,
0001
1000
0001
0100
,
0010
0100
1000
0001
0010
0000
0010
0000
,
0100
1000
0010
0000
0100
0001
0100
0000
,
0001
0100
0001
0000
1000
0010
0001
0000
,
0100
1000
0001
0100
1000
0000
0010
0000
,
0110
1000
0001
0100
,
0010
0000
0100
0000
1000
0000
0001
0100
,
0010
0000
0001
0000
1000
0000
0001
1000
,
0100
0000
0010
0000
0100
0000
1000
0100
,
0001
1000
0100
0001
0010
0000
0100
0000
,
1000
0000
0001
0000
0100
0000
0010
0100
,
1000
0000
0001
0000
0100
0000
1000
0100
,
0001
0100
1000
0100
0010
1000
0001
0010
,
0100
1000
0001
0100
,
0010
0000
0100
0000
1000
0000
0001
0010
,
0100
0000
0010
0000
1000
0000
0001
0010
,
0100
0000
0010
0000
0001
1000
0010
0000
,
0001
0010
0001
0010
0001
0000
1000
0000
,
0100
0000
0010
0000
1000
0000
0001
0010
,
0100
0000
0010
0000
0100
0000
1000
0001
,
0100
1000
0010
0001
0100
1000
0001
0100
,
0010
0000
0100
0000
1000
0100
0001
0000
,
0100
0010
0000
0100
0001
1000
0000
0001
,
0100
0001
0010
0100
0001
0000
0100
0001
,
1000
0001
0000
0100
0001
1000
0000
0001
,
0100
1000
0010
0001
,
1000
0001
0000
0100
0000
0010
1000
0100
,
1000
0001
0100
0010
0100
0000
1000
0010
,
0001
0010
0000
0100
0000
1000
0010
0001
,
0100
0000
0001
0000
0100
0001
1000
0000
,
0001
0100
0010
0001
0100
0000
1000
0000
,
0001
0100
0010
1000
0001
0010
0100
0000
,
1000
0001
0100
0000
0010
0001
0100
0000
,
1000
0100
1000
0100
0010
0000
0100
1000
,
0001
0000
0100
0000
1000
0001
0100
1000
,
0010
0100
1000
0100
0001
0010
0100
0000
,
0010
0100
0001
0000
0100
1000
0000
0001
,
0100
0000
0000
0000
0010
0000
0000
0000
0200
0300
0000
0000
0000
0000
0000
0000
,
1000
0000
0001
0000
0100
0000
0010
0001
,
0100
0000
1000
0000
0001
0010
0100
0000
,
1000
0001
0100
0000
0010
0000
0100
1000
,
0010
0100
0100
1000
,
0001
0100
0001
1000
0100
0001
0010
0100
,
0000
1000
0000
0001
0000
0100
0010
0001
,
1000
0010
0000
0100
0001
0000
1000
0000
,
0011
0000
1100
0000
0010
0100
1000
0001
,
0010
0000
0010
0000
0100
1000
0010
0000
,
0100
0001
0100
0000
0001
0100
0001
0000
,
1000
0010
0001
0000
0100
1000
0001
0100
,
1000
0010
0100
1001
;
