#TITLE:PAC DRIVE;
#ARTIST:NAMCO Sound Team "Hiroshi Okubo";
#GENRE:ゲームミュージック;
#MUSIC:PAC DRIVE.ogg;
#BANNER:PAC DRIVE.png;
#BACKGROUND:PAC DRIVE-bg.png;
#CDTITLE:./CDTitles/PAC-MAN C.E. 2.png;
#SAMPLESTART:88.305;
#SAMPLELENGTH:15;
#SELECTABLE:YES;
#OFFSET:-0.008;
#BPMS:0.000=144.031;
#STOPS:;
#BGCHANGES:;
#FGCHANGES:;

//--------------- dance-single - ----------------
#NOTES:
     dance-single:
     :
     Beginner:
     4:
     0,0,0,0,0:
0000
0000
0000
0000
,
0000
0000
0000
0000
,
0000
0000
0000
0000
,
0001
0000
0000
1000
0000
0000
0000
0000
,
0001
0000
0000
0010
0000
0000
0000
0000
,
0100
0000
0000
0010
0000
0000
0000
0000
,
1000
0000
0000
0001
0000
0000
0000
0000
,
0010
0000
0000
0100
0000
0000
0000
0000
,
1000
0000
0000
0001
0000
0000
0000
0000
,
0010
0000
0000
0100
0000
0000
0000
0000
,
1000
0001
1000
0000
0010
0100
0010
0000
,
1000
0001
0100
0010
,
0100
1000
0001
0000
0100
0000
0010
0000
,
1000
0001
0100
0010
,
1000
0001
0100
0000
0010
0000
0100
0000
,
0010
0000
1000
0000
0001
0100
0010
0000
,
0100
0000
1000
0000
0001
0100
1000
0000
,
0001
0100
1000
0001
,
0100
0010
0100
0000
1000
0000
0001
0000
,
0100
0100
0100
0000
,
0010
0010
0010
0000
,
0001
0001
0001
0000
,
1000
1000
1000
0000
,
0010
1000
0010
0000
,
0001
0100
0001
0000
,
0010
0100
1000
0000
,
0001
1000
0001
1000
,
0000
0000
0000
0000
,
1001
0000
0100
0000
,
0010
0000
0100
1000
0001
0000
0000
0000
,
0010
0000
0100
0000
,
0001
0000
1000
0001
0100
0000
0000
0000
,
0010
0000
0100
0000
,
0001
0000
1000
0001
0100
0000
0000
0000
,
0001
0000
0100
0000
,
1000
0000
0001
1000
0100
0000
0000
0000
,
0010
0100
1000
0001
,
0100
0010
0100
0000
,
1000
0001
0100
0010
,
1000
0001
0100
0000
,
0010
0001
1000
0001
,
0100
0000
0010
0000
,
1000
0001
0100
0010
,
1000
0000
0001
0000
,
0010
0000
0100
0000
,
1000
0000
0001
0000
,
0010
0000
0100
0000
,
0010
0000
1000
0000
,
0001
0001
0001
0000
,
1000
1000
1000
0000
,
0001
0010
0100
1000
,
0002
0000
0000
0000
,
1003
0000
0000
0000
,
1001
0100
1000
0000
,
0001
1000
0001
0000
,
0010
0100
0010
0000
,
0100
1000
0001
0000
,
0010
0100
1000
0000
,
0001
1000
0001
0000
,
0010
0100
0010
0000
,
1000
0000
0001
0000
,
0100
1000
0001
0000
,
0100
0010
0100
0000
,
1000
0001
0100
0000
,
0001
1000
0001
0000
,
0010
0100
1000
0000
,
0001
1000
0001
0000
,
0010
0100
1000
0000
,
0001
1000
0001
0000
,
0010
0000
0100
0000
,
0010
0100
1000
0000
,
1001
0000
0000
0000
;

//--------------- dance-single - ----------------
#NOTES:
     dance-single:
     :
     Easy:
     9:
     0,0,0,0,0:
0000
0000
0000
0000
,
0000
0000
0000
0000
,
0000
0000
0000
0000
,
0001
0010
0001
0100
,
0001
0000
0100
0000
0010
0001
1000
0001
,
0100
1000
0001
0010
,
0001
0000
0010
0000
0001
0000
1000
0001
,
0100
1000
0001
0100
,
0010
0000
0100
0000
0010
0100
1000
0001
,
0100
0010
0100
1000
,
0010
1000
0100
0000
0010
0001
1000
0000
,
0101
0010
0001
0010
,
0100
1000
0100
0010
,
0001
1000
0100
1000
,
0100
0010
0001
1000
,
0010
1000
0001
0010
,
0100
1000
0001
0100
,
0010
0100
0001
0010
,
0100
0010
0100
1000
,
0100
0001
1000
0000
0010
0000
0100
0000
,
0010
0100
0001
1000
,
0010
0001
0100
0000
0001
0000
0100
0000
,
0001
1000
0100
1000
,
0100
1000
0010
0000
0100
0000
1000
0000
,
0001
1000
0010
0000
0001
0000
0100
0000
,
0001
1000
0100
0000
0010
0001
1000
0000
,
0001
1000
0100
0001
0010
0100
1000
0010
,
0002
0000
0000
0000
,
0013
0100
0010
1000
,
0100
0000
1000
0001
0010
1000
0100
0000
,
1001
0010
0100
1000
,
0100
0001
1000
0000
0100
0000
0010
0000
,
1001
0000
0010
0000
0001
0000
0010
0001
,
0100
0000
1000
0000
0100
0001
0010
0000
,
0001
0000
1000
0000
0100
0001
0010
0000
,
0100
0000
1000
1000
0010
0000
1000
0000
,
0110
0000
1000
0001
0100
0000
0010
0000
,
0101
1000
0001
0100
,
1010
0100
0001
1000
,
0011
0100
0001
0100
,
0110
0100
0010
1000
,
0101
0010
0100
0010
,
0101
1000
0001
0010
,
0101
1000
0010
1000
,
0001
0100
0010
1000
,
0001
0100
0001
0100
,
0010
0100
0010
1000
,
0100
1000
0100
0010
,
0100
1000
0010
0000
0001
1000
0010
0000
,
0001
0100
1000
0000
0010
0001
1000
0000
,
0010
1000
0100
0000
0001
0001
0100
0000
,
0001
0100
1000
0000
0010
0001
1000
0000
,
0200
0000
0000
0300
,
0110
0100
0010
1000
,
0001
0000
1000
0001
0100
0000
0010
0000
,
0100
1000
0010
1000
,
0100
0001
0010
0000
0100
0000
0010
0000
,
0001
0010
0001
1000
,
0001
1000
0100
0000
0010
0000
0100
0000
,
0010
1000
0010
0100
,
0001
0010
0100
0000
0001
0000
0010
0000
,
0100
1000
0010
0000
0001
0000
1000
0000
,
0100
0001
0010
0000
0001
0000
0100
0000
,
0001
1000
0100
0000
0001
0000
1000
0000
,
0100
1000
0010
0000
0100
0000
1000
0000
,
0010
0001
0100
0000
0010
0000
1000
0000
,
0100
1000
0010
0000
0001
0000
0100
0000
,
0010
0100
1000
0000
0001
0000
0010
0000
,
0001
1000
0010
0000
0100
0000
1000
0000
,
0010
0001
0100
0000
0001
1000
0100
0000
,
0010
0000
0001
0000
1000
0000
0100
0000
0001
0000
1000
0000
0001
0010
0100
0000
,
1001
0000
0000
0000
;

//--------------- dance-single - ----------------
#NOTES:
     dance-single:
     :
     Medium:
     12:
     0,0,0,0,0:
0000
0000
0000
0000
,
0000
0000
0000
0000
,
0000
0000
0000
0000
,
0010
1000
0100
0000
0001
0010
0100
0000
,
0010
1000
0100
0000
0001
0100
1000
0010
,
0001
1000
0010
0000
0100
0001
0010
0000
,
0100
0010
1000
0000
0001
0100
1000
0010
,
0100
1000
0010
0000
0100
0001
1000
0000
,
0100
0001
1000
0000
0010
1000
0100
0001
,
0010
0100
1000
0000
0100
1000
0010
0000
,
0001
1000
0100
0001
0010
1000
0200
0000
,
0302
0023
0230
0320
,
0130
0000
1000
0001
0100
0010
1000
0100
,
0001
1100
0101
0110
,
1001
0000
0010
0000
0100
0001
0010
1000
,
0002
2003
3200
0320
,
0130
0000
0010
1000
0001
0100
1000
0001
,
1010
0110
1001
0110
,
0011
0000
0100
1000
0010
0001
0100
0010
,
0002
0023
0032
0023
,
0032
0000
0103
1000
0010
0001
0100
1000
,
1001
0110
0101
1010
,
0101
0000
0100
1000
0001
0010
1000
0001
,
0200
0000
0320
0032
0203
0300
2000
3200
,
0320
0030
0200
0000
0320
0000
0130
0000
,
0110
1001
0101
1010
,
0001
1000
0010
1000
0001
0010
0100
1000
,
2002
0000
0000
3003
,
0001
1000
0010
1000
0001
0010
0100
1000
,
0001
0100
1000
0001
0010
0100
1000
0001
,
0010
1000
0100
0010
0001
0010
1000
0010
,
1000
0100
0010
0001
0100
0010
0100
0001
,
0100
0010
1000
0001
1000
0001
0010
0001
,
1000
0100
0010
0001
0100
0010
1000
0010
,
1000
0100
1000
0010
0100
0010
1000
0010
,
0100
0001
0100
0010
0100
0001
1000
0010
,
1001
0010
0100
0000
0001
1000
0100
0000
,
0010
0001
1000
0100
0010
0001
1000
0100
,
0001
0000
1000
0000
0010
0001
0100
1000
,
0010
0000
1000
0000
0100
0001
0010
1000
,
0001
0100
0010
0000
0100
0001
1000
0000
,
0010
0100
1000
0000
0001
1000
0010
1000
,
0001
0010
0100
1000
0010
0000
1000
0001
,
0010
1000
0100
0001
0010
0000
0100
0000
,
0001
1000
0010
0001
0001
0100
0010
0000
,
0001
0010
0100
1000
0010
0001
0100
0000
,
0010
1000
0100
0010
0001
0100
1000
0000
,
0100
0001
0010
1000
0100
0001
0010
0000
,
0100
1000
0100
1000
0100
0010
0001
0100
,
0001
1000
0010
0100
0001
0100
0001
0010
,
0001
0010
0100
0010
0001
1000
0010
0100
,
0001
1000
0100
0010
0100
0010
0100
1000
,
0010
0000
0000
0000
0100
0000
0000
0000
0010
0000
0000
0001
0000
0000
1000
0000
,
1001
0010
1000
0100
0010
0001
0100
1000
,
0001
0010
0100
1000
0001
0100
0010
0100
,
0001
0010
1000
0001
0100
1000
0010
0000
,
0001
0000
1000
0000
0100
0000
0010
0000
0001
0000
0000
1001
0000
0000
1000
0000
,
0001
0100
1000
0000
0100
0001
1000
0100
,
0001
0010
0100
1000
0010
0100
1000
0010
,
0001
1000
0010
0001
0100
1000
0010
0001
,
0100
0000
1000
0000
0010
0000
0000
0000
0001
0000
0000
1001
0000
0000
0110
0000
,
0010
0001
1000
0001
0100
0010
1000
0000
,
0011
0110
0110
1001
,
0100
1000
0010
0100
0001
1000
0100
0000
,
0101
1010
0101
1100
,
0001
1000
0100
0010
0001
0100
1000
0010
,
0110
1100
0101
1010
,
0001
0100
1000
0001
0100
0001
1000
0100
,
0001
1000
0100
0010
,
0001
1000
0100
0000
0001
1000
0100
0000
,
0010
0001
0100
1000
0010
0001
1000
0100
,
2002
0000
0000
0000
,
0000
0000
0000
0000
,
3003
0000
0000
0000
;

//--------------- dance-single - ----------------
#NOTES:
     dance-single:
     :
     Hard:
     17:
     0,0,0,0,0:
0000
0000
0000
0000
,
0000
0000
0000
0000
,
0000
0000
0000
0000
,
1000
0000
0100
0000
0010
0000
0001
0100
1000
0000
0001
0000
0010
0000
1000
0100
,
0000
0001
0100
0000
1000
0000
0001
0010
1000
0000
0001
0000
0100
0000
0020
0000
,
0031
0000
0010
0000
0100
0000
1000
0010
0001
0000
1000
0000
0100
0000
0001
0010
,
0000
1000
0010
0000
0001
0000
1000
0100
0001
0000
1000
0000
0010
0000
0200
0000
,
1300
0000
0100
0000
0010
0000
0001
0100
1000
0000
0001
0000
0010
0000
1000
0100
,
0000
0001
0100
0000
1000
0000
0001
0010
1000
0000
0001
0000
0100
0000
0020
0000
,
0031
0000
0010
0000
0100
0000
1000
0010
0001
0000
1000
0000
0100
0000
0001
0010
,
0000
1000
0010
0000
0001
0000
1000
0100
0001
0000
1000
0000
0020
0000
0000
0000
,
1030
0000
1100
0000
0000
0011
0000
0000
1001
0000
0000
1100
0000
0000
0011
0000
,
0000
1100
0000
0000
0010
0000
0100
0000
0001
0000
1000
0000
0000
0011
0000
1000
,
0001
0000
0011
0000
0000
1100
0000
0000
1001
0000
0000
0011
0000
0000
1100
0000
,
0000
0011
0000
0000
0100
0000
0010
0000
1000
0000
0001
0000
0000
1100
0000
0001
,
1000
0000
1100
0000
0000
0011
0000
0000
1001
0000
0000
1100
0000
0000
0011
0000
,
0000
1100
0000
0000
0010
0000
0100
0000
0001
0000
1000
0000
0000
0011
0000
1000
,
0001
0000
0011
0000
0000
1100
0000
0000
1001
0000
0000
0011
0000
0000
1100
0000
,
0000
0011
0000
0000
0100
0000
0010
0000
1000
0000
0001
0000
0000
1100
0000
0001
,
1000
0000
1100
0000
0000
0011
0000
0000
1001
0000
0000
1100
0000
0000
0011
0000
,
0000
1100
0000
0000
0010
0000
0100
0000
0001
0000
1000
0000
0000
0011
0000
1000
,
0001
0000
0011
0000
0000
1100
0000
0000
1001
0000
0000
0011
0000
0000
1100
0000
,
0000
0011
0000
0000
0100
0000
0010
0000
1000
0000
0001
0000
0000
1100
0000
0001
,
1000
0000
1100
0000
0000
0011
0000
0000
1001
0000
0000
1100
0000
0000
0011
0000
,
0000
1100
0000
0000
0010
0000
0100
0000
0001
0000
1000
0000
0000
0011
0000
1000
,
0001
0000
0011
0000
0000
1100
0000
0000
1001
0000
0000
0011
0000
0000
1100
0000
,
0000
0011
0000
0000
0100
0000
0010
0000
1000
0000
0001
0000
0000
1100
0000
0001
,
0020
0000
0000
0000
,
1030
0000
0010
0000
0100
0000
0001
1000
0010
0000
0100
0000
0010
0000
0001
0010
,
1000
0000
0100
0000
0010
1000
0001
0000
0100
0000
0001
0010
1000
0000
0100
0000
,
0010
0001
0100
0000
1000
0000
0010
0000
1000
0000
0100
0000
0010
0000
0001
1000
,
0100
0000
0001
0000
0010
0000
0001
1000
0010
0001
0100
0000
1000
0100
0010
0001
,
0100
0000
0010
0000
1000
0000
0001
0000
0010
0000
0001
0100
1000
0000
0010
0000
,
0100
0000
0001
0010
1000
0000
0001
0000
0100
0001
0010
0000
1000
0100
0001
1000
,
0010
0000
0001
0000
1000
0000
0100
0000
1000
0001
0100
0000
0010
0000
0001
1000
,
0100
0000
0001
0010
1000
0000
0001
0000
0010
0001
0100
1000
0010
1000
0001
0100
,
2000
3002
0203
2300
3020
0000
0130
1001
,
0110
2000
3002
0203
0320
0030
2000
3001
,
0110
2000
3002
0203
0320
0230
0310
1001
,
0020
0000
0230
0000
2300
0000
3000
0000
1001
0000
0000
0110
0000
0000
1001
0000
,
0002
2003
3020
0032
0203
0000
0310
1001
,
0110
0002
2003
3020
0230
0300
0002
1003
,
0110
0002
2003
3020
0230
0320
0130
1001
,
0200
0000
0320
0000
0032
0000
0003
0000
1001
0000
0000
0110
0000
0000
1001
0000
,
0010
0100
0001
0010
0100
1000
0001
0100
,
0001
0010
0001
0010
0100
0010
0001
1000
,
0010
1000
0010
1000
0100
0010
0001
1000
,
0100
0010
0001
0010
0100
1000
0010
0100
,
0001
1000
0100
0000
0010
0001
1000
0000
0010
0100
1000
0000
0001
1000
0100
0000
,
0001
1000
0010
0000
0100
0001
0010
0000
0100
0001
1000
0000
0100
0001
1000
0000
,
0001
0100
1000
0000
0100
1000
0010
0000
0100
0001
0010
0000
0100
0001
1000
0000
,
0100
0010
0100
1000
0001
1000
0100
1000
0010
0100
0001
0010
0001
0010
0001
1000
,
0200
0000
0000
0000
0310
0000
0000
0000
1000
0000
0000
0001
0000
0000
1001
0000
,
1000
0000
0100
0000
0010
1000
0001
0100
1000
0000
0001
0100
0010
0000
1000
0100
,
0000
0001
0100
0001
1000
0000
0001
0010
1000
0000
0001
0000
0100
1000
0020
0000
,
0031
0000
0010
0000
0100
0000
1000
0010
0001
0100
1000
0000
0100
0000
0001
0010
,
0000
1000
0010
0000
0001
0000
1000
0100
0001
0010
1000
0000
0010
0000
0200
0000
,
1300
0001
0100
0000
0010
0000
0001
0100
1000
0000
0001
0000
0010
0000
1000
0100
,
0000
0001
0100
0000
1000
0100
0001
0010
1000
0000
0001
0000
0100
0000
0020
0000
,
0031
1000
0010
0000
0100
0000
1000
0010
0001
0000
1000
0001
0100
0000
0001
0010
,
0000
1000
0010
0000
0001
0010
1000
0100
0001
0000
1000
0000
0200
0000
0000
0000
,
0301
0000
0010
0001
0100
0000
1000
0010
0001
0000
1000
0000
0100
1000
0001
0010
,
0000
1000
0010
0000
0001
0000
1000
0100
0001
0000
1000
0001
0010
0000
0200
0000
,
1300
0000
0100
0000
0010
1000
0001
0100
1000
0000
0001
0100
0010
0000
1000
0100
,
0000
0001
0100
0001
1000
0000
0001
0010
1000
0000
0001
0000
0100
1000
0020
0000
,
0031
0000
0010
0000
0100
0000
1000
0010
0001
0000
1000
0001
0100
0000
0001
0010
,
0000
1000
0010
0000
0001
0010
1000
0100
0001
0000
1000
0000
0010
0001
0200
0000
,
1300
0000
0100
0000
0010
0000
0001
0100
1000
0000
0001
1000
0010
0000
1000
0100
,
0000
0001
0100
0000
1000
0000
0001
0010
1000
0000
0001
1000
0100
0000
0010
0000
,
0001
1000
0001
0000
0100
1000
0010
0000
0001
1000
0001
0000
0100
1000
0100
0000
,
0001
1000
0001
0010
1000
0100
0010
0100
0010
0001
1000
0001
0010
0001
0010
0100
,
2002
0000
0000
0000
,
0000
0000
0000
0000
,
3003
0000
0000
0000
;
