#TITLE:ワンナイト・ドリーム;
#SUBTITLE:;
#ARTIST:NAMCO Sound Team "シバガキ feat. A.Dokuga";
#TITLETRANSLIT:One Night Dream;
#SUBTITLETRANSLIT:;
#ARTISTTRANSLIT:NAMCO Sound Team "Shibagaki feat. A.Dokuga";
#GENRE:けものフレンズ×NonStopDance -フレンズの歌の音楽-;
#CREDIT:;
#MUSIC:One Night Dream.ogg;
#BANNER:One Night Dream.png;
#BACKGROUND:One Night Dream-bg.png;
#CDTITLE:./CDTitles/NSD A3.png;
#SAMPLESTART:51.767;
#SAMPLELENGTH:15.000;
#SELECTABLE:YES;
#OFFSET:-0.126;
#BPMS:0.000=115.000
,20.000=230.000
;
#STOPS:;
#BGCHANGES:;
#FGCHANGES:;

//--------------- dance-single - ----------------
#NOTES:
     dance-single:
     :
     Beginner:
     4:
     0,0,0,0,0:
0000
0000
0000
0000
,
0000
0000
0000
0000
,
0000
0000
0000
0000
,
0000
0000
0000
0000
,
0000
0000
0000
0000
,
0001
0000
0000
0000
,
0100
0000
0000
0000
,
1000
0000
0000
0000
,
0001
0000
0000
0000
,
0010
0000
0100
0000
,
0010
0000
0100
0000
,
1000
0000
0001
0000
,
0200
0000
0000
0000
,
0300
0000
0000
0000
,
0001
0000
0000
0000
,
1000
0000
0000
0010
,
0000
0000
0000
0000
,
0100
0000
1000
0000
,
0001
0000
0000
0000
,
0100
0000
0010
0000
,
1000
0000
0000
0000
,
0001
0000
0000
0000
,
0010
0000
0000
0000
,
0100
0000
1000
0000
,
0001
0000
0000
0000
,
0010
0000
0100
0000
,
0010
0000
0000
0000
,
1000
0000
0001
0000
,
0010
0000
0000
0000
,
0100
0000
0000
0000
,
0010
0000
0000
0000
,
0100
0000
0010
0000
,
0100
0000
0000
0000
,
1001
0000
0000
0000
,
0100
0000
0000
0000
,
0010
0000
0000
0000
,
0001
0000
0000
0000
,
1000
0000
0000
0000
,
0001
0000
0000
0000
,
0010
0000
0100
0000
,
1000
0000
0000
0000
,
0001
0000
1000
0000
,
0001
0000
1000
0000
,
0001
0000
0000
0000
,
0000
0000
0000
0000
,
1001
0000
0100
0000
,
0010
0000
0000
0000
,
0010
0000
0100
0000
,
1000
0000
0000
0000
,
0001
0000
0010
0000
,
0001
0000
0000
0000
,
1000
0000
0001
0000
,
0100
0000
0000
0000
,
0010
0000
0100
0000
,
0010
0000
0000
0000
,
1000
0000
0001
0000
,
0010
0000
0000
0000
,
1000
0000
0000
0000
,
0001
0000
0000
0000
,
0100
0000
0010
0000
,
0100
0000
0000
0000
,
2002
0000
0000
0000
,
0000
0000
0000
0000
,
0000
0000
0000
0000
,
0000
0000
3003
0000
,
0010
0000
0000
0000
,
0100
0000
0000
0000
,
1000
0000
0000
0000
,
0001
0000
0000
0000
,
0010
0000
0000
0000
,
0100
0000
0000
0000
,
1000
0000
0000
0001
,
0100
0000
0000
0000
,
0100
0000
0000
1000
,
0001
0000
0000
0000
,
0010
0000
0100
0000
,
1000
0000
0100
0000
,
0001
0000
0010
0000
,
0100
0000
1000
0000
,
0001
0000
0100
0000
,
0000
0000
0000
1001
,
0000
0100
0000
0010
,
0000
0100
0000
1000
,
0000
0001
0000
0100
,
0000
0010
0000
0100
,
0000
0010
0000
0100
,
0000
0010
0000
1000
,
0000
0001
0000
0100
,
1000
0001
0100
0000
,
0010
0000
0001
0000
,
1000
0000
0001
0000
,
0100
0000
0010
0000
,
1000
0000
0001
0000
,
0010
0000
0100
0000
,
0001
0000
1000
0000
,
0001
0000
0100
0000
,
0000
0000
0010
0000
,
0100
0000
1000
0000
,
0001
0000
0100
0000
,
0010
0000
0100
0000
,
0000
0000
0000
0000
,
0000
0000
0000
0000
,
0000
0000
0000
0000
,
0000
0000
0000
0000
0000
0000
0010
0000
0010
0000
0010
0000
,
0000
0000
0100
0000
0100
0000
0000
0000
0000
0000
0000
0000
;

//--------------- dance-single - ----------------
#NOTES:
     dance-single:
     :
     Easy:
     7:
     0,0,0,0,0:
0000
0000
0000
0000
,
0000
0000
0000
0000
,
0000
0000
0000
0000
,
0000
0000
0000
0000
,
0000
0000
0000
0000
,
1001
0000
0010
0000
,
0001
0000
0010
1000
,
0100
0000
1000
0000
,
0001
0010
0100
0000
,
0001
1000
0100
0000
,
0001
1000
0010
0000
,
0100
0001
1000
0000
,
0001
0000
1000
0000
,
0110
0000
0100
0000
,
0010
0000
1000
0000
,
0001
0000
1000
0000
0000
0000
1000
0000
0000
0001
0000
1000
,
0000
0000
0000
0000
0000
0000
0010
0000
0100
0000
0000
0000
,
0110
0000
0010
0000
,
0100
0001
1000
0000
,
0001
0000
1000
0000
,
0010
1000
0100
0000
,
0010
0000
1000
0000
,
0100
0001
1000
0000
,
0100
0000
0010
0000
,
0100
1000
0010
0000
,
0001
0000
0010
0000
,
0001
0000
0100
0000
,
0010
0000
1000
0000
,
0010
0000
1000
0000
,
0010
0001
0100
0000
,
0001
0100
1000
0000
,
0010
0000
0100
0000
,
0001
1000
0010
0000
,
0100
0000
0010
0000
,
0001
1000
0010
0000
,
0001
0000
0100
0000
,
0001
0010
1000
0000
,
0010
0000
0100
0000
,
0001
0010
1000
0000
,
0100
0000
0010
0000
,
0001
1000
0100
0000
,
0002
0000
1000
0000
,
0010
0000
1003
0000
,
0100
0001
0010
0000
,
0100
0000
0010
0000
,
1001
0000
0010
0000
,
0001
0000
1000
0000
,
0001
0000
0010
0000
,
0100
0000
0010
0000
,
0001
0000
0100
0000
,
0001
0000
0010
0000
,
0001
0000
0010
0000
,
0100
0000
1000
0000
,
0010
0000
0100
0000
,
0001
0000
1000
0000
,
0100
0000
1000
0000
,
0010
0000
0000
0000
0000
0000
0100
0000
0000
0000
1000
0000
,
0010
0000
0000
0000
0000
0000
0100
0000
0000
0000
1000
0000
,
0001
0000
0100
0000
,
0010
0000
1000
0000
,
0200
0310
0000
0002
,
1003
0000
0010
0000
,
1000
0000
0100
0000
,
1000
0000
0010
0000
,
1000
0000
0010
0000
,
0100
0000
0010
0000
,
0100
0000
0001
0000
,
0100
0000
0001
0000
,
0010
0000
0001
0000
,
0010
0000
0100
0000
,
0010
0000
0001
0000
,
0100
0000
0001
0000
,
1000
0000
0001
0000
,
1000
0000
0100
0000
,
1000
0000
0010
0000
,
0100
0000
0001
0000
,
0010
0000
0001
0000
,
0010
0000
0100
0000
,
1000
0000
0100
0000
,
0010
0000
0100
0000
,
0010
0000
0001
1000
,
0010
0000
0001
0000
,
0100
0000
0001
0000
,
0010
0000
0100
0000
,
1000
0000
0100
0000
,
1000
0000
0100
0000
,
0010
0000
0001
0000
,
1000
0000
0001
0000
,
0010
0000
0001
0000
,
0010
0000
0100
0000
,
0010
0000
0001
0000
,
1000
0000
0001
0000
,
0100
0000
0000
0000
0000
1000
0010
0000
0000
0000
0000
0000
,
1000
0000
0000
0000
0000
0010
0001
0000
0000
0000
0000
0000
,
1000
0000
0001
0000
,
1000
0000
0100
0000
,
0010
0000
0000
0000
0000
0001
0100
0000
0000
0000
0000
0000
,
1000
0000
0000
0000
0000
1000
0001
0000
0000
0000
0000
0000
,
1000
0000
0001
0000
,
0010
0000
0001
2002
,
0000
0000
3003
0000
,
0000
0000
0000
0000
,
0000
0000
0000
0000
,
0000
0000
0000
0000
0000
0000
0010
0000
0010
0000
0010
0000
,
0000
0000
0100
0000
0100
0000
0000
0000
0000
0000
0000
0000
;

//--------------- dance-single - ----------------
#NOTES:
     dance-single:
     :
     Medium:
     10:
     0,0,0,0,0:
0000
0000
0000
0000
,
0000
0000
0000
0000
,
0000
0000
0000
0000
,
0000
0000
0000
0000
,
0000
0000
0000
0000
,
0100
0010
0001
1000
,
0100
0010
0100
1000
,
0001
1000
0001
1000
,
0100
0010
0100
1000
,
0010
0100
0001
0010
,
0100
1000
0100
0010
,
0100
0010
0001
0100
,
0001
1000
0001
1000
,
0100
1000
0001
0100
,
0010
0100
0010
1000
,
0100
1000
0100
1000
,
0010
0100
0010
0100
,
0001
0010
0001
0010
,
0100
0010
0100
1000
,
0010
1000
0010
0100
,
0010
0100
0001
0100
,
0010
1000
0100
0010
,
0001
0100
0001
0100
,
0010
0100
0001
0010
,
0001
1000
0100
0010
,
0001
0100
0001
0010
,
0100
0010
0100
1000
,
0100
1000
0001
0010
,
0100
1000
0010
0100
,
0001
1000
0100
0010
,
0001
0010
0100
0010
,
0100
1000
0100
1000
,
0001
1000
0100
0010
,
0001
1000
0001
1000
,
0010
0100
0001
0100
,
0010
0100
0010
1000
,
0100
1000
0100
1000
,
0001
0010
0100
0010
,
0001
1000
0001
1000
,
0010
0100
0010
1000
,
0010
0100
0001
1000
,
0100
0010
0001
0100
,
0001
1000
0010
0100
,
0010
0100
0001
1000
,
0001
1000
0001
0010
,
1001
0010
0001
0010
,
0001
0100
0001
1000
,
0100
1000
0100
0010
,
0100
1000
0010
1000
,
0001
0010
0001
0010
,
0100
1000
0100
0010
,
0001
1000
0100
1000
,
0010
1000
0001
0010
,
1001
0100
0010
0100
,
0001
1000
0001
0100
,
0001
0010
0100
1000
,
0010
0000
0000
0100
0000
0000
0001
0000
0000
0100
0000
0010
,
0001
0000
0000
1000
0000
0000
0100
0000
0000
1000
0000
0010
,
0001
1000
0100
0010
,
0100
1000
0010
1000
,
0002
0013
2000
0000
,
3100
0010
0001
0100
,
0010
0100
0001
1000
,
0010
0000
0000
0100
0000
1000
0001
0000
0000
0100
0000
0000
,
0001
0000
0000
0100
0000
1000
0010
0000
0000
1000
0000
0000
,
0100
1000
0100
0010
,
0100
0000
0001
1000
0000
0000
0010
0000
0000
1000
0000
0000
,
0100
0000
0001
1000
0000
0000
0100
0000
0000
0010
0000
0000
,
0001
0000
1000
0100
0000
0000
0001
0000
0000
1000
0000
0000
,
0010
0000
0001
0100
0000
0000
0001
0000
0000
0010
0000
0000
,
0001
0000
1000
0010
0000
0000
0001
0000
0000
0100
0000
0000
,
0010
0000
0001
1000
0000
0000
0010
0000
0000
0100
0000
0000
,
0010
0000
0100
1000
0000
0000
0001
0000
0000
0100
0000
0000
,
0001
0000
1000
0010
0000
0000
0001
0000
0000
1000
0000
0000
,
0100
0000
0001
0010
0000
0000
0001
0000
0000
1000
0000
0000
,
0010
0000
1000
0100
0000
0000
0010
0000
0000
0100
0000
0000
,
0010
0000
0001
1000
0000
0000
0100
0000
0000
0010
0000
0000
,
0100
0000
0000
1000
0000
0000
0010
0000
0001
0100
0000
0000
,
0010
1000
0100
1000
,
0100
0000
1000
0010
0000
0000
0001
0000
0000
0100
0000
0000
,
0001
1000
0100
1001
,
0001
0000
1000
0010
0000
0000
0100
0000
0000
0010
0000
0000
,
0001
0000
0000
0100
0000
1000
0001
0000
0000
0100
0000
0000
,
0010
0000
0000
1000
0000
0000
0100
0000
0000
0010
0000
0001
,
0100
1000
0010
1000
,
0100
0000
0001
1000
0000
0000
0001
0000
0000
0100
0000
0000
,
0010
0000
0000
0100
0000
1000
0001
0000
0000
1000
0000
0000
,
0001
0000
0000
0100
0000
0000
0010
0000
1000
0100
0000
0000
,
0001
0000
0000
1000
0000
0000
0001
0000
0000
1000
0000
0010
,
0001
0100
0010
1000
,
0001
0000
0000
1000
0000
0000
0001
0000
0100
0010
0000
0000
,
0100
0000
0000
1000
0000
0000
0100
0000
1000
0010
0000
0000
,
0100
0000
0000
0010
0000
1000
0001
0000
0000
0100
0000
0000
,
0010
0000
0000
1000
0000
0001
0010
0000
0000
0100
0000
0000
,
0001
0000
0000
0010
0000
0001
0100
0000
0000
1000
0000
0000
,
0001
0000
0000
0100
0000
0000
0010
0000
1000
0100
0000
0000
,
0010
0000
0001
0100
0000
1000
0001
0000
0000
0010
0000
0000
,
0001
0000
0000
0010
0000
1000
0100
0000
0000
0010
0000
0000
,
0001
1000
0001
1000
,
0010
1000
0010
0022
,
0000
0000
0033
2002
,
0000
0000
0000
0000
,
0000
0000
0000
0000
,
3003
0000
0000
0000
0000
0000
0010
0000
0010
0000
0010
0000
,
0000
0000
0100
0000
0100
0000
0000
0000
0000
0000
0000
0000
;

//--------------- dance-single - ----------------
#NOTES:
     dance-single:
     :
     Hard:
     15:
     0,0,0,0,0:
0000
0000
0000
0000
,
0000
0000
0000
0000
,
0000
0000
0000
0000
,
0000
0000
0000
0000
,
0000
0000
0000
0000
,
1001
0000
0100
0010
0000
0000
0001
0000
0000
1000
0000
0010
,
0100
0000
0000
0001
0000
0000
1000
0000
0000
0010
0000
0001
,
1000
0000
0000
0001
0000
0000
0010
0000
0100
0010
0000
1000
,
0001
0000
0000
0010
0000
0100
0000
0000
1000
0001
0000
0000
,
1000
0001
0000
0000
0000
0010
0100
0000
0000
0000
0000
1000
,
0001
0000
0000
0000
0000
0001
0100
0000
0000
0000
0000
1000
,
0001
0000
0000
0000
0000
0100
0000
0000
0000
0010
0000
0000
,
0001
0000
0010
1000
0000
0001
0100
0000
1000
0001
1000
0100
,
0001
0000
0100
1000
0000
0010
1000
0100
0010
0001
1000
0001
,
1000
0000
0100
0001
0000
1000
0010
0000
0001
1000
0001
0010
,
1000
0000
0010
0001
0000
0100
0001
0010
0100
1000
0001
1000
,
0001
0000
0010
1000
0000
0001
0100
0000
1000
0001
1000
0100
,
0001
0010
0100
1000
,
0010
0100
0001
0010
,
0001
0010
0100
1000
,
0100
0010
0001
1000
,
0001
0010
0001
0010
,
0100
0010
0100
1000
,
0010
1000
0010
1000
,
0001
0000
0010
0100
0000
0000
0010
0000
0000
0100
0000
1000
,
0001
0100
0010
1000
,
0010
0000
0000
0100
0000
0001
0010
0000
0000
0100
0000
0000
,
0001
0000
0000
0100
0000
0000
0001
0000
0000
0010
0000
1000
,
0100
0000
0000
0010
0000
0000
0001
0000
0000
1000
0000
0100
,
0001
1000
0010
1000
,
0100
0000
0001
0010
0000
0000
0001
0000
0000
0100
0000
0000
,
0010
0000
1000
0100
0000
0010
0001
0000
0100
0010
0000
1000
,
0020
0000
0000
0000
,
0130
0000
0000
0001
0000
0000
0010
0000
0100
0001
0000
0000
,
1000
0000
0000
0010
0000
0000
0100
0000
0001
0010
0000
0000
,
0100
0000
0000
0010
0000
0000
1000
0000
0100
0001
0000
0000
,
0100
0000
0000
0010
0000
0000
0100
0000
1000
0010
0000
0000
,
1000
0000
0000
0010
0000
0000
0100
0000
1000
0001
0000
0000
,
0100
0000
0000
0001
0000
0000
0010
0000
1000
0001
0000
0000
,
1000
0000
0000
0100
0000
0000
0010
0000
1000
0001
0000
0000
,
0010
0000
0000
0001
0000
0000
0100
0000
0010
0001
0000
0000
,
0010
0000
0001
0100
0000
0010
1000
0000
0100
0010
0000
0000
,
0100
0000
0010
0001
0000
0000
1000
0000
0100
0001
0000
0000
,
1000
0000
0100
0010
0000
0000
0100
0000
0001
0010
0000
1000
,
0100
0001
0010
0100
,
1001
0100
0010
0001
0000
1100
0100
0000
,
0000
0010
0101
1000
0100
0010
0001
0100
,
1000
0100
0010
0001
0000
1000
0100
1000
,
0000
0010
0001
0100
1000
0101
0000
0110
,
1000
0000
0100
0000
0010
0001
0100
1000
,
0100
0000
0010
0101
0000
1100
0001
0010
,
0100
1000
0100
0010
0001
0100
0000
1000
,
0010
0001
0100
0010
0001
0100
1000
0100
,
0010
0100
1000
0100
0010
0001
0100
1000
,
0100
0010
0001
0100
1100
0010
0000
0101
,
1000
0100
0010
0001
0100
1100
0001
1000
,
0100
1000
0010
0001
,
1100
0100
1100
0100
,
0010
0100
0010
0100
0010
0100
0010
0000
,
0011
0011
0011
0000
,
1100
1100
1100
1100
,
1000
0010
0001
0100
1000
0100
0001
0100
,
1000
0000
0010
0000
0001
0100
1000
0100
,
0010
0000
0100
0000
0010
0100
0010
0100
,
0020
0000
0000
0000
,
1030
0000
0000
0100
0000
0000
0010
0000
0000
0000
1000
0000
0010
0000
0000
0000
0001
0000
0000
0000
0000
0000
0000
0000
,
1000
0000
0001
0010
0000
0000
0100
0000
0001
0010
0000
0000
,
1000
0000
0001
0000
0000
0110
0000
0000
1000
0001
0000
0100
,
0010
0000
1000
0010
0000
0001
0100
1000
0001
0100
0000
0000
,
0010
0000
0000
1000
0000
0001
0100
0000
0000
1000
0000
0010
,
0001
0000
0000
0100
0000
1000
0000
0000
0001
0010
0000
0000
,
1000
0000
0000
0001
0000
0100
0010
0000
0000
1000
0000
0001
,
0000
0100
1000
0001
0010
0000
1000
0001
0000
0100
0000
0000
,
0001
0000
0000
0010
0000
0001
0000
0000
1000
0002
0000
0000
,
0000
0000
0000
1003
,
1000
0000
0010
0001
0000
1000
0002
0000
0000
0000
0000
0000
,
0000
0000
0000
0000
0000
0000
1003
0000
0010
1000
0000
0001
,
0100
0000
1000
0001
1000
0100
0001
0000
0100
1000
0000
0010
,
1000
0100
0010
0001
1000
0001
0010
0100
0000
1000
0001
0000
,
0010
0100
0000
0001
1000
0000
2002
0000
0000
0000
0000
0000
,
0000
0000
0000
0000
3003
0000
1001
0010
,
0100
0000
0010
0100
0100
0000
1000
0000
,
0100
0100
0010
0000
0001
0000
0010
1000
,
0100
0010
0100
0010
,
0000
0000
0000
0000
0000
0000
0000
0000
0100
0000
0000
0000
0000
0000
0000
0000
0000
0000
0000
0000
0000
0000
0000
0000
0010
0000
0000
0000
0000
0000
0000
0000
0000
0000
0000
0000
1000
0000
0000
0001
0000
0000
1000
0000
0000
0000
0000
0000
,
0010
0000
0000
0000
1000
0100
0010
0000
0001
0000
0000
0000
0010
0100
1000
0000
,
0010
0000
0000
0000
1000
0001
1000
0000
0000
0000
0000
0000
0001
1000
0001
0000
,
0000
0000
0001
1000
0100
0000
0000
0000
0001
0000
1000
0000
0010
0000
0001
1000
,
0001
1000
0001
0200
0000
0000
0000
0000
0000
0301
0000
0000
,
0010
0000
0100
1000
0010
0000
0100
0001
,
1000
0000
0100
1000
0010
0000
0001
0000
,
1000
0001
0100
0000
0001
0000
0100
0000
,
0000
0000
0001
0000
0000
0000
1000
0000
0000
0100
0000
0000
,
0010
0100
0010
0000
0001
0000
0000
0000
1000
0001
1000
0000
0100
0000
0000
0000
,
0001
0100
1000
0000
0100
0000
0000
0000
0010
0100
1000
0000
0001
0000
0000
0000
,
1000
0000
0000
0100
0000
0000
0010
0000
0000
0000
0000
0000
0001
0000
0000
0000
0000
0000
0000
0000
0000
0000
0000
0000
0001
0000
0000
0010
0000
0000
0100
0000
0000
0000
0000
0000
0001
0000
0000
0000
0000
0000
0000
0000
1000
0000
0000
0000
,
0010
0001
1000
0000
2000
0000
3001
0010
,
0100
0001
0000
0000
1000
0000
0000
0000
0100
0000
0000
1000
0100
0000
0010
0000
,
0001
0000
1000
0000
0001
0000
0010
0000
0100
0001
0010
0000
0100
0000
0000
1000
,
0001
0000
0000
0000
1000
0000
0010
0001
0100
0000
0000
0000
2002
0000
0000
0000
,
0000
0000
3003
0100
,
1000
0100
0010
0000
0001
0000
0100
0000
,
0001
0010
1000
0000
0100
0000
0002
0000
,
0000
0000
0000
0000
0000
0000
0013
0000
0010
0000
0010
0000
,
0000
0000
0100
0000
0200
0000
0000
0000
0000
0000
0000
0000
,
0300
0000
0000
0000
;
