
//----- song ID: ovrr -----//
#TITLE:OVERREV;
#ARTIST:NAMCO Sound Team "t+pazolite";
#GENRE:ナムコオリジナル;
#MUSIC:OVERREV.ogg;
#BANNER:OVERREV.png;
#BACKGROUND:OVERREV-bg.png;
#CDTITLE:./CDTitles/NSD A3.png;
#SAMPLESTART:40.794;
#SAMPLELENGTH:15.000;
#SELECTABLE:YES;
#OFFSET:0.000;
#BPMS:0.000=200.000
,132.000=400.000
,135.000=200.000
,164.000=400.000
,165.000=200.000
,184.000=400.000
,184.500=200.000
,184.750=100.000
,185.000=200.000
,215.000=400.000
,215.500=200.000
,215.750=100.000
,216.000=400.000
,216.500=200.000
,216.750=100.000
,217.000=200.000
;
#STOPS:132.000=0.150
,133.000=0.150
,134.000=0.150
,164.000=0.075
,164.500=0.075
;
#BGCHANGES:;
#FGCHANGES:;

//--------------- dance-single - ----------------
#NOTES:
     dance-single:
     :
     Beginner:
     6:
     0,0,0,0,0:
0000
0000
0000
0000
,
0000
0000
0000
0000
,
0000
0000
0000
0000
,
0000
0000
0000
0000
,
0000
0000
0000
0000
,
0001
0000
0000
0000
,
1000
0000
0000
0000
,
0001
0000
0000
0000
,
0100
0000
0000
0000
,
0010
0000
0000
0000
,
0100
0000
0000
0000
,
0000
1000
0000
0001
,
0000
1000
0000
0001
,
0100
0000
0000
0000
,
0010
0000
0000
0000
,
0001
0000
1000
0000
,
0001
0000
0000
0000
,
2002
0000
0000
0000
,
0000
0000
0000
0000
,
0000
0000
0000
0000
,
0000
0000
0000
0000
,
0000
0000
0000
0000
,
0000
0000
0000
0000
,
0000
0000
0000
0000
,
3003
0000
0000
0000
,
1001
0000
0000
0000
,
0001
0000
0010
0000
,
0100
0000
1000
0000
,
0001
0000
1000
0000
,
0001
0000
1000
0000
,
0001
1000
0001
0000
,
0100
0010
0001
0000
,
1000
0100
0010
0001
,
0100
0100
0001
1001
,
0100
0000
0010
0000
,
0100
1000
0001
0000
,
0100
0000
0010
0000
,
0001
0010
0100
0000
,
1000
0000
0001
0000
,
0100
0010
0001
0000
,
1000
0000
0001
0000
,
1000
0000
0010
0000
,
0000
0001
0000
1000
,
0000
0001
0000
0100
,
1000
0010
0000
0001
,
0000
0100
1000
0010
,
1000
0100
0000
0001
,
0000
0010
0100
1000
,
0000
0001
0000
1000
,
0000
0001
1000
0001
,
0000
0200
0000
0000
,
0000
0320
0000
0000
,
0000
0032
0000
0000
,
0000
1003
0000
0100
,
0010
1000
0000
0001
,
0000
0100
0000
0000
,
0000
0001
0000
1000
,
0000
0001
0000
0000
,
0000
0020
0000
0000
,
0000
0000
0030
0000
,
0000
0200
0000
0000
,
0000
0000
0300
0000
,
0000
1000
0000
0001
,
0000
1000
0000
0001
,
0000
0010
0100
1000
,
0001
0101
0000
0000
,
0000
1000
0000
0001
,
0000
0100
0000
0010
,
0000
0001
0000
1000
,
0000
0001
0000
1000
,
0000
0001
0000
0100
,
0000
0010
0000
0001
,
0000
1000
0100
0010
,
0001
1000
0000
0000
,
0000
0100
0000
0000
,
0000
0000
0000
0000
,
0000
0010
0000
0000
,
0000
0000
0000
0000
,
0000
1000
0000
0000
,
0000
0001
0000
0000
,
0000
1000
0000
0001
,
0000
1000
0000
0000
,
1001
0000
0000
0000
;

//--------------- dance-single - ----------------
#NOTES:
     dance-single:
     :
     Easy:
     10:
     0,0,0,0,0:
0000
0000
0000
0000
,
0000
0000
0000
0000
,
0000
0000
0000
0000
,
0000
0000
0000
0000
,
0000
0000
0000
0000
,
0001
0100
1000
0001
,
0100
0010
0001
0010
,
0100
1000
0001
0100
,
0010
0000
0001
0000
0010
1000
0000
0100
,
0001
1000
0010
0100
,
0001
0010
0100
1000
,
0001
1000
0001
0000
0100
0010
0100
0000
,
1000
0001
0010
0000
0100
1000
0001
0000
,
1000
0001
0100
0010
,
0001
0010
0100
1000
,
0001
1000
0001
0000
0001
1000
0001
0000
,
0001
0010
0100
1000
,
2002
0000
0000
0000
,
0000
0000
0000
0000
,
0000
0000
0000
0000
,
0000
0000
0000
0000
,
0000
0000
0000
0000
,
0000
0000
0000
0000
,
3003
0000
0000
0000
,
0000
0000
0000
0000
,
0002
0000
0000
1003
,
0100
1000
0001
0100
,
0010
0001
0010
0100
,
1000
0001
1000
0001
,
1000
0000
0001
0000
1000
0000
0001
0010
,
0100
1000
0001
0100
,
0010
0001
0010
0100
,
1000
0100
0010
0000
0001
0010
0100
0000
,
0100
0100
0001
1001
,
0100
1000
0001
0100
,
0010
0001
0010
0100
,
1000
0001
0100
0010
,
0001
0010
0100
0000
,
1001
0100
0010
0001
,
0010
0100
1000
0001
,
0100
0001
0010
0100
,
0200
0310
1000
0001
,
1001
0010
0100
1000
,
0001
0010
0100
0001
,
0010
0100
0001
1000
,
0001
0100
0010
1000
,
0101
1000
0001
0100
,
0010
0001
0010
0100
,
0001
1000
0001
0100
,
0010
0000
0001
0000
0010
0000
0100
1000
,
0001
0100
0010
0100
,
1000
0000
0200
0000
0000
0000
0000
0301
,
0010
1000
0200
0000
0000
0000
0000
0000
,
0000
0000
0302
0000
0003
0010
1000
0000
,
0101
0000
1000
0001
0100
0000
0010
0000
,
1000
0002
0000
0000
,
0103
0020
1000
0000
,
0001
0130
0001
0010
,
0100
2000
0000
3002
,
0000
0000
0203
0000
0000
0320
0000
0000
,
0000
2030
0000
0000
,
0000
3002
0000
0000
,
0000
0103
0000
1000
,
0000
0001
0000
0100
,
0000
1000
0001
0100
0001
0000
0100
0000
,
0010
2001
0000
3001
,
0001
1001
0100
0010
,
0001
1000
0001
0100
,
0010
0001
0010
0100
,
1000
0001
0100
0010
,
0001
1000
0001
0100
,
0010
0001
0010
0100
,
1000
0000
0001
1000
0001
0000
0100
0010
,
0100
1000
0001
0010
,
0100
1001
0000
0000
,
0000
0100
0000
0010
,
0000
1001
0000
0000
,
0000
0001
0000
0010
,
0100
1001
0000
0000
,
0000
0010
0000
0000
,
0000
0100
0000
0010
,
0000
0100
1000
0001
,
1001
0000
0000
0000
;

//--------------- dance-single - ----------------
#NOTES:
     dance-single:
     :
     Medium:
     12:
     0,0,0,0,0:
0000
0000
0000
0000
,
0000
0000
0000
0000
,
0000
0000
0000
0000
,
0000
0000
0000
0000
,
0000
0000
0000
0000
,
1001
0000
1000
0000
0100
0001
0010
0000
,
1000
0001
0010
0100
,
1001
0000
0001
0000
0100
1000
0010
0000
,
1000
0001
0100
0010
,
1000
0010
0001
0000
0100
0000
1010
0000
,
0001
1000
0010
0000
0100
0000
1001
0000
,
0001
1000
0001
0000
0100
0010
0100
0000
,
0001
1000
0001
0000
0100
0010
0001
0000
,
0100
0100
1000
0001
,
0100
0010
1000
0001
,
1000
0010
0001
0100
1000
0100
0010
0001
,
1000
0000
0000
0000
,
2002
0000
0000
0000
,
0000
0000
0000
0000
,
0000
0000
0000
0000
,
0000
0000
0000
0000
,
0000
0000
0000
0000
,
0000
0000
0000
0000
,
0000
0000
0000
0000
,
3003
0000
0000
0000
,
1001
0000
1000
0001
0100
0000
0010
0000
,
1001
0010
0100
1000
,
0001
0100
0010
1000
,
0101
1000
1001
0100
,
0011
0000
1000
0000
0001
0000
0010
0001
,
0100
1000
0001
0000
0010
0100
0001
0000
,
0010
0100
1000
0000
0001
0010
0100
0000
,
1000
0001
0010
0100
1000
0001
1000
0100
,
0022
0033
0000
0000
0220
0330
0000
0000
2200
3300
0000
0000
2002
3003
0000
0000
,
0010
1000
0010
1000
0001
1000
0001
0000
,
0001
0100
0010
1000
0010
0100
0001
0000
,
0010
1000
0001
0010
0100
1000
0001
0000
,
0010
0100
0001
1000
0100
1000
0001
0100
,
0010
1000
0001
0010
0001
0010
0100
0000
,
0100
1000
0001
0010
0001
0100
0010
0000
,
0001
1000
0100
1000
0100
1000
0010
0100
,
0020
0000
0000
0000
0130
0000
0000
0000
0010
0000
1000
0100
0000
0001
0010
0000
,
2000
0000
3001
0100
1000
0100
1000
0001
,
1000
0000
0010
0100
1000
0100
1000
0010
,
1000
0000
0010
0001
1000
0100
0010
0100
,
0010
0000
1000
0010
1000
0001
1000
0100
,
1001
0000
0100
1000
0001
0010
0100
0010
,
0100
0000
0001
0100
0010
0100
0010
0100
,
0001
0000
0010
0100
0010
0100
0001
0100
,
0001
1000
0100
0010
0001
0010
0100
0010
,
0100
1000
0010
1000
0100
0010
0001
0100
,
0001
1000
0010
1000
0001
1000
0010
0100
,
0010
0100
0010
1000
0001
0100
0010
0100
,
0010
0100
0001
0010
0100
0010
0202
0303
,
2020
3030
0001
0100
0001
1000
0010
1000
,
0001
0010
0001
1000
0010
0100
0010
0100
,
0010
1000
0100
0010
0001
0010
0001
0010
,
0100
1000
0100
1000
0010
0100
0001
0010
,
0001
0100
2000
0000
0000
0000
3002
0000
,
0000
0000
0203
0000
0000
0320
0000
0000
,
1030
0001
2000
0000
0000
0000
0000
0000
,
0000
3002
0000
0000
,
0000
0103
1000
0001
,
0100
0010
1000
0001
,
1000
0000
0001
1000
0001
0010
0100
1000
,
0001
0010
2000
0000
0000
0000
3001
0000
,
1010
0000
0001
0010
0001
0010
0100
0010
,
0100
1000
0100
0010
0001
1000
0100
1000
,
0100
0010
0100
1000
0001
0010
0001
1000
,
0010
0100
0001
0100
0010
0100
0010
1000
,
0010
1000
0001
0010
0001
1000
0010
1000
,
0001
1000
0001
0100
0001
0010
0100
0010
,
0100
1000
0100
0010
0001
1000
0010
1000
,
0001
0000
0100
0000
0010
0000
0100
0000
1001
0000
0000
0000
0100
0000
0010
0100
,
0000
0010
0100
0000
1000
0000
0000
0000
0000
0000
0101
0000
0000
0000
0000
0000
,
1000
0000
0100
1000
0001
0010
0100
0001
,
0100
1000
0010
0000
0000
0101
0000
0000
,
0001
0000
0100
1000
0001
0010
0100
1000
,
0001
1000
0010
0000
0000
0101
0000
0000
,
0010
0000
1000
0000
0000
1010
0000
0001
,
1000
0001
0010
0000
0100
0000
0001
0000
,
1001
0000
0220
0000
0000
0000
0330
1000
,
1001
0000
0000
0000
;

//--------------- dance-single - ----------------
#NOTES:
     dance-single:
     :
     Hard:
     16:
     0,0,0,0,0:
0000
0000
0000
0000
,
0000
0000
0000
0000
,
0000
0000
0000
0000
,
0000
0000
0000
0000
,
0000
0000
0000
0000
,
1001
0000
0100
0010
0100
1000
0010
1000
,
0001
1000
0100
0010
0100
1000
0001
0100
,
0001
0010
0100
0010
0001
1000
0100
0010
,
0001
0000
1000
0000
0010
0000
1000
0000
0001
0100
0001
0100
0001
0100
0001
0100
,
0001
0000
1000
0000
0001
0000
1000
0000
0010
0000
1000
0001
0000
0100
0010
0000
,
0001
0000
0100
0000
0001
0000
0100
0000
0001
0000
0010
0100
0000
1000
0010
0000
,
0100
0000
0010
0000
0001
0000
0100
0010
0000
0100
1000
0000
0001
0000
0100
0000
,
0010
0000
1000
0000
0010
0000
1000
0100
0000
0001
1000
0000
0001
0000
0100
0000
,
0010
0100
0001
0010
0100
0010
0100
1000
,
0001
0010
0001
0010
0001
0100
0010
1000
,
0001
0010
0100
1000
0010
1000
0001
0100
0010
0100
0010
1000
0100
0010
0001
1000
,
0010
0000
0100
0000
1000
0000
0000
0001
0000
0100
0000
0000
1000
0000
0010
0000
,
2002
0000
0000
0000
,
0000
0000
0000
0000
,
0000
0000
0000
0000
,
0000
0000
3003
0000
,
0001
0000
0000
0000
1000
0000
0001
0000
0010
0100
0000
1000
0001
0000
0100
0000
,
0020
0000
0000
0000
1030
0000
0001
0000
1000
0001
0000
1000
0001
0000
0100
0000
,
0020
0000
0000
0000
1030
0000
0100
0000
0001
1000
0000
0001
1000
0000
0010
0000
,
0001
1000
0001
1000
0001
0000
0100
0000
0010
0000
1000
0000
0001
0000
0100
0000
,
2000
0000
3002
0023
0230
0300
1001
0000
,
0002
0000
0013
1000
0002
0000
0100
0010
,
2003
0000
0010
0001
3200
0000
0301
1000
,
0002
0000
0103
1000
0020
0000
0130
1000
,
0002
0000
0013
1000
0002
0000
0103
1000
,
0100
1000
0001
0100
0010
1000
0100
1000
,
0010
1000
0100
0010
0001
0010
0001
1000
,
0100
0010
1000
0001
0100
0010
1000
0001
1000
0010
0100
0001
0010
0100
0010
1000
,
0022
0033
0000
0000
0220
0330
0000
0000
2200
3300
0000
0000
2002
3003
0000
0000
,
0001
0000
0010
0000
0100
1000
0010
0000
0001
0100
1000
0000
0001
0010
1000
0001
,
0100
0000
1000
0000
0010
0000
0100
0000
0010
0100
1000
0010
0001
1000
0010
0100
,
0001
0000
0010
0000
0001
1000
0100
0000
0010
0001
1000
0000
0001
0100
1000
0000
,
0010
0000
1000
0100
0010
0000
0100
0000
0010
0100
1000
0001
0100
0010
1000
0000
,
0001
0000
0010
0000
0100
0000
0010
1000
0100
0000
0010
0100
0001
0000
1000
0000
,
0100
0001
0010
1000
0100
0000
1000
0000
0100
1000
0010
0100
0001
1000
0010
0100
,
0001
0000
0100
0000
0010
0001
1000
0000
0100
1000
0010
0000
0001
0000
0010
0000
,
1000
0000
0001
0000
1000
0000
0000
0000
0010
0000
1000
0100
0000
0001
0010
0000
,
2000
0000
0000
0000
3001
0000
0100
0000
0010
0100
0001
0000
1000
0100
0001
0000
,
0010
0001
0100
0000
1000
0000
0010
1000
0100
0000
0001
0100
0010
0000
0001
1000
,
0100
0000
0001
0000
0010
0000
0100
0001
0010
0000
0001
1000
0100
0000
0001
0100
,
1000
0000
0010
0000
1000
0001
0010
0000
0100
1000
0010
0000
1000
0100
0001
0000
,
1001
0000
0000
0000
1000
0000
0001
0000
0100
1000
0010
0000
1000
0001
0010
0000
,
0100
1000
0010
0000
0100
0000
0001
1000
0010
0000
0100
0001
0010
0000
0100
1000
,
0010
0000
0001
0000
1000
0000
0010
0001
0100
0000
0010
1000
0100
0000
0010
0001
,
1000
0000
0001
0000
0100
0000
0010
0100
1000
0000
0100
0001
0010
0000
0001
1000
,
0100
0000
0001
0000
0010
0000
0100
0010
0001
0000
0100
0000
0001
0100
0010
0000
,
0001
0000
1000
0010
0100
0000
1000
0000
0100
1000
0010
0000
0100
0001
1000
0000
,
0010
0100
1000
0000
0001
0000
1000
0001
0100
0000
0010
0000
0100
0001
1000
0000
,
0100
0000
0000
0000
0010
0000
1000
0000
0001
0000
0010
0000
1000
0000
0000
0000
0100
0000
0000
0000
1000
0000
0000
0000
2020
0000
0000
0000
0000
0000
0000
3030
,
2020
0000
0000
0000
0000
0000
0000
3030
0010
0000
0000
0000
1000
0000
0000
0000
0010
0000
0001
0000
0100
0000
0000
0000
0001
0000
1000
0000
0010
0000
0000
0000
,
0001
0010
0100
0000
0001
0000
1000
0001
0100
0000
1000
0100
0010
0000
1000
0001
,
0100
0000
0010
0000
0001
1000
0010
0001
0100
0000
0010
0000
0100
0001
1000
0100
,
0010
0000
1000
0000
0100
1000
0010
0100
0001
0000
1000
0000
0001
0100
0010
1000
,
0001
0010
2000
0000
0000
0000
3200
0000
,
0000
0000
0320
0000
0000
2030
0000
0000
,
3001
0100
0020
0000
0000
0000
0000
0000
,
0000
2030
0000
3200
,
0000
0000
0301
0010
0001
0010
0001
0100
,
0010
1000
0100
0010
0100
0010
0001
1000
,
0010
0000
1000
0000
0010
0100
0001
0010
0001
0100
0001
0010
0100
0010
0001
0010
,
0100
1000
0001
0100
2002
0000
0000
0000
0000
0000
3003
0000
1000
0000
0001
0000
,
1000
0000
0000
0000
0001
0000
1000
0100
0001
0000
1000
0010
0001
0000
0100
0001
,
0000
0100
1000
0000
0010
0000
1000
0001
0010
0000
0100
1000
0001
0000
0010
0100
,
0000
0100
0010
0000
0001
0000
1000
0100
0001
0000
0010
1000
0100
0000
1000
0010
,
0000
0100
1000
0000
0010
0000
0100
0000
0010
0000
0100
0000
0001
0010
1000
0000
,
0100
1000
0100
1000
0001
0010
0100
1000
,
0100
0010
0001
1000
0100
1000
0010
0100
,
0010
0000
1000
0000
0100
1000
0100
1000
0100
0010
0001
0010
0001
0010
0100
1000
,
0001
1000
0100
0010
1000
0000
0001
0000
1001
0000
0000
0000
0100
0000
0010
0100
,
0000
0010
0100
0000
2002
0000
3003
0000
0000
0000
0202
0000
0000
0303
0000
0000
,
1001
0000
0000
0000
0100
0000
1000
0000
0001
0000
0010
0000
0100
1000
0000
0001
,
0100
1000
0110
0000
0100
0101
0000
0000
,
1001
0000
0100
1000
0001
0010
0100
1000
,
0001
0100
0010
0000
1001
0000
0000
0000
0101
0000
0101
0000
0000
0000
0100
0000
,
0110
0000
1001
0000
1010
1010
0000
0001
,
1000
0001
0110
0000
0101
0000
1001
0000
,
1001
0000
0220
0000
0000
0000
0330
1000
,
1001
0000
0000
0000
;
