
//----- song ID: lnns -----//
#TITLE:Nosferatu;
#ARTIST:清風明月(Drop×葉月ゆら);
#ARTISTTRANSLIT:Seifu-Meigetsu(Drop×Yura Hatsuki);
#GENRE:段位道場の課題曲;
#MUSIC:Nosferatu.ogg;
#BANNER:Nosferatu.png;
#BACKGROUND:Nosferatu-bg.png;
#CDTITLE:./CDTitles/NSD A3.png;
#SAMPLESTART:59.994;
#SAMPLELENGTH:15.000;
#SELECTABLE:YES;
#OFFSET:0.000;
#BPMS:0.000=200.000
,132.000=100.000
,148.000=200.000
,356.000=100.000
,364.000=200.000
;
#STOPS:;
#BGCHANGES:;
#FGCHANGES:;

//--------------- dance-single - ----------------
#NOTES:
     dance-single:
     :
     Beginner:
     4:
     0,0,0,0,0:
0000
0000
0000
0000
,
0000
0000
0000
0000
,
0000
0000
0000
0000
,
0000
0000
0000
0000
,
0000
0000
0000
0000
,
1000
0000
0000
0001
0000
0000
0100
0000
,
0000
1000
0000
0000
0001
0000
0100
0000
,
0020
0000
0000
0000
,
2030
0000
0000
3000
,
1001
0000
0000
0000
,
0110
0000
0000
0000
,
0101
0000
0000
0000
,
1000
0000
0001
0000
,
0100
0000
0010
0000
,
1000
0001
0100
0000
,
0010
0000
1000
0000
,
0002
0000
0000
0000
,
1003
0000
0100
0000
,
0010
0000
0000
0000
,
0001
0000
1000
0000
,
0001
0000
0000
0000
,
0100
0000
0010
0000
,
0100
0000
0000
0000
,
1000
0000
0001
0000
,
0200
0000
0300
0000
,
0001
0000
1000
0000
,
0001
0100
0010
0000
,
1000
0000
0001
0000
,
0200
0000
0300
0000
,
0001
0010
0100
0000
,
1000
0100
0010
0000
,
0001
0000
1000
0000
,
1001
0000
0100
0000
,
0110
0000
0010
0000
1000
0000
0001
1000
,
0001
0000
0100
0000
0001
0000
0100
0010
,
1000
0001
1000
0001
,
0100
0010
1000
0000
0001
0000
0100
0010
,
2000
3001
0000
0000
,
0220
0000
0000
0000
,
0000
0000
0000
0330
,
2002
0000
0000
0000
,
0000
0000
0000
3003
,
0010
0010
0001
0000
,
1000
1000
0100
0000
,
0010
0000
0200
0000
,
0320
0000
0000
0030
,
1000
0000
0010
0000
,
0100
1000
0001
0000
,
0100
0000
0001
0000
,
1000
0000
0000
0000
,
0001
0000
0010
0000
,
0100
0000
0000
0000
,
1000
0000
0001
0000
,
0100
0000
0000
0000
,
1001
0000
0100
0000
,
0010
0000
0001
0000
,
1000
0000
0001
0000
,
1001
0000
0000
0000
,
0100
0000
0000
0000
,
0001
0000
0000
0000
,
1000
0000
0001
0000
,
1000
0000
0100
0000
,
0010
0000
0000
0000
,
0000
0000
0000
0010
,
0000
0000
0000
0000
,
0000
0000
0100
0000
,
0000
0000
0000
0000
,
0000
0000
0001
0000
0000
0001
0000
0000
,
1000
0000
0000
1000
0000
0000
0001
0000
,
1000
1001
0000
0100
,
0000
0010
0000
0001
,
1000
0000
0100
0000
,
0001
0000
1000
0000
,
0001
0000
0100
0000
,
0010
0000
1000
0000
,
0001
0000
0100
0000
,
1000
0000
0000
0000
0001
0000
0000
0001
,
0000
1000
1000
1000
,
0000
0001
0000
0000
0001
0000
0001
0000
,
0100
1000
0000
0001
,
0000
0100
0000
0010
,
1000
0000
0001
0000
,
0100
0000
0010
1000
,
0000
0001
0000
1000
,
0000
0001
0000
0100
,
1000
0000
0001
0000
,
0100
0010
1000
0000
,
2002
0000
0000
0000
,
0000
0000
0000
0000
,
3003
0000
0000
0000
,
0100
0010
0100
0000
,
1000
0000
0001
0000
,
0100
0000
0010
0000
,
0001
0000
1000
0000
,
1001
0000
0000
0000
,
0110
0000
1000
0000
,
0001
0000
0100
0000
,
0010
0000
0001
0000
,
1000
0000
0000
0000
,
0001
0000
0000
0000
,
0100
0000
0000
0000
,
1000
0000
0001
0000
,
0100
0000
0010
0000
,
1001
0000
0100
0000
,
1000
0000
0001
0000
,
0100
0000
0010
0000
,
0001
1000
0001
0000
,
0100
0000
0010
0000
,
0001
0000
0100
0000
,
1000
0000
0001
0000
,
0100
0000
0010
0000
,
1001
0000
0000
0000
,
0000
0000
0000
0000
,
1000
1000
0000
0001
0001
0000
0100
0000
,
0020
0000
0000
0000
0000
0000
0000
0000
0000
0000
0031
0000
;

//--------------- dance-single - ----------------
#NOTES:
     dance-single:
     :
     Easy:
     9:
     0,0,0,0,0:
0000
0000
0000
0000
,
0000
0000
0000
0000
,
0000
0000
0000
0000
,
0000
0000
0000
0000
,
0000
0000
0000
0000
,
0001
0000
0000
1001
0000
0000
0010
0000
,
0000
0101
0000
0000
1000
0000
0010
0000
,
0200
0000
0000
0000
,
0302
0000
0000
0003
,
1001
0000
0100
0000
,
0010
0000
0001
0000
,
1010
0000
0100
0000
,
0001
0100
1000
0100
,
0010
0001
0100
0000
,
0001
1000
0010
0000
,
0100
1000
0001
0100
,
2000
0000
0000
0000
,
3001
0100
0010
0001
,
0100
0000
0001
0000
,
1000
0100
0001
0010
,
1000
0000
0100
0000
,
0010
0001
0100
1000
,
0010
0000
0100
0000
,
0001
0100
1000
0100
,
0020
0000
1030
0000
,
1000
0000
0001
0000
,
1000
0010
0100
0000
,
0001
0100
1000
0100
,
0020
0000
1030
0000
,
1000
0100
0010
0000
,
0001
0010
0100
0000
,
1000
0100
0001
0000
,
1001
0000
0010
0000
,
0110
0000
0100
0000
0001
0100
1000
0001
,
1000
0000
0010
0000
1000
0000
0010
0100
,
0001
0100
1000
0100
0001
0010
1000
0000
,
0010
0100
0001
0000
1000
0000
0010
0100
,
0002
1003
0000
0000
,
0220
0000
0000
0000
,
0000
0000
0000
0330
,
2002
0000
0000
0000
,
0000
0000
0000
3003
,
0100
0100
1000
0100
,
0001
0001
0010
1000
,
0100
1000
0020
0000
,
0230
0000
0000
0301
,
1010
0001
0100
0000
,
0010
0001
1000
0000
,
0010
0100
1000
0010
,
0001
1000
0001
0000
,
1000
0001
0100
1000
,
0010
0000
0100
0000
,
0001
0010
1000
0100
,
0010
0001
0100
0000
,
1001
1000
0010
0001
,
0100
0000
1000
0100
,
0001
0010
1000
0100
,
1001
0000
1000
0000
,
0010
1000
0001
0000
,
1000
0100
0010
0000
,
0001
0100
1000
0010
,
0001
1000
0010
0000
,
0100
0001
1000
0000
,
0001
1000
0001
0100
,
0000
0100
1000
0001
,
0100
1000
0010
0001
,
1000
0000
0001
0100
,
0010
0000
1000
0000
0000
1000
0000
0000
,
0001
0000
0000
0001
0000
0000
1000
0000
,
0001
1001
0000
0010
,
0000
0100
0001
1000
,
0001
0000
0010
0000
,
1000
0100
0001
0010
,
1000
0100
0010
0001
,
0100
0000
0001
0000
,
1000
0100
0010
1000
,
0001
0000
0100
0000
1000
0000
0000
1000
,
0000
0001
0001
0001
,
0000
1000
0000
0000
1000
0000
1000
0000
,
0010
0001
0100
1000
,
0000
0010
1000
0100
,
0001
0000
1000
0001
,
0010
1000
0100
0001
,
0010
1000
0000
0001
,
0010
1000
0100
0010
,
0001
0010
1000
0100
,
0010
0100
0001
0100
,
2002
0000
0000
0000
,
0000
0000
0000
0000
,
3003
0000
1000
0000
,
0010
0100
0010
1000
,
0001
0010
1000
0000
,
0010
0001
0100
0000
,
1000
0100
0001
0000
,
1001
0000
0100
0000
,
0110
1000
0001
0100
,
1000
0100
0010
0000
,
0100
0001
1000
0100
,
0001
1000
0001
0100
,
1000
0100
0001
1000
,
0010
0000
1000
0000
,
0001
0010
1000
0100
,
0010
0001
0100
0000
,
1001
0000
0010
0000
,
0001
0100
1000
0100
,
0010
0001
0100
0010
,
1000
0001
1000
0100
,
0010
1000
0100
0001
,
1000
0100
0010
1000
,
0001
0100
1000
0100
,
0010
0000
0000
0010
0000
0000
0100
0000
0000
0000
0000
0000
0000
0000
0000
0000
,
2002
0000
0000
3003
,
0000
0000
0000
0000
,
0001
0001
0000
1000
1000
0000
0010
0000
,
0100
0000
0000
0000
0010
0000
0000
0000
0001
0000
1001
0000
;

//--------------- dance-single - ----------------
#NOTES:
     dance-single:
     :
     Medium:
     12:
     0,0,0,0,0:
0000
0000
0000
0000
,
0000
0000
0000
0000
,
0000
0000
0000
0000
,
0000
0000
0000
0000
,
0000
0000
0000
0000
,
1010
0000
0000
1001
0000
0000
0100
0000
,
0000
1010
0000
0000
0001
0000
0100
0000
,
0020
0000
0000
0000
,
2030
0000
0000
3000
,
1001
0000
0100
1000
0010
0000
0001
0000
,
0100
0000
0001
0010
1000
0000
0100
0000
,
0101
0000
1000
0000
0010
0000
0001
0100
,
1000
0000
0010
0000
0001
1000
0010
0001
,
0100
0000
1000
0000
0010
0100
0001
0000
,
1000
0000
0001
0000
0100
1000
0001
0000
,
0010
0001
1000
0010
,
0002
0000
0000
0000
,
1003
0000
0100
1000
0010
0000
0001
0000
,
1000
0001
0100
0001
1000
0000
0001
0000
,
0100
1000
0001
1000
0010
0000
0001
0000
,
0010
1000
0100
0001
0010
1000
0001
0000
,
0100
0000
0010
0001
1000
0000
0010
0000
,
0100
0001
0010
0001
1000
0001
0100
0000
,
0010
0100
0001
0100
1000
0000
0001
0000
,
0100
1000
0010
0100
1000
0000
0010
0000
,
0100
0000
0010
0000
1000
0001
0100
0000
,
0010
0000
0100
0001
1000
0001
0100
0000
,
0010
0000
0001
0100
1000
0100
0001
0000
,
0010
1000
0001
1000
0010
1000
0100
0000
,
0010
0001
0100
0001
1000
0001
0100
0000
,
1000
0100
0001
1000
0010
0100
0001
0000
,
0100
0010
1000
0010
,
1000
0100
0001
0100
0010
1000
0100
0000
,
0110
0000
0000
0001
0000
0000
0001
0000
1000
0000
0010
0000
0001
0000
1000
0100
,
0001
0000
0010
0000
0100
0000
0000
1000
0000
0000
0001
0000
0100
0000
0010
0000
,
1000
0000
0010
0100
0001
0000
0010
0100
1000
0000
0000
0100
0000
0000
0001
0000
,
0100
0000
0010
0000
1000
0001
0100
0000
0001
0000
0010
0000
0100
0000
0010
0000
,
2000
3001
0000
0000
,
0002
0010
0100
1000
,
0010
0100
1000
0100
,
0203
0010
0001
1000
,
0001
1000
0001
0001
,
0310
0000
1000
0000
0001
0100
0010
0000
,
1000
0000
1000
0000
0100
1000
0001
0000
,
1000
0000
0001
0100
0000
0001
1000
0000
0001
0010
0000
1000
,
0001
0000
0010
0000
0100
0000
0002
0000
0000
1003
0000
0000
,
0101
0000
0010
0001
0100
0000
1000
0001
,
0100
0000
1000
0001
0010
0000
1000
0001
,
0100
0001
0010
1000
0100
0000
0010
0000
,
0001
1000
0100
1000
0001
1000
0100
0000
,
0001
0000
0010
0001
0100
0001
1000
0001
,
0100
0000
1000
0000
0100
0000
0010
1000
,
0001
1000
0010
1000
0100
0000
1000
0000
,
0010
1000
0100
0010
0001
1000
0100
0010
,
0001
0000
0010
0000
0001
1000
0010
0000
,
0100
0000
0010
0001
0100
0000
1000
0000
,
0010
1000
0100
0000
0001
0010
1000
0000
,
0010
0001
1000
0001
0100
0001
1000
0000
,
0001
0100
0010
0100
,
0001
1000
0010
0000
0001
0000
0100
0000
,
0010
1000
0100
0000
0001
0010
1000
0000
,
0100
0001
0010
0000
0100
1000
0010
0000
,
0001
0000
0010
1000
0100
0000
1000
0001
,
0100
0000
0010
1000
0001
0000
0100
0000
,
0001
1000
0100
0000
0001
0010
1000
0000
,
0010
0100
1000
0000
0010
0001
0100
0000
,
0010
1000
0100
0000
0001
1000
0010
0000
,
0100
1000
0001
1000
0000
0001
0100
0000
,
1000
0001
0000
1000
0001
0000
0001
0000
,
1000
0000
0100
0001
0000
0000
0010
0000
1000
0100
0000
0000
,
1000
0000
0001
0010
0000
0000
1000
0000
0010
0001
0000
0000
,
0010
0000
0100
0000
0010
0001
1000
0000
,
0010
0000
0100
1000
0001
1000
0100
0000
,
0001
0000
1000
0001
0010
0001
1000
0000
,
0010
0000
0100
1000
0010
0001
1000
0000
,
0100
0000
0010
1000
0001
0100
1000
0000
,
0001
0000
0010
1000
0100
0001
0000
1000
,
0010
0000
0100
1000
0010
0001
0100
0010
,
0000
0001
1000
0000
0001
1000
0100
0000
,
0001
1000
0010
0000
0001
0000
0100
0000
,
0010
0100
1000
0000
0001
0000
0100
1000
,
0010
0000
0100
0000
0010
0001
1000
0000
,
0001
0000
0010
0001
0100
0000
1000
0000
,
0100
0001
1000
0000
0010
0100
1000
0000
,
0010
1000
0100
0000
0001
1000
0010
0000
,
0001
1000
0100
0001
0010
1000
0100
0001
,
0010
1000
0010
0100
1000
0100
0010
0100
,
2002
0000
0000
0000
,
0000
0000
0000
3003
,
0100
0000
0000
1000
0001
0000
0100
0000
0001
0000
1000
0000
0010
0000
1000
0000
,
0100
0000
1000
0000
0010
0000
0001
0000
0100
0000
0000
0010
0001
0000
0000
0000
,
0010
0000
1000
0000
0001
1000
0010
0000
,
0001
0000
1000
0001
0100
0000
0010
0000
,
0001
0100
1000
0000
0001
0010
0100
0000
,
2002
0000
0000
3003
,
0101
0000
1000
0001
0100
0000
1000
0000
,
0010
1000
0100
0001
0010
0000
1000
0000
,
0100
1000
0010
0100
0001
0010
1000
0000
,
0100
1000
0010
0100
0001
0010
1000
0000
,
0100
0001
1000
0000
0010
0100
1000
0000
,
0100
0001
0010
0000
0100
1000
0010
0000
,
0101
0000
1000
0001
0010
0000
1000
0001
,
0100
0000
0010
1000
0001
0000
0010
1000
,
0100
0001
1000
0000
0100
1000
0010
0000
,
0001
1000
0010
0000
0100
0001
0010
0000
,
0001
1000
0100
0010
0001
0100
1000
0100
,
0001
1000
0010
0001
0100
1000
0010
0000
,
0001
0100
1000
0000
0001
1000
0010
0000
,
0100
0001
0010
0000
0100
1000
0010
0000
,
0001
1000
0100
0010
0001
1000
0010
0000
,
0100
0000
0000
0100
0000
0000
0010
0000
0000
0000
0000
0000
0000
0000
0000
0000
,
2002
0000
0000
3003
,
0010
0000
0100
0000
1000
0000
0001
0000
0100
0000
0001
0000
,
1000
1000
0000
0001
0001
0000
0100
0000
,
0010
0000
1000
0000
0100
0000
0001
0000
1000
0000
2002
0000
,
0000
0000
0000
0000
,
0000
0000
0000
0000
,
3003
0000
0000
0000
;

//--------------- dance-single - ----------------
#NOTES:
     dance-single:
     :
     Hard:
     17:
     0,0,0,0,0:
0000
0000
0000
0000
,
0000
0000
0000
0000
,
0000
0000
0000
0000
,
0000
0000
0000
0000
,
0000
0000
0000
0000
,
0101
0000
0000
1001
0000
0000
0110
0000
,
0000
1001
0000
0000
0101
0000
0110
0000
,
1001
0000
0000
0000
0000
0000
0001
1000
0001
0000
0000
0010
0000
0000
0100
0001
,
1000
0000
0000
0000
0010
0000
0000
0000
0100
0000
0000
0000
0001
0000
0000
0000
0010
0000
0000
0000
0100
0000
0000
0000
1000
0000
0000
0000
0010
0000
0000
0000
0100
0000
0000
0000
0001
0000
0000
1000
0000
0000
0001
0000
0000
1000
0000
0000
,
0001
0001
0001
0010
0010
0010
0100
0100
,
0100
1000
1000
1000
0100
0100
0100
0010
,
0010
1000
0001
0100
0010
1000
0001
0100
,
0010
1000
0100
0010
0100
0010
0001
0010
,
0100
1000
0001
1000
0010
0100
0010
1000
,
0010
0100
0001
0010
0001
0010
0100
1000
,
0001
0000
0000
0000
0100
0000
0000
0000
0010
0000
0000
0000
1000
0000
0000
0000
0100
0000
0000
0000
0010
0000
0000
0000
0001
0000
0000
0000
0100
0000
0000
0000
0010
0000
0000
0000
1000
0000
0000
0001
0000
0000
1000
0000
0000
0001
0000
0000
,
1000
0000
0000
0000
0010
0000
0000
0000
0100
0000
0000
0000
0001
0000
0000
0000
0010
0000
0000
0000
0100
0000
0000
0000
1000
0000
0000
0000
0010
0000
0000
0000
0100
0000
0000
0000
0001
0000
0000
1000
0000
0000
0001
0000
0000
1000
0000
0000
,
0001
0010
0001
1000
0001
0010
0100
1000
,
0100
1000
0001
1000
0010
0100
0010
1000
,
0100
0010
0100
1000
0100
1000
0001
0010
,
0100
0000
1000
0000
0001
0000
1000
0100
0010
0000
0100
0001
0010
0000
0100
1000
,
0001
1000
0010
1000
0010
1000
0100
0010
,
0001
1000
0010
0100
0010
0100
0001
0100
,
0001
1000
0001
1000
0100
1000
0100
0010
,
1000
0000
0000
0000
0010
0000
0000
0000
0100
0000
0000
0000
0001
0000
0000
0000
0010
0000
0000
0000
0100
0000
0000
0000
1000
0000
0000
0000
0010
0000
0000
0000
0100
0000
0000
0000
0001
0000
0000
1000
0000
0000
0001
0000
0000
1000
0000
0000
,
0010
1000
0010
0100
0010
1000
0001
0100
,
0001
1000
0100
1000
0001
1000
0010
0100
,
0010
0100
0001
1000
0001
1000
0001
0010
,
0100
0010
1000
0000
0001
0010
1000
0000
0100
0001
1000
0100
0010
0001
0100
0000
,
0001
0000
0100
1000
0010
0000
0100
0000
0001
0000
0010
1000
0100
0000
0010
0000
,
0100
0001
1000
0000
0010
0100
1000
0000
0010
0001
1000
0000
0100
0000
0010
0000
,
0002
0000
0000
0000
,
1003
0000
0000
0000
0010
0000
0000
0000
0100
0000
0000
0000
0001
0000
0000
0000
0010
0000
0000
0000
0100
0000
0000
0000
1000
0000
0000
0000
0010
0000
0000
0000
0100
0000
0000
0000
0001
0000
0000
1000
0000
0000
0001
0000
0000
1000
0000
0000
,
0001
0001
1000
1000
0001
1000
0001
1000
,
0001
0010
0100
0000
1000
0010
0100
0000
0001
0100
0010
0000
1000
0100
0010
0000
,
0001
0000
0100
0000
0001
0000
0100
0000
0010
0000
1000
0000
0010
1000
0010
0000
1000
0000
0100
0000
1000
0000
0100
0000
0010
0000
0001
0000
0010
0001
0010
0000
,
0001
0100
0010
0000
0100
0010
1000
0000
0100
0010
0001
0000
1000
0100
0010
0000
0100
1000
0010
0000
0100
0010
0001
0000
0010
0100
0001
0000
0010
1000
0100
0010
,
0001
1000
0001
0000
0100
0000
0000
0000
0000
0000
0000
0000
0002
0000
0000
0000
,
0103
1000
0100
1000
0100
0010
0001
0100
,
0001
0100
0010
0100
0001
0010
0001
0100
,
0010
0001
1000
0000
0010
0000
0100
0000
0001
1000
0100
0000
0001
0000
0010
0000
,
0001
0010
1000
0000
0100
0001
1000
0000
0001
0010
0100
0000
0001
0010
0100
0000
,
0001
0010
0001
0100
0010
1000
0010
1000
,
0001
0100
0001
1000
0100
0010
0100
0010
,
1000
0000
0000
0000
0010
0000
0000
0000
0100
0000
0000
0000
0001
0000
0000
0000
0010
0000
0000
0000
0100
0000
0000
0000
1000
0000
0000
0000
0010
0000
0000
0000
0100
0000
0000
0000
0001
0000
0000
1000
0000
0000
0001
0000
0000
1000
0000
0000
,
0001
0000
1000
0000
0001
0000
2000
0000
0000
3001
0000
0000
,
0110
0000
0001
0100
0001
0000
0010
0000
0100
0000
1000
0000
0001
0000
0100
0010
,
0100
0010
1000
0001
1100
0100
0110
0000
,
0001
0000
1000
0010
1000
0000
0001
0000
0010
0000
0100
0000
1000
0000
0010
1000
,
0010
0100
0001
1000
1010
0010
0110
0100
,
0101
0000
0001
0010
0001
0000
1000
0000
0001
0000
0100
0000
0010
0000
1000
0100
,
1000
0000
0001
0000
0100
0000
0001
0000
1000
0000
0010
0100
0010
0000
1000
0000
,
0020
0000
1000
2030
0000
0001
3002
0000
,
0100
0203
0000
0010
0310
0000
1001
0000
,
0110
0000
1000
0100
1000
0000
0001
0000
0100
0000
0010
1000
0010
0000
0100
0000
,
0001
0000
0010
0100
1000
0000
0001
0000
0101
0000
0100
0000
0110
0000
0000
0000
,
1000
0000
0001
0010
0001
0000
0100
0000
0010
0000
1000
0100
1000
0000
0001
0000
,
0100
0000
0010
1000
0001
0000
0010
0000
0110
0000
0100
0000
1100
0000
1000
0000
,
1001
0000
0010
0000
0001
0000
0001
0000
1000
0000
0010
0000
1000
0100
1000
0000
,
0010
0000
1000
0000
0010
0000
0010
0000
0100
0000
0001
0000
0100
0010
0100
0010
,
1000
0001
1000
0001
1000
0001
1000
0001
0010
0100
0010
0100
0010
0100
0010
0100
,
0000
0000
0110
0000
0000
0000
0000
0000
0011
0000
0000
0000
1100
0000
0001
1000
,
0100
1000
0100
0010
0001
1000
0010
0100
,
0010
0000
1000
0000
0100
0000
1000
0000
0100
0000
0010
1000
0001
0000
1000
0000
,
0100
0000
0010
0000
0100
0000
0010
0000
0100
0000
1000
0000
0010
0100
1000
0001
,
0100
0000
1000
0000
0010
0000
0100
1000
0010
0000
0100
0000
0001
0000
0010
0000
,
0100
0010
0100
1000
0001
0100
0010
0100
,
0001
0000
1000
0010
0001
1000
0010
0000
0100
0001
0010
0000
0100
1000
0010
0000
,
0001
0100
1000
0000
0010
0001
1000
0000
0001
0010
0100
0000
0010
0100
1000
0000
,
0100
1000
0010
0100
0001
1000
0001
0010
0001
0010
0100
1000
,
0001
1000
0010
1000
0001
0010
0001
0100
0010
0100
0001
0010
,
0010
1000
0000
0000
0001
0000
0100
0000
0000
0000
0001
0000
0100
0000
0010
0000
,
1000
0100
0000
0000
0010
0000
0001
0000
0000
0000
1000
0000
0100
0000
0010
0000
,
0001
0010
0000
0000
1000
0000
0010
0000
0001
0100
0000
0000
0001
0010
0000
0000
,
0000
0000
1000
0000
0010
0000
0001
0000
1000
0100
0000
0000
0001
0100
0000
0000
,
0010
0000
1000
0100
0010
0000
0001
0000
0100
0000
0001
0000
0010
0000
0100
0000
,
1000
0100
0010
0000
0100
0000
0100
0000
0010
0001
0100
0000
0010
0000
0010
0000
,
1000
0001
0010
0100
1000
0001
0100
0001
,
1010
0010
0110
0000
0101
0001
1000
0010
,
0100
0001
0100
1000
0001
0100
0010
1000
,
0001
1000
0010
0000
0100
0000
0100
0000
0001
1000
0100
0000
0010
0000
0010
0000
,
0100
1000
0100
0001
0010
1000
0010
0001
,
1000
0000
0010
0000
0100
0000
0001
0000
1000
0100
1000
0100
0010
0000
0000
0000
,
0010
0000
0001
0100
0010
0000
1000
0000
0100
0000
1000
0000
0010
0000
0100
0000
,
0001
0100
0010
0000
0100
0000
0100
0000
0010
1000
0100
0000
0010
0000
0010
0000
,
0100
0010
0001
0100
0001
1000
0100
1000
,
0001
0100
0001
0010
0001
1000
0100
0001
,
0220
0000
0000
0000
,
0000
0000
0000
0330
,
0002
0000
1000
0000
2003
0000
0000
0100
0000
0000
3100
0000
0020
0000
0000
0001
,
0000
0000
0031
0000
0200
0000
0000
0010
0000
0000
0310
0000
1000
0000
0100
0000
,
0100
0010
0001
1000
0100
1000
0010
0100
,
0010
1000
0010
1000
0001
1000
0001
0010
,
0001
1000
0010
0000
0100
0001
0010
0000
0100
0010
1000
0000
0100
0001
1000
0000
,
0020
0000
0000
1030
,
0110
0000
1000
0100
1000
0000
0001
0000
0100
0000
0010
1000
0010
0000
0100
0000
,
0001
0000
0010
0100
1000
0000
0001
0000
0101
0000
0100
0000
0110
0000
0000
0000
,
1000
0000
0001
0010
0001
0000
0100
0000
0010
0000
1000
0100
1000
0000
0001
0000
,
0100
0000
0010
1000
0001
0000
0010
0000
0110
0000
0100
0000
1100
0000
1000
0000
,
1001
0000
0010
0000
0001
0000
0001
0000
1000
0000
0010
0000
1000
0100
1000
0000
,
0010
0000
1000
0000
0010
0000
0010
0000
0100
0000
0001
0000
0100
0010
0100
0010
,
1000
0001
1000
0001
1000
0001
1000
0001
0010
0100
0010
0100
0010
0100
0010
0100
,
0000
0000
0110
0000
0000
0000
0000
0000
0011
0000
0000
0000
1100
0000
0001
1000
,
0100
1000
0100
0010
0001
1000
0010
0100
,
0010
0000
1000
0000
0100
0000
1000
0000
0100
0000
0010
1000
0001
0000
1000
0000
,
0010
1000
0001
0010
0001
1000
0100
0010
,
0100
0000
1000
0010
0001
0000
0010
0000
0001
0010
1000
0100
0001
0010
1000
0001
,
0100
0010
0100
0010
0001
0010
0100
1000
,
0001
0100
0001
1000
0001
1000
0100
0001
,
1000
0000
0000
0000
0010
0000
0000
0000
0100
0000
0000
0000
0001
0000
0000
0000
0010
0000
0000
0000
0100
0000
0000
0000
1000
0000
0000
0000
0010
0000
0000
0000
0100
0000
0000
0000
0001
0000
0000
1000
0000
0000
0001
0000
0000
1000
0000
0000
,
0001
0000
0000
1001
0000
0000
0220
0000
0000
0000
0000
0000
0330
0000
0000
0000
,
1000
0000
0000
0000
0010
0000
0000
0000
0100
0000
0000
0000
0001
0000
0000
0000
0010
0000
0000
0000
0100
0000
0000
0000
1000
0000
0000
0000
0010
0000
0000
0000
0100
0000
0000
0000
0001
0000
0000
1000
0000
0000
0001
0000
0000
1000
0000
0000
,
0001
0000
0100
0000
1000
0000
0001
0000
0100
0000
0010
0000
,
0011
0011
0000
0101
0101
0000
1000
0001
,
0010
0000
0010
0000
0010
0000
0100
0000
0100
0000
2002
0000
,
0000
0000
0000
0000
,
0000
0000
0000
0000
,
3003
0000
0000
0000
;
