#TITLE:NiRVANA;
#ARTIST:Tomoya Ohtani,Yeah Suzuka! by NAMCO Sound Team "Rio Hamamoto";
#GENRE:miHoYo×SEGA 2021真夏の歌合戦5番勝負;
#MUSIC:NiRVANA.ogg;
#BANNER:NiRVANA.png;
#BACKGROUND:NiRVANA-bg.png;
#CDTITLE:./CDTitles/Beat Square SUMMERY.png;
#SAMPLESTART:49.875;
#SAMPLELENGTH:15.000;
#SELECTABLE:YES;
#OFFSET:0.000;
#BPMS:0.000=200.000
,248.000=100.000
,264.000=200.000
,328.000=100.000
,344.000=200.000
;
#STOPS:;
#BGCHANGES:;
#FGCHANGES:;

//--------------- dance-single - ----------------
#NOTES:
     dance-single:
     :
     Beginner:
     3:
     0,0,0,0,0:
0000
0000
0000
0000
,
0000
0000
0000
0000
,
0000
0000
0000
0000
,
0000
0000
0000
0000
,
0000
0000
0000
0000
,
0000
0000
0000
0000
,
0000
0000
0000
0000
,
0000
0000
0000
0000
,
0000
0000
0000
0000
,
0000
0000
0000
0000
,
1000
0000
0000
0000
,
0001
0000
0000
0000
,
0010
0000
0000
0000
,
0100
0000
0000
0000
,
0010
0000
0000
0000
,
0100
0000
0000
0000
,
1000
0000
0000
0000
,
0001
0000
0000
0000
,
1000
0000
0000
0000
,
0001
0000
0000
0000
,
0100
0000
0000
0000
,
0010
0000
0000
0000
,
1000
0000
0000
0000
,
0001
0000
0000
0000
,
0010
0000
0000
0000
,
0100
0000
1000
0000
,
0001
0000
0000
0010
,
0100
0000
0000
1000
,
0001
0000
0000
0010
,
0100
0000
0000
0001
,
0010
0000
1000
0000
,
0001
0000
0100
0000
,
0010
0000
0000
0000
,
1000
0000
0000
0000
,
0001
0000
0000
0000
,
0010
0000
0000
0000
,
0100
0000
0000
0000
,
1000
0000
0000
0000
,
0001
0000
0010
0000
,
0100
0000
0001
0000
,
2000
0000
0000
0000
0000
0000
0000
3000
,
0000
0000
0000
0000
,
1001
0000
0100
0000
,
0010
0000
0000
0000
,
0001
0000
0010
0000
,
0100
0000
1000
0000
,
0001
0000
0100
0000
,
1000
0000
0000
0000
,
0010
0000
0001
0000
,
1000
0000
0000
0000
,
0010
0000
0100
0000
,
1000
0000
0000
0000
,
0010
0000
0001
0000
,
1000
0000
0000
0000
,
0100
0000
0001
0000
,
0100
0000
0000
0000
,
1000
0000
0100
0000
,
0010
0000
0000
0000
,
0001
0000
0000
0000
,
1000
0000
0000
0000
,
0001
0000
0000
0000
,
1001
0000
0000
0000
,
0010
0100
1000
0001
,
0100
0010
0001
1000
,
0001
0000
0100
0000
0001
1000
0001
0000
,
0100
0000
0010
0000
1000
0001
0100
0000
,
0100
0000
0010
0000
,
0001
0000
0000
0000
,
1000
0000
0001
0000
,
0100
0000
0000
0000
,
0010
0000
0100
0000
,
0010
0000
0001
0000
,
1000
0000
0000
0000
,
0001
0000
0000
0000
,
1000
0000
0001
0000
,
0100
0000
0000
0000
,
0010
0000
0100
0000
,
1000
0000
0000
0000
,
0001
0000
0000
0000
,
0100
0000
0000
0000
,
2000
0000
0000
0000
0000
0000
0000
3000
,
0000
0000
0000
0000
,
0001
0000
0010
0000
,
0100
0010
1000
0000
,
0001
0010
0100
0000
,
1000
0001
1000
0000
,
1001
0000
0100
0000
,
0010
0000
0001
0000
,
0100
0000
0010
0000
,
0001
0000
1000
0000
,
0001
0000
0010
0000
,
0001
0000
0100
0000
,
0010
0000
1000
0000
,
0100
0000
0010
0000
,
0001
0000
1000
0000
,
0100
0000
0010
0000
,
0001
0000
0000
0000
,
1000
0000
0000
0000
,
0001
0000
0010
0000
,
0001
0000
0000
0000
,
1000
0000
0001
0000
,
0100
0000
0000
0000
,
0010
0000
0100
0000
,
1000
0000
0000
0000
,
0001
0000
0000
1000
0000
0000
1000
0001
;

//--------------- dance-single - ----------------
#NOTES:
     dance-single:
     :
     Easy:
     7:
     0,0,0,0,0:
0000
0000
0000
0000
,
0000
0000
0000
0000
,
0000
0000
0000
0000
,
0000
0000
0000
0000
,
0000
0000
0000
0000
,
0000
0000
0000
0000
,
0000
0000
0000
0000
,
0000
0000
0000
0000
,
0000
0000
0000
0000
,
0000
0000
0000
0000
,
0010
0100
0010
1000
,
0100
0010
0100
0010
,
0001
0100
0001
0010
,
0100
0010
0100
0010
,
0001
0100
0010
1000
,
0001
0010
0100
1000
,
0010
1000
0100
1000
,
0001
0100
0010
0100
,
0020
0000
0000
0000
,
0230
0000
0000
0000
,
0302
0000
0000
0000
,
1003
0000
0100
0000
,
0002
0000
0000
0000
,
0013
0000
1000
0000
,
0002
0000
0000
0000
,
0013
0000
0000
0100
0000
0000
0010
0000
,
1001
0010
0100
0001
,
1000
0010
0100
0010
,
1000
0010
1000
0001
,
0100
0010
0100
0010
,
1000
0001
1000
0001
,
0100
0010
1000
0100
,
0010
0100
1000
0010
,
0100
0001
1000
0001
,
1000
0001
0010
0100
,
1000
0100
1000
0100
,
0010
0001
0010
0001
,
0100
0010
1000
0100
,
0010
0001
1000
0001
,
1000
0010
1000
0010
,
0100
0001
0100
0010
,
2000
0000
3000
0000
,
1001
0010
1000
0001
,
0100
0010
1000
0001
,
0100
0010
1000
0001
,
0100
0000
0010
0100
,
0001
1000
0001
0100
,
0010
1000
0001
0010
,
0100
0010
0001
1000
,
0001
0000
0100
0000
,
2000
3001
0010
0100
,
0001
1000
0001
0100
,
0010
1000
0001
0100
,
0010
0000
1000
0001
,
0100
0010
0100
0001
,
1000
0100
0010
0100
,
0001
0010
1000
0001
,
0100
0001
1000
0010
,
1001
0000
0010
0000
0100
0000
1000
0001
,
0000
1000
0000
0001
0000
0100
0000
2002
,
0000
0000
0000
3003
,
0010
0000
0100
0000
,
1000
0000
0001
0000
0100
0010
1000
0000
,
0001
0000
0010
0000
0001
1000
0001
0100
,
0010
1000
0001
0000
0100
0000
0010
0000
,
1000
0000
0001
0000
0010
0100
1000
0000
0001
0000
0010
0000
0100
0000
1000
0000
,
0001
0100
0010
0001
,
1000
0001
0100
0010
,
1000
0000
0001
0000
,
0100
0000
0010
1000
,
0001
0100
0010
1000
,
0001
0010
0100
1000
,
0001
0000
0100
0000
,
0010
0000
0100
0000
,
1000
0001
0100
0000
,
0010
0001
0100
0000
,
1000
0010
0100
0000
,
0010
0000
0100
0000
,
1000
0000
0000
0001
0000
0000
0100
0000
,
0000
1000
0000
0001
0000
0010
1000
0000
,
0010
0100
0001
1000
,
0002
0000
0000
0000
,
1003
0100
0010
0001
,
0001
0000
0000
0000
0100
0000
0000
0000
1000
0000
0001
0000
0010
1000
0001
0000
,
0010
0000
0000
0000
0100
0000
1000
0010
0001
0000
0000
0000
1000
0000
0000
0000
,
0001
0010
0100
0000
0002
0000
1003
0000
,
1001
0100
0010
1000
,
0001
0010
0100
0001
,
0010
0100
0001
1000
,
0001
0000
0100
0010
,
1000
0001
0100
0010
,
1000
0001
0100
0010
,
0100
0000
1000
0000
,
0001
0000
0100
0000
,
0001
0000
0100
0000
0001
0100
1000
0001
,
0000
1000
0000
0001
0000
0100
0000
0010
,
2002
0000
3003
0100
,
0010
0000
0000
0000
,
1000
0000
0001
0000
,
0010
0100
0001
0000
,
1000
0000
0001
0000
,
0100
0010
1000
0000
,
0001
0000
0010
0000
,
0001
1000
0010
0000
,
1000
0000
0000
0001
0000
0000
1000
0002
,
0000
0000
0000
0000
,
0003
0000
0000
0000
;

//--------------- dance-single - ----------------
#NOTES:
     dance-single:
     :
     Medium:
     12:
     0,0,0,0,0:
0000
0000
0000
0000
,
0000
0000
0000
0000
,
0000
0000
0000
0000
,
0000
0000
0000
0000
,
0000
0000
0000
0000
,
0000
0000
0000
0000
,
0000
0000
0000
0000
,
0000
0000
0000
0000
,
0000
0000
0000
0000
,
0000
0000
0000
0000
,
0001
0010
0100
0001
,
1000
0001
0100
0010
,
0100
1000
0001
0100
,
0010
0100
0001
1000
,
0001
0010
0100
0010
,
1000
0001
0010
0100
,
0001
1000
0001
0010
,
0100
0010
1000
0001
,
1002
0000
0000
0000
,
1003
0200
0000
0010
,
0302
0000
0000
0000
,
1003
0000
0100
0001
1000
0000
0010
1000
,
0002
0000
0000
1003
,
0100
0000
0010
0001
0100
1000
0010
0000
,
0002
0000
0000
0000
,
1003
0000
0000
0010
0000
0000
0001
0000
,
1001
0000
0010
0000
0100
0000
0001
0100
,
0001
0100
0001
0100
0001
0000
1000
0000
,
1001
0000
0010
0000
0001
0000
1000
0100
,
0010
0100
0010
0100
0010
0000
0100
0000
,
1001
0000
0001
0000
0100
0000
0010
1000
,
0010
1000
0010
1000
0010
0000
0100
0000
,
1001
0000
0100
0000
0010
0000
0100
0001
,
1000
0001
1000
0001
1000
0000
0001
0000
,
1001
1000
0010
0100
,
0001
0100
0000
0001
0100
0001
0100
0000
,
0010
0001
1000
0100
,
0010
0001
0000
0010
0001
0010
0001
0000
,
1000
0001
0100
0010
,
1000
0010
0000
1000
0010
1000
0010
0000
,
0100
0001
0010
0100
,
1000
0001
0000
1000
0000
0000
0000
0000
,
1000
0001
1000
0000
0010
0100
0010
0000
,
0001
1000
0000
0200
0000
0000
0000
0310
,
0000
0010
0001
0000
0100
0000
1000
0000
,
0001
0010
1000
0100
,
1000
0100
1000
0000
1000
0001
0000
0020
,
0000
0000
0100
0000
0100
0000
0100
0130
,
0000
0000
1000
0000
0001
0000
1000
0010
,
0000
0010
0100
0010
0200
0000
0301
2000
,
0000
3020
1000
0100
,
0100
0100
0100
1000
,
0130
0012
1000
0010
,
0010
0010
0010
0010
,
0013
1100
0001
1000
,
1000
0000
1000
0001
1000
0001
1000
0001
,
1000
0001
1000
0001
1000
0001
1000
0001
,
1000
0001
1000
0001
1000
0001
0100
0000
,
0010
0000
0002
0000
1003
0100
0000
1001
,
0000
0110
0000
0101
0000
1100
0000
0220
,
0000
0000
0330
1000
,
0001
0000
0100
0000
0010
1000
0001
0100
,
1000
0001
0000
0000
1000
0000
0001
0100
0000
0001
1000
0000
0100
0000
0000
0000
,
1000
0100
0010
0001
0010
0100
1000
0100
1000
0000
0010
0000
1000
0000
0100
0010
,
0001
1000
0010
0100
0001
0000
0100
0010
0100
0000
1000
0100
1000
0000
0001
0000
,
1000
0100
0010
0001
0010
0100
1000
0100
1000
0000
0100
0000
0010
0000
1000
0000
,
0001
1000
0000
0000
1000
0000
0001
0100
,
0000
0010
0001
0000
1000
0000
0001
0000
,
0010
0000
0001
0000
0010
0000
0100
0000
1000
0000
0100
0000
,
0010
0000
0001
0100
0001
0000
0010
0100
,
1000
0100
1000
0100
0010
0100
0010
0100
,
0001
0000
1000
0010
1000
0000
0001
0000
,
1000
0000
0000
0000
0000
0000
0010
0000
0000
1000
0000
0000
0010
0000
0000
0000
1000
0000
0000
0000
0010
0000
0000
0000
,
1000
0001
0100
0000
0010
1000
0100
1000
,
0001
0100
0010
1000
,
0100
0010
0100
0001
,
1000
0010
0100
0001
,
1000
0001
0010
0000
0100
0000
0010
0000
,
1000
0000
0001
0100
1000
0000
0001
0000
,
0010
0000
0100
0001
0010
0000
0100
0000
,
0110
0000
0000
1010
0000
0000
0010
0000
,
0110
0000
0000
0000
,
0002
0000
2003
0000
3200
0302
0203
0000
,
0310
0001
0100
0000
1000
0001
0100
0010
,
1000
0001
0100
0000
0010
0001
1000
0000
,
0001
0000
0010
0000
0100
1000
0001
0100
,
0002
0013
1000
0001
,
0010
0000
0100
0000
0010
0010
0000
0200
,
0000
0000
1300
0000
0001
0000
1000
0001
,
0000
0001
1000
0000
0001
0000
0001
0200
,
0000
0310
1000
0001
,
1000
0000
0100
0000
0010
0010
0000
0200
,
0000
0310
0001
1000
,
0001
0000
0100
0000
0010
0010
0000
2000
,
0000
3100
0001
0100
,
0010
0000
0001
0000
1000
1000
0000
0020
,
0000
0000
0130
0000
0001
0000
0010
0100
,
0000
0100
0000
0100
2000
0000
0000
0000
,
3001
0000
0100
0000
0010
1000
0010
0000
,
0100
0001
0000
0200
0000
0000
0000
0310
,
0000
1000
0001
0000
1000
0000
0100
0000
,
0010
0100
0000
0010
0000
0001
0000
1000
,
0001
0000
0010
0000
0100
0000
0001
1000
,
0001
0000
0010
0000
0000
0010
1000
0001
,
0000
0000
0000
1001
0000
0000
0100
0020
,
0000
0000
0000
0000
,
0030
0000
0000
0000
;

//--------------- dance-single - ----------------
#NOTES:
     dance-single:
     :
     Hard:
     16:
     0,0,0,0,0:
0000
0000
0000
0000
,
0000
0000
0000
0000
,
0000
0000
0000
0000
,
0000
0000
0000
0000
,
0000
0000
0000
0000
,
0000
0000
0000
0000
,
0000
0000
0000
0000
,
0000
0000
0000
0000
,
0000
0000
0000
0000
,
0000
0000
0000
0000
,
0001
1000
0100
1000
0010
0100
0010
1000
,
0001
0100
0001
0010
0001
1000
0100
0010
,
0001
0100
0001
1000
0010
1000
0001
1000
,
0010
0100
0001
1000
0001
0100
0001
0100
,
0010
1000
0001
1000
0010
0100
0010
0100
,
0010
1000
0001
1000
0100
0010
0100
0010
,
0001
1000
0001
1000
0100
0010
0100
1000
,
0010
0100
0010
0100
0001
1000
0001
0100
,
0010
1000
0002
0000
0000
0000
0010
0000
,
0000
0000
0000
0100
1003
0000
0000
0000
0000
0000
0001
0000
0010
0000
0000
0000
,
1000
0010
0200
0000
0000
0000
0000
0000
,
1300
0000
0000
0000
0001
0010
1000
0000
0000
0000
0010
0000
0000
0000
1000
0000
,
0001
0010
0200
0000
0000
0000
0000
0000
,
0000
0000
0000
0000
0310
0001
0000
0000
0000
0000
0001
0010
0000
0000
0000
0000
,
1000
0002
0000
0000
0000
0000
0000
0000
,
1003
0000
0100
0000
0010
0001
1000
0001
,
0001
0100
0001
1000
0010
0100
0010
1000
,
0010
0100
0001
0100
0010
1000
0001
0010
,
0100
1000
0100
1000
0100
0010
0001
0100
,
0001
0000
1000
0000
0000
0000
0001
0000
0100
0000
0000
0000
1000
0001
0100
0000
,
0010
0001
1000
0010
0100
0001
0100
0001
,
0010
0001
0100
0010
0100
0001
1000
0100
,
0010
0100
1000
0100
1000
0010
0100
0010
,
0000
0000
0001
0000
0100
0000
0010
0000
1000
0000
0000
0000
0001
0010
0001
0100
,
1000
0000
0100
1001
0000
0001
0110
0000
,
1000
0000
0010
0101
0000
1000
0101
0000
,
1010
0000
0001
0110
0000
1000
1010
0000
,
0100
0000
0001
0010
0000
0000
1000
0000
0001
0000
0010
0000
2000
0000
0000
0000
,
3001
0100
1000
0100
0010
0100
0010
0001
,
1000
0000
0001
0000
0100
0000
0010
0000
0100
1000
0010
0001
0100
1000
0001
0100
,
0010
0001
1000
0010
1000
0100
0010
0100
,
2002
0000
3003
0000
,
1001
0100
0010
0001
0010
0001
1000
0010
,
1000
0010
0100
0010
0100
0001
0010
0100
,
0010
0001
0100
0001
0010
0100
1000
0100
,
0010
0100
1000
0010
1000
0100
1000
0001
,
0100
0001
0010
0001
0100
0010
0100
0001
,
1000
0010
1000
0001
0100
0010
1000
0100
,
0010
0100
0010
0001
1000
0010
1000
0001
,
0100
0010
0100
0001
0100
0010
1000
0200
,
0000
0000
0310
0000
0100
1000
0100
1000
,
0100
0010
0001
1000
0001
1000
0010
1000
,
0010
0100
0001
0010
0100
1000
0001
0010
,
0100
1000
0001
0100
0010
0100
0001
1000
,
0010
0100
0001
1000
0100
1000
0100
0010
,
0001
0010
0001
0100
0001
0100
0010
0100
,
0001
0010
0001
0100
0010
1000
0010
1000
,
0010
0000
0100
0000
0001
0000
0010
0000
0001
0000
0010
1000
0100
0000
0002
0000
,
0000
0000
1003
0000
0001
0010
0000
1001
,
0000
0000
0110
0000
0000
0000
0101
0000
0000
0000
1010
0000
0000
0000
0001
1000
,
0200
0000
0000
0320
0000
0000
2030
0000
,
3002
0000
0000
0000
0000
0000
0000
0000
1003
0000
0100
1000
0100
0010
0001
0100
,
0020
0000
0000
0000
1030
0100
0002
0000
2003
0000
3001
0000
0020
0000
1000
0000
,
0230
0000
0000
0000
0000
0000
0000
0000
0302
0000
0000
0000
1003
0000
0100
0000
0020
0000
0000
0000
2030
0000
0000
0000
3010
0000
0000
0000
0001
0010
0001
0010
,
2001
0000
3200
0000
0320
0000
2030
0000
3002
0000
0103
1000
0100
0010
0001
1000
,
0020
0000
0000
0000
1030
0100
0010
1000
0002
0000
2003
0000
3200
0000
0301
0010
,
0001
0100
1000
0010
1000
0010
0100
0010
,
1000
0001
1000
0001
0010
0001
0100
0010
,
1000
0100
0010
0100
0010
0001
0010
0001
,
0100
0000
0010
0000
0100
0000
0001
0000
0000
0000
0000
0000
1000
0001
0100
0010
,
0002
0000
1003
0010
1000
0100
1000
0100
,
1000
0010
0100
0001
0100
0001
0100
0010
,
1000
0010
1000
0010
0100
0001
0100
0010
,
1000
0000
0001
0000
0010
0000
0100
0000
1000
0000
0010
0000
0100
1000
0010
0100
,
0001
0000
0000
0000
1000
0000
0001
0000
1000
0100
0010
0000
0001
0000
0010
0000
,
1000
0000
0010
1001
0000
0010
1010
0000
,
0001
0010
0000
1000
0001
0000
0010
0100
,
0000
0000
1000
0001
0100
0000
0010
0000
0100
0000
0001
0000
1000
0001
0100
0010
,
0100
1000
0100
0010
0001
1000
0001
0100
,
0001
0000
0010
0000
0100
0000
1000
0000
0001
0010
1000
0100
0001
0010
1000
0001
,
0100
0010
0100
1000
0100
0010
0001
0010
,
2002
0000
3003
0000
,
0100
0010
0100
1000
0010
0100
0001
1000
,
0010
0001
0100
0000
0001
0000
0010
0000
0100
1000
0010
0100
0001
0000
0100
0000
,
0010
0000
1000
0000
0010
0001
0100
0000
0001
0000
0100
1000
0001
0000
0010
0000
,
0100
0001
1000
0010
0100
0010
1000
0100
0001
1000
0001
0010
1000
0001
0010
0001
,
1000
0000
0010
0100
1000
0000
0000
0000
0010
0000
1000
0000
0001
0000
0010
0000
,
0001
1000
0001
1000
0010
1000
0001
0010
,
0100
0010
0100
1000
0100
0010
0001
0100
,
0001
0010
0100
1000
0010
1000
0100
0010
,
0001
1000
0100
1000
0010
1000
0100
0010
,
0001
1000
0010
1000
0001
0010
0001
0010
,
0001
0100
0010
0100
0001
1000
0010
0100
,
0001
0000
1000
0000
0001
0000
0100
0000
0010
0000
1000
0100
0001
0000
1000
0000
,
0000
0000
0110
0000
1000
0001
0000
0110
,
0000
0000
0101
0000
0000
0000
1001
0000
0000
0000
0110
0000
0000
0000
0001
1000
,
0002
0000
0000
1003
0000
0000
0110
0000
,
1001
0000
0000
0000
0000
0000
0000
0000
0001
0010
0001
0010
0100
1000
0100
1000
,
0100
0010
0100
0001
0100
0010
1000
0001
,
1000
0010
1000
0100
0010
0100
0010
0100
,
1000
0010
1000
0100
1000
0001
0010
0100
,
0010
0100
1000
0010
0100
0010
0100
0001
,
0100
0001
1000
0001
0010
0100
1000
0001
,
0100
0010
1000
0001
0010
0001
0100
0001
,
0010
0000
0000
1001
0000
0000
0101
2020
,
0000
0000
0000
0000
,
3030
0000
0000
0000
;
