#TITLE:Never Be Alone;
#ARTIST:Newlisk;
#GENRE:ナムコオリジナル;
#MUSIC:Never Be Alone.ogg;
#BANNER:Never Be Alone.png;
#BACKGROUND:Never Be Alone-bg.png;
#CDTITLE:./CDTitles/NSD A3.png;
#SAMPLESTART:44.778;
#SAMPLELENGTH:15;
#SELECTABLE:YES;
#OFFSET:-0.000;
#BPMS:0.000=150.000
,87.000=300.000
,87.500=99.000
,88.000=150.000
;
#DISPLAYBPM:150:150;
#STOPS:;
#BGCHANGES:;
#FGCHANGES:;

//--------------- dance-single - ----------------
#NOTES:
     dance-single:
     :
     Beginner:
     3:
     0,0,0,0,0:
0000
0000
0000
0000
,
0000
0000
0000
0000
,
0000
0000
0000
0000
,
0000
0000
0000
0000
,
0000
0000
0000
0000
,
0000
0000
0000
0000
,
0001
0000
0000
0000
,
1000
0001
0100
0000
,
1000
0100
0010
0001
,
1001
0000
0000
0000
,
0010
0100
1000
0000
,
0001
1000
0001
0000
,
0100
0000
0010
0000
0100
0000
0000
0001
,
0000
1000
0000
0001
0000
0000
0000
0000
,
1000
0000
0001
0000
,
0100
0010
0001
0000
,
1000
0000
0000
0000
0001
0000
0000
0100
,
0000
1000
0000
0001
0000
0000
0000
0000
,
0010
0000
0100
0000
,
0010
0000
0100
0000
,
1000
0000
0001
0000
,
0010
0100
0010
0000
,
1000
0000
0001
0000
,
0010
0000
0100
0000
,
1000
0001
0100
0000
,
0010
0000
0100
0000
,
2002
0000
0000
0000
,
0000
0000
3003
0000
,
1001
0000
0000
0000
,
0000
0000
0000
0000
,
1001
0000
0000
0000
,
0000
0000
0000
0000
,
0110
0000
1000
0000
,
0001
0000
0010
0000
,
0100
1000
0001
0000
,
0010
0100
1000
0001
,
2000
0000
3000
0000
,
0010
0000
0100
0000
,
0010
0000
1000
0001
0100
0000
0000
0000
,
0010
0000
0001
0000
,
1000
0000
0001
0100
0010
0000
0000
0000
,
1000
0000
0001
0000
,
0010
0000
1000
0001
0100
0000
0000
0000
,
0001
0000
1000
0000
,
0002
0000
0000
0000
,
1003
0000
0000
0000
,
0001
0000
0000
0000
,
0100
0000
0000
0000
,
1000
0000
0000
0000
,
0001
0000
0010
0000
,
0100
0000
1000
0000
,
0001
1000
0001
0100
,
1000
0000
0000
0000
,
0001
0010
0100
0000
,
1000
0001
0100
0000
,
0010
0100
0010
0000
,
1000
0001
0100
0000
,
0010
0100
0010
0000
,
1000
0001
0100
0000
,
0010
0000
0100
0000
,
0010
1000
0001
0000
,
0100
0000
0000
0000
,
0001
0000
1000
0000
,
0001
0010
0100
0000
,
1000
0100
0010
0000
,
0001
1000
0001
0000
,
0010
0100
0010
0000
,
1000
0000
0001
0000
,
0010
0100
1000
0000
,
0001
0000
0001
0000
,
0010
0000
0000
0000
,
0001
0000
0001
0000
,
0100
0000
0000
0000
,
0001
0000
0001
0000
,
0010
0000
0000
0000
,
0001
0000
0001
0000
,
0100
0000
0000
0000
,
1001
0000
0000
0000
;

//--------------- dance-single - ----------------
#NOTES:
     dance-single:
     :
     Easy:
     6:
     0,0,0,0,0:
0000
0000
0000
0000
,
0000
0000
0000
0000
,
0000
0000
0000
0000
,
0000
0000
0000
0000
,
0000
0000
0000
0000
,
0000
0000
0000
0000
,
0001
0100
0010
1000
,
0001
0010
0100
1000
,
0100
1000
0010
0000
0100
0001
1000
0000
,
2000
0000
0000
3000
,
0001
1000
0010
0100
,
0010
0000
0100
0000
0001
0000
0010
1000
,
0001
0000
0010
0000
0001
0000
0100
0001
,
0000
0010
0000
1000
0001
0000
0010
0000
,
0001
1000
0010
0000
0100
0000
1000
0000
,
0100
0001
0010
0000
0100
0000
1000
0000
,
0010
0100
1000
0000
0100
0000
1000
0001
,
0010
0100
0010
0100
,
0010
1000
0001
1000
,
0001
0010
0100
2000
,
3100
0001
0010
0000
0001
0000
1000
0000
,
0010
0100
1000
0000
0100
0001
0010
0000
,
0001
0000
1000
0000
0001
0100
1000
0000
,
0001
0000
0010
0001
0100
0000
0010
0000
,
0001
0100
1000
0000
0001
0010
0100
0000
,
0010
1000
0010
0100
,
2002
0000
0000
0000
,
0000
0000
3003
0000
,
0010
0000
0000
0100
0000
0000
1000
0000
,
0000
0000
0001
0100
,
0010
0000
0000
1000
0000
0000
0001
0000
,
0000
0000
0010
0100
,
0001
0000
1000
0000
,
0100
0000
0010
0000
,
0001
0010
0100
0000
,
1000
0001
0100
0010
,
2002
0000
3003
0000
,
0010
0001
1000
0001
,
0100
0010
0100
0010
,
0001
1000
0001
0100
,
0010
0000
0100
0000
0001
0100
1000
0000
,
0001
0010
0001
1000
,
0001
0100
0010
0100
,
0001
1000
0001
0010
,
0200
0000
0000
0300
,
0001
0010
0100
0001
,
1000
0001
0100
0010
,
1001
0100
0010
1000
,
0001
0100
0010
0010
,
0101
1000
0100
0010
,
1001
0001
0100
0010
,
1000
0001
0100
0000
0010
0100
1000
0000
,
1001
0000
0000
0000
,
0001
0000
1000
0000
0100
0010
1000
0000
,
0001
1000
0010
0100
,
0001
0010
0100
1000
,
0100
0000
0010
0000
0001
0010
0001
0000
,
1000
0000
0001
0000
0100
0001
0000
0000
,
0010
0100
1000
0001
,
0100
1000
0010
0000
0100
1000
0001
0000
,
1000
0100
1000
0000
0001
0100
1001
0000
,
0000
0000
0000
0000
,
0010
0010
0010
0010
0000
0000
1000
0000
,
0001
1001
0100
0001
,
0010
0001
0100
0010
,
1000
0000
0100
0000
1000
0001
1000
0000
,
0001
0010
0100
0001
,
0010
0000
0100
0000
1000
0000
0000
0001
,
0000
0100
0000
0010
,
0110
1001
1000
0100
,
0001
0000
0100
0010
0000
0010
1000
0001
,
1000
0000
0001
0010
1000
0000
0100
0000
,
0100
0000
0001
1000
0010
0000
1000
0100
,
1000
0000
0010
0100
0010
0000
0100
0001
,
0100
0000
0100
0000
1000
0010
1000
0100
,
0010
0000
1000
0100
0010
0000
1000
0000
,
0001
0000
0001
0100
0010
0000
0010
0000
,
2002
0000
0000
0000
,
3003
0000
0000
0000
;

//--------------- dance-single - ----------------
#NOTES:
     dance-single:
     :
     Medium:
     12:
     0,0,0,0,0:
0000
0000
0000
0000
,
0000
0000
0000
0000
,
0000
0000
0000
0000
,
0000
0000
0000
0000
,
0000
0000
0000
0000
,
0000
0000
0000
0000
,
0001
0010
0100
0001
,
1000
0001
0100
0010
0100
1000
0002
0000
,
1003
0100
0010
1000
0001
0100
1000
0001
,
0010
0100
1000
1001
,
1000
0100
0001
0100
1000
0100
0001
0100
,
1000
0100
0001
0100
1000
0000
1001
0000
,
0001
0100
1000
0100
0001
0100
1000
0100
,
0000
0100
0000
0100
0001
0000
1001
0000
,
0010
0001
0100
0001
0010
0001
0100
0001
,
0010
0001
0100
0001
0010
0000
0110
0000
,
0100
1000
0010
1000
0100
1000
0010
1000
,
0100
1000
0010
1000
0100
0000
0110
0000
,
0002
0013
0200
1300
,
0002
0000
0103
0000
0020
0000
1030
0100
,
0001
1000
0001
1000
0001
1000
0001
0000
,
1000
0001
1000
0001
1000
0000
1001
0000
,
0010
1000
0100
0000
0010
0001
0100
0000
,
0010
0100
0010
0000
0010
0100
0000
0100
,
0001
1000
0010
0000
1000
0001
0010
0000
,
0001
0010
0100
1000
,
2002
0000
0000
0000
,
3003
0000
0000
0000
,
0002
0000
0000
0023
0000
0000
0230
0000
,
1300
0000
0000
1000
0001
0100
1000
0001
,
0020
0000
0000
0230
0000
0000
2300
0000
,
3001
0000
0000
0001
1000
0100
1000
0001
,
0110
1000
0001
0100
,
0010
0100
1000
0001
,
0100
0010
1000
0001
0100
0000
0010
0000
,
0100
1000
0001
0100
0010
0000
1000
0000
,
2002
0000
3003
0000
,
0001
1000
0001
0100
1000
0100
0000
0100
,
0010
0000
0001
0100
0000
1000
0100
0000
,
0010
1000
0100
0001
0010
0001
0100
0100
,
0000
0010
0100
0010
0000
0010
0100
0000
,
1000
0001
1000
0010
0001
0010
0000
0010
,
0100
0000
1000
0010
0000
0001
0010
0000
,
0100
0001
0010
0000
0100
1000
0010
0010
,
0000
0100
0010
0100
0000
0100
0010
0000
,
2001
0001
0100
0100
,
0001
0100
3001
0000
,
1002
1000
0100
0100
,
1000
0100
1003
0000
,
0010
0011
0010
1010
,
0100
0101
0100
1100
,
0010
1000
0010
1000
0001
0100
0001
0100
,
0001
0000
0110
1001
,
1000
0010
1000
0010
0100
0100
0000
0001
,
1000
0000
0001
0010
0000
0001
0100
0000
,
0001
0010
1000
0010
0001
0100
0010
1000
,
0000
0000
1000
0000
0010
0000
0001
0000
0010
0000
0000
1000
0000
0000
0001
0000
,
1000
0100
1000
0100
0010
0010
0000
0001
,
0100
0000
0001
0010
0000
0010
0100
0000
,
1000
0010
0001
0010
1000
0100
0010
0001
,
0000
0001
0010
0100
1000
0000
1001
0000
,
0000
0000
0000
0000
,
0010
0100
0100
0100
0010
0010
0010
0010
,
0000
0001
1000
0001
0000
0100
0100
0000
,
0001
0010
0100
0010
0001
0010
0100
0200
,
0000
0010
0010
0310
0000
0110
0110
0000
,
0000
1001
1001
0000
0100
0010
1000
0100
,
0000
0010
0100
1000
0100
0010
0100
0000
,
1000
1000
0010
0010
0100
0100
0001
0001
,
0001
0100
0010
0000
0000
1001
0000
0000
,
1001
0000
1001
0000
0100
0010
0000
0010
,
1000
0001
1000
0000
0000
0110
0000
0000
,
0110
0000
0110
0000
0001
1000
0010
0000
,
1000
0100
1000
0100
0010
0100
0010
0001
,
0100
0001
0100
0001
0100
0010
1000
0010
,
1000
0100
0010
0001
1000
0100
0010
0001
,
1000
0000
0001
0000
0001
0100
0010
0000
,
2002
0000
0000
0000
,
3003
0000
0000
0000
;

//--------------- dance-single - ----------------
#NOTES:
     dance-single:
     :
     Hard:
     16:
     0,0,0,0,0:
0000
0000
0000
0000
,
0000
0000
0000
0000
,
0000
0000
0000
0000
,
0000
0000
0000
0000
,
0000
0000
0000
0000
,
0000
0000
0000
0000
,
0001
0010
0100
1000
,
0001
0100
0010
1000
0001
0100
0010
0000
,
1000
0001
1000
0001
1000
0001
1000
0001
1000
0001
1000
0001
1000
0001
1000
0001
,
1000
0000
0000
0000
0010
0000
0000
0000
0100
0000
1000
0100
1000
0000
0000
0000
,
0001
0000
0010
0000
0001
0000
0010
0000
0001
0000
1000
0000
0010
0000
0100
1000
,
0001
0000
0100
0000
0001
0000
1000
0000
0010
0000
1000
0001
0100
0000
0010
1000
,
0001
0000
0010
0000
0001
0000
0100
0000
0001
0000
0010
1000
0100
0000
1010
0000
,
0000
0000
0110
0000
0000
0000
0001
1000
0010
0000
1000
0000
0010
0000
1000
0000
,
0001
0000
0010
0000
0100
0000
1000
0000
0001
0000
0010
0100
0001
0000
1000
0000
,
0010
0000
0100
1000
0001
0000
1000
0100
0001
0000
0100
1000
0010
0000
0100
0000
,
0010
0000
0100
1000
0100
0000
0010
0000
0001
0000
0010
1000
0001
0000
0100
0000
,
1000
0001
0000
0100
0000
0010
1100
0000
,
2001
0000
0000
0000
3100
0000
0010
0000
0100
0000
1000
0001
0000
0000
0200
0000
,
0000
0000
1300
0000
0001
0000
0010
0100
1000
0000
0001
0000
1000
0100
1000
0100
,
1000
0000
0010
0000
0001
0000
0100
0000
0010
0000
0100
1000
0010
0000
0100
0010
,
0001
0000
0000
0000
0000
0000
1000
0000
0000
0001
0000
0000
0010
0000
0000
0000
0000
0000
0100
0000
0000
1000
0000
0000
0001
0000
0000
0000
0010
0000
0000
0000
1000
0000
0000
0000
0200
0000
0000
0000
0000
0000
0000
0000
0000
0000
0000
0000
,
0310
0000
1000
0000
0001
0000
0100
1000
0001
0000
1000
0000
0001
0000
0100
1000
,
0010
0000
1000
0001
0100
0000
0010
0000
0100
1000
0100
1000
0100
0000
1000
0000
,
0010
0000
1000
0000
0001
0000
1000
0000
0100
0000
0010
1000
0001
0000
0100
0000
,
0002
0000
0000
1003
0000
0000
0000
0000
0000
2000
0000
0000
3100
0000
0001
0000
0010
0000
0200
0000
0000
0300
0000
0000
,
2002
0000
0000
0000
,
0000
0000
3003
0000
,
0002
0000
0000
0023
0000
0000
0230
0000
,
1300
0000
0000
1000
0001
0100
1000
0001
,
0020
0000
0000
0230
0000
0000
2300
0000
,
3001
0000
0000
0001
1000
0100
1000
0001
,
0110
0011
1100
1001
,
0110
0000
0001
0100
1000
0001
0100
0001
,
1000
0011
1000
1010
,
0001
0100
1000
0001
0100
0010
0100
1000
,
2002
0000
0000
3003
,
0100
0000
0001
0000
1000
0000
0001
0100
0000
0000
0010
0000
0100
0000
1000
0000
,
0100
0002
0000
2003
0000
3002
0000
1003
,
0100
0000
1000
0000
0001
0000
0100
1000
0000
0000
0010
0000
0100
0000
1000
0000
,
0001
0000
0100
0000
1000
0000
0001
0000
0100
0000
0010
0001
0100
0000
1000
0000
,
0100
0000
0001
0000
1000
0000
0001
0100
0000
0000
0010
0000
0100
0000
1000
0000
,
0100
0002
0000
2003
0000
3002
0000
1003
,
0100
0000
1000
0000
0001
0000
0100
1000
0000
0000
0010
0000
0100
0000
1000
0000
,
0001
0000
0100
0000
1000
0000
0001
0000
0100
0000
0010
0001
0100
0000
1000
0000
,
0001
0010
0100
1000
,
0001
0000
0100
0000
0010
0000
0100
1000
,
0001
0100
0010
0100
,
0001
0010
0001
0110
,
1000
0001
0100
0010
0100
0001
1000
0001
,
0100
1000
0001
0100
0010
0100
1000
0001
,
1000
0001
1000
0001
1000
0001
1000
0001
1000
0001
1000
0001
1000
0001
1000
0001
,
2000
0000
0000
3001
,
0110
0000
0001
0000
0101
0000
0001
0000
1001
0000
0100
0000
1000
0000
0010
0100
,
0010
1000
1100
0010
0001
0100
1001
0000
,
0101
0100
1100
0100
0101
0010
1010
0010
,
0001
0000
1000
0100
1000
0000
0001
0000
0100
0000
0010
0100
0010
0000
1000
0000
,
1001
0000
0100
0000
0110
0000
0001
0000
0011
0000
1000
0000
0100
0000
1000
0010
,
1000
0001
0011
0100
1000
0001
1001
0100
,
1010
0010
0011
0010
1010
0100
0101
1001
,
0100
0000
0001
0010
0100
0000
1000
0000
0000
0000
0010
0000
1001
0000
0000
0000
,
0120
0000
0000
0000
0000
0000
0000
0000
0000
0000
0030
0000
0000
0000
1000
0100
,
0110
0000
1001
0000
0011
0000
1001
0000
1100
0000
0110
0000
1000
0000
0001
0100
,
0001
0000
0110
0000
1000
0000
0100
0010
1001
0000
0000
0000
0101
0000
0100
0000
,
1010
0000
0010
0000
1100
0000
1000
0000
0011
0000
0001
0000
0101
0000
1000
0010
,
1000
0001
0010
0100
1000
0100
0001
0100
1000
0100
0001
0100
0000
0000
1000
0100
,
0011
0000
0100
0000
0110
0000
1010
0000
0101
0000
0100
0001
0100
0000
1000
0000
,
0010
0000
0110
0000
0000
0000
0001
0100
1000
0000
0001
0010
1000
0100
0010
0100
,
1000
0000
0001
0100
0010
0100
0001
0000
1001
0000
0100
0000
1001
0000
0001
0100
,
0010
0000
0100
0000
1001
0000
0000
0000
0001
0000
1000
0100
1000
0000
0100
0000
,
0010
0000
0100
0000
1001
0000
0000
0000
0001
0000
1000
0010
1000
0000
0010
0000
,
1000
0000
0001
0000
0110
0000
0000
0000
0001
0000
0100
0001
0100
0000
0010
0000
,
1000
0001
0110
0000
1000
0200
0000
1300
,
0001
0000
0100
0000
1001
0000
0100
0010
0100
0000
1001
0000
0010
0000
1000
0000
,
1001
0000
0100
0000
1001
0000
0010
0100
0010
0000
1001
0000
0010
0000
1001
0000
,
1000
0100
0010
0000
1001
0000
0001
0100
0010
0000
1001
0000
0001
0000
1000
0001
,
1000
0000
0010
0000
0100
1000
0001
0000
0100
0000
0020
0000
1000
0000
0000
0000
,
0230
0000
0000
0000
,
0300
0000
0000
0000
;
