
//----- song ID: neko -----//
#TITLE:ネコちゃんです!;
#ARTIST:ナマケモノP@raw_beast;
#TITLETRANSLIT:Neko-chan Desu!;
#ARTISTTRANSLIT:Namakemono P@raw_beast;
#GENRE:けものフレンズ;
#MUSIC:Neko-chan Desu!.ogg;
#BANNER:Neko-chan Desu!.png;
#BACKGROUND:Neko-chan Desu!-bg.png;
#CDTITLE:./CDTitles/NSD A3.png;
#SAMPLESTART:10.837;
#SAMPLELENGTH:15.000;
#SELECTABLE:YES;
#OFFSET:0.000;
#BPMS:0.000=80.000
,12.000=130.000
,113.000=153.000
,118.000=144.000
,182.000=288.000
;
#STOPS:112.000=0.909;
#BGCHANGES:;
#FGCHANGES:;

//--------------- dance-single - ----------------
#NOTES:
     dance-single:
     :
     Beginner:
     2:
     0,0,0,0,0:
0000
0000
0000
0000
,
0000
0000
0000
0000
,
0000
0000
0000
0000
,
0000
0000
0000
0000
,
1001
0000
0000
0000
,
0100
0000
0000
0000
,
0010
0000
0000
0000
,
0100
0000
0000
0000
,
0001
0000
1000
0000
,
0001
0000
0100
0000
,
1000
0000
0001
0000
,
0200
0000
0300
0000
,
0010
0000
0010
0000
,
0100
0000
0100
0000
,
1000
0000
0001
0000
,
0100
0000
0010
0000
,
1000
0000
0001
0000
,
0100
0000
0010
0000
,
1000
0000
0001
0000
,
0010
0000
1000
0000
,
0001
0000
0010
0000
,
0100
0000
1000
0000
,
0001
0000
0010
0000
,
0100
0000
0001
0000
,
1000
0000
0001
0000
,
0100
0000
0010
0000
,
0100
0000
0001
0000
,
0100
0000
0010
0000
,
1001
0000
0000
0000
,
0000
0000
0010
0000
,
0100
0000
1000
0000
,
0001
0000
0010
0000
,
0100
0000
1000
0000
,
0001
0000
0010
0000
,
0100
0000
0001
0000
,
0010
0000
0001
1000
,
0001
1000
0001
0000
,
0010
0000
1001
0000
,
0100
0000
0010
0000
,
0001
0000
1000
0000
,
0001
0000
0010
0000
,
0100
0000
0100
0000
,
0010
0000
0001
0000
,
1000
0000
0001
1000
,
0001
1000
0001
0100
,
0010
0000
2002
0000
,
0000
0000
0000
0000
,
0000
0000
0000
0000
,
0000
0000
0000
0000
,
3003
0000
0000
0000
;

//--------------- dance-single - ----------------
#NOTES:
     dance-single:
     :
     Easy:
     5:
     0,0,0,0,0:
0000
0000
0000
0000
,
0000
0000
0000
0000
,
0000
0000
0000
0000
,
0000
0000
0000
0000
,
0001
0010
0100
0001
,
1000
0001
0200
0300
,
0001
1000
0100
0001
,
0100
0010
0002
0003
,
1000
1100
0010
0011
,
0100
1100
0010
0011
,
1000
0001
1000
0001
,
1000
0100
0010
0000
,
1000
0100
0010
1000
,
0001
1000
0020
0030
,
1000
0001
0010
1000
,
0010
0100
2000
3000
,
0001
0011
0100
1100
,
0010
0011
0100
1100
,
0001
1000
0001
1000
,
0001
0010
0100
0000
,
0001
0010
0100
0001
,
1000
0001
0200
0300
,
0001
1000
0100
0001
,
0100
0010
0002
0003
,
1000
1000
0010
0001
,
0100
1000
0010
0001
,
1000
0001
1000
0001
,
1000
0100
0010
0001
,
1001
0000
0000
0000
,
0000
0000
0001
0010
,
0100
0001
1000
0001
,
0200
0300
0001
1000
,
0100
0001
0100
0010
,
0002
0003
1000
1100
,
0010
0011
0100
1100
,
0010
0011
1000
0001
,
1000
0001
1000
0100
,
0010
0000
1000
0100
,
0010
1000
0001
1000
,
0020
0030
1000
0001
,
0010
1000
0010
0100
,
2000
3000
0001
0011
,
0100
1100
0010
0011
,
0100
1100
0001
1000
,
0001
1000
0001
0010
,
0100
0000
2002
0000
,
0000
0000
0000
0000
,
0000
0000
0000
0000
,
0000
0000
0000
0000
,
3003
0000
0000
0000
;

//--------------- dance-single - ----------------
#NOTES:
     dance-single:
     :
     Medium:
     7:
     0,0,0,0,0:
0000
0000
0000
0000
,
0000
0000
0000
0000
,
0000
0000
0000
0000
,
0000
0000
0000
0000
,
1001
0100
0001
1000
,
0001
0010
0100
0000
2002
0000
3003
0000
,
0010
0100
0010
0001
,
1000
0001
0100
0000
2002
0000
3003
0000
,
0010
0001
0010
0000
1000
0100
1000
0000
,
0010
0001
0100
0000
0010
1000
0001
0000
,
1000
0001
1000
0001
1000
0001
1000
0001
,
0200
0320
0032
0003
,
1001
0010
1000
0001
,
1000
0100
0010
0000
2002
0000
3003
0000
,
0100
0010
0100
1000
,
0001
1000
0010
0000
2002
0000
3003
0000
,
0100
1000
0100
0000
0001
0010
0001
0000
,
0100
1000
0010
0000
0100
0001
1000
0000
,
0001
1000
0001
1000
0001
1000
0001
1000
,
0020
0230
2300
3000
,
1001
0100
0001
1000
,
0001
0010
0100
0000
2002
0000
3003
0000
,
0010
0100
0010
0001
,
1000
0001
0100
0000
2002
0000
3003
0000
,
0010
0001
0010
0100
1000
0100
1000
0100
,
0010
0001
0100
0001
0010
1000
0001
0100
,
1000
0001
1000
0001
1000
0001
1000
0001
,
0200
0320
0032
0003
,
0000
0000
0000
0000
,
0000
0000
1001
0100
,
0001
0000
1000
0000
0001
0010
0100
0000
,
2002
3003
0010
0100
,
0010
0000
0001
0000
1000
0001
0100
0000
,
2002
0000
3003
0000
0010
0001
0010
0000
,
1000
0100
1000
0000
0010
0001
0100
0000
,
0010
1000
0001
0000
1000
0001
1000
0001
,
1000
0001
1000
0001
0200
0000
0320
0000
,
0032
0003
1001
0010
,
1000
0000
0001
0000
1000
0100
0010
0000
,
2002
3003
0100
0010
,
0100
0000
1000
0000
0001
1000
0010
0000
,
2002
0000
3003
0000
0100
1000
0100
0000
,
0001
0010
0001
0000
0100
1000
0010
0000
,
0100
0001
1000
0000
0001
1000
0001
1000
,
0001
1000
0001
1000
0020
0000
0230
0000
,
2300
3000
2002
0000
,
0000
0000
0000
0000
,
0000
0000
0000
0000
,
0000
0000
0000
0000
,
3003
0000
0000
0000
;

//--------------- dance-single - ----------------
#NOTES:
     dance-single:
     :
     Hard:
     12:
     0,0,0,0,0:
0000
0000
0000
0000
,
0000
0000
0000
0000
,
0000
0000
0000
0000
,
0000
0000
0000
0000
,
0011
1100
0011
0000
,
0001
1000
0001
1000
0002
0000
0003
0000
,
0110
1001
0110
0000
,
0010
0100
0010
0100
0020
0000
0030
0000
,
1000
0100
1000
0000
0001
0000
0000
0000
0010
0001
0010
0000
1000
0000
0000
0000
,
0010
0100
0010
0000
1000
0000
0000
0000
0100
0010
0100
0000
0001
0000
0000
0000
,
0002
2003
3002
2003
3002
2003
3002
2003
,
3200
0320
0032
0003
,
1100
0011
1100
0000
,
1000
0001
1000
0001
2000
0000
3000
0000
,
0110
1001
0110
0000
,
0100
0010
0100
0010
0200
0000
0300
0000
,
0001
0010
0001
0000
1000
0000
0000
0000
0100
1000
0100
0000
0001
0000
0000
0000
,
0100
0010
0100
0000
0001
0000
0000
0000
0010
0100
0010
0000
1000
0000
0000
0000
,
2000
3002
2003
3002
2003
3002
2003
3002
,
0023
0230
2300
3000
,
0011
1100
0011
0000
,
0001
1000
0001
1000
0002
0000
0003
0000
,
0110
1001
0110
0000
,
0010
0100
0010
0100
0020
0000
0030
0000
,
1000
0100
1000
0000
0001
0000
1000
0000
0010
0001
0010
0000
1000
0000
0001
0000
,
0010
0100
0010
0000
1000
0000
0001
0000
0100
0010
0100
0000
0001
0000
0000
0000
,
0002
2003
3002
2003
3002
2003
3002
2003
,
3200
0320
0032
0003
,
1001
0000
0000
0000
,
0000
0000
0011
1100
,
0011
0000
0000
0000
0001
1000
0001
1000
,
0002
0003
0110
1001
,
0110
0000
0000
0000
0010
0100
0010
0100
,
0020
0000
0000
0000
0030
0000
0000
0000
1000
0100
1000
0000
0001
0000
0000
0000
,
0010
0001
0010
0000
1000
0000
0000
0000
0010
0100
0010
0000
1000
0000
0000
0000
,
0100
0010
0100
0000
0001
0000
0000
0000
0002
0000
2003
0000
3002
0000
2003
0000
,
3002
2003
3002
2003
3200
0000
0320
0000
,
0032
0003
1100
0011
,
1100
0000
0000
0000
1000
0001
1000
0001
,
2000
3000
0110
1001
,
0110
0000
0000
0000
0100
0010
0100
0010
,
0200
0000
0000
0000
0300
0000
0000
0000
0001
0010
0001
0000
1000
0000
0000
0000
,
0100
1000
0100
0000
0001
0000
0000
0000
0100
0010
0100
0000
0001
0000
0000
0000
,
0010
0100
0010
0000
1000
0000
0000
0000
2000
0000
3002
0000
2003
0000
3002
0000
,
2003
3002
2003
3002
0023
0000
0230
0000
,
2300
3000
2002
0000
,
0000
0000
0000
0000
,
0000
0000
0000
0000
,
0000
0000
0000
0000
,
3003
0000
0000
0000
;
