
//----- song ID: nekj -----//
#TITLE:ネコジャラシ;
#ARTIST:EmoCosine;
#TITLETRANSLIT:Neko Jarashi;
#GENRE:ナムコオリジナル;
#MUSIC:Neko Jarashi.ogg;
#BANNER:Neko Jarashi.png;
#BACKGROUND:Neko Jarashi-bg.png;
#CDTITLE:./CDTitles/NSD A3.png;
#SAMPLESTART:76.365;
#SAMPLELENGTH:15.000;
#SELECTABLE:YES;
#OFFSET:0.162;
#BPMS:0.000=185.000;
#STOPS:;
#BGCHANGES:;
#FGCHANGES:;

//--------------- dance-single - ----------------
#NOTES:
     dance-single:
     :
     Beginner:
     5:
     0,0,0,0,0:
0000
0000
0000
0000
,
0000
0000
0000
0000
,
0000
0000
0000
0000
,
0000
0000
0000
0000
,
0000
0000
0000
0000
,
0000
0000
0000
0000
,
0100
0000
0100
0000
,
0010
1000
0001
0000
,
0100
1000
0001
0000
,
0010
0100
1000
0010
,
0001
1001
0000
0000
,
0000
0010
0000
0100
,
0000
1000
0000
0001
,
0000
0010
0000
0100
,
0000
1000
0000
0001
,
0000
0010
0100
1000
,
0000
0001
1000
0001
,
0100
1000
0001
0100
,
0010
0000
1000
0000
,
0002
0000
0000
0000
,
1003
0000
0100
1000
,
0001
0000
0000
0100
,
0000
1000
0000
0001
,
0000
0100
0000
1000
,
0000
0001
0000
0100
,
0000
0010
0000
0100
,
0000
1000
0000
0001
,
0100
0000
0010
0000
,
0100
0010
1000
0000
,
0001
0000
0010
0000
,
0001
0010
0100
0000
,
1000
0001
0100
0000
,
0010
1000
0001
0000
,
0001
0010
0100
1000
,
0001
0000
1000
0000
,
0001
0000
0010
0000
,
0100
0000
1000
0000
,
0001
0000
0010
0000
,
0100
0000
0010
0000
,
1000
0000
0001
0000
,
0010
0000
0100
0000
,
0001
1000
0001
0000
,
0100
0000
0010
0000
,
0100
0000
1000
0000
,
0001
0000
0010
0000
,
0100
0000
0010
0000
,
0100
0000
1000
0000
,
0001
0000
0100
0000
,
0010
0000
0100
0000
,
1000
0000
0001
0000
,
0010
0100
0010
0000
,
1000
0000
0001
0000
,
0010
0000
0100
0000
,
0010
0000
1000
0000
,
0001
0000
0010
0000
,
0001
1000
0001
0000
,
0010
0100
0010
0000
,
0001
0010
0100
1000
,
0002
0000
0000
0003
,
1000
0001
0100
0010
,
0000
0100
1000
0001
,
0100
0010
1000
0001
,
0000
0100
0001
1000
,
0001
0100
0010
0000
,
1000
0001
0100
0000
,
0010
0100
1000
0001
,
0100
0000
0001
0000
,
1001
0010
0100
0000
,
1000
0001
0100
0000
,
0010
1000
0001
0000
,
0010
0100
0001
0000
,
1000
0000
0001
0000
,
0100
0000
0010
0000
,
0100
1000
0001
0000
,
0010
0100
0001
0000
,
1000
0000
0001
0000
,
0100
0000
0010
0000
,
0100
0000
1000
0000
,
0001
0000
0010
0000
,
0100
0000
0010
0000
,
0100
0000
1000
0000
,
0001
0010
0100
1000
,
0002
0000
0000
0000
,
1003
0000
0100
0000
,
0010
0000
0001
0000
,
0010
0000
0100
0000
,
1000
0000
0001
0000
,
0010
0000
0000
0000
,
1000
0000
0000
0000
,
0001
0000
1000
0000
,
0001
0000
0010
0000
,
0100
0000
1000
0000
,
0001
0000
0010
0000
,
0100
1000
0010
0001
,
0100
2002
0000
0000
,
3003
0000
0110
0000
;

//--------------- dance-single - ----------------
#NOTES:
     dance-single:
     :
     Easy:
     9:
     0,0,0,0,0:
0000
0000
0000
0000
,
0000
0000
0000
0000
,
0000
0000
0000
0000
,
0000
0000
0000
0000
,
0000
0000
0000
0000
,
0000
0000
0000
0000
,
0002
0000
0000
0000
,
1003
0100
1000
0001
,
0010
0100
1000
0001
,
0100
1000
0100
0000
0001
0000
0100
1000
,
0001
2002
0000
3003
,
1000
0010
0100
1000
,
0001
0100
0010
0100
,
1000
0001
0100
0010
,
0100
1000
0001
0100
,
0010
1000
0001
0000
0100
0000
0010
0000
,
1000
0001
0100
0000
0010
0000
0100
0000
,
1000
0001
0100
0010
,
0100
1000
0001
0200
,
0310
0000
1000
0000
0001
0000
0100
1000
,
0000
0001
0000
0100
0000
0010
0100
0000
,
2000
3001
0010
0100
,
1000
0001
0010
0100
,
0002
0013
0100
0001
,
0100
1000
0001
0100
,
0010
1000
0001
0100
,
1000
0001
0100
0010
,
1000
0001
0100
0010
,
0100
0000
1000
0000
0001
0000
0100
0010
,
1000
0001
0100
0010
,
0100
1000
0001
0100
,
0010
0010
0010
0000
0100
0000
1000
0000
,
0100
0100
0100
0000
0001
0000
1000
0000
,
0001
0100
1000
0000
0001
1000
0001
0000
,
0100
0010
0100
0000
,
1001
0100
1000
0001
,
0100
0010
0100
1000
,
0001
0100
0010
0100
,
0010
0100
1000
0001
,
0100
1000
0001
0100
,
0010
0100
0001
0100
,
1000
0001
0100
0010
,
0200
0000
0000
1300
,
0010
0000
0100
0000
,
1000
0000
0001
0000
,
0010
0000
0100
0000
,
0010
0000
1000
0001
,
0100
0000
0010
0000
,
0100
0000
1000
0000
,
0001
0000
0100
0000
,
1000
0001
0100
0000
,
0010
0100
1000
0000
,
0001
1000
0001
0000
,
0100
1000
0001
0000
,
0100
0010
0100
0000
,
1000
0001
0100
0010
,
0100
1000
0001
0100
,
1000
0001
0100
0000
0010
0100
1000
0000
,
0002
0000
0000
0003
,
1000
0001
0100
0010
,
0100
0010
1000
0001
,
0100
0010
0001
1000
,
0001
0100
0010
0100
,
1000
0001
0100
0010
,
0100
1000
0001
0100
,
0010
0100
1000
0001
,
0100
0000
0010
0000
0100
1000
0001
0000
,
0100
0100
0010
0100
,
1000
0001
0110
0100
,
0010
0100
1000
0001
,
0100
0010
0100
1000
,
1001
0100
0010
0100
,
1000
0001
0100
0010
,
0100
1000
0001
0100
,
1000
0001
0100
0000
0010
0100
1000
0000
,
0001
1000
0001
0010
,
0100
0010
1000
0000
0001
0000
0100
0000
,
0010
1000
0001
0100
,
0010
0100
1000
0000
0001
0000
0100
0000
,
0010
1000
0100
0000
0001
0000
0010
0000
,
0100
0001
1000
0000
1000
0000
0100
0000
,
1000
0001
0100
0000
0010
0100
1000
0000
,
0000
0001
1000
0001
0100
0000
0010
0000
,
0100
1000
0001
0100
,
0010
0100
0001
0100
,
0010
0100
1000
0001
,
0100
0010
0100
0000
,
1000
0000
0001
0100
0000
1000
0000
0001
,
0000
0100
0000
0010
0100
0000
1000
0000
,
0001
0000
0100
0010
0000
0100
0000
1000
,
0000
0001
0000
0100
1000
0000
0001
0000
,
0100
0000
0010
0100
0000
1000
0000
0001
,
0000
0100
0000
0010
0100
0000
1000
0000
,
0001
0100
0010
0100
,
0000
2002
0000
0000
,
3003
0000
0110
0000
;

//--------------- dance-single - ----------------
#NOTES:
     dance-single:
     :
     Medium:
     12:
     0,0,0,0,0:
0000
0000
0000
0000
,
0000
0000
0000
0000
,
0000
0000
0000
0000
,
0000
0000
0000
0000
,
0000
0000
0000
0000
,
0000
0000
0000
0000
,
0002
0000
0000
0000
,
1003
0000
0100
0001
1000
0000
0001
0000
,
0010
0000
0100
0000
1000
0010
0001
0000
,
0100
1000
0100
0010
0001
0010
0100
1000
,
0001
2002
0000
3003
,
1000
0000
0010
0000
0100
0001
1000
0010
,
0001
0000
0100
0000
0010
1000
0100
0001
,
1000
0000
0001
0000
0100
0000
0010
1000
,
0100
0000
1000
0000
0001
0010
0100
1000
,
0010
1000
0001
0000
0100
0001
0010
0000
,
1000
0001
0100
0000
0010
1000
0100
0000
,
1000
0010
0001
1000
0100
0001
0010
0001
,
0200
2300
3002
0203
,
0310
0000
1000
0000
0001
0010
0100
1000
,
0000
0001
0000
0100
0000
0010
0100
0001
,
2000
0000
3001
0000
0010
1000
0100
0000
,
1000
0000
0001
0000
0010
1000
0100
0000
,
0002
0000
0013
1000
0100
0000
0001
0000
,
0100
0001
1000
0000
0001
0000
0100
0000
,
0010
0100
1000
0000
0001
0000
0100
0001
,
1000
0000
0001
0000
0100
1000
0010
0001
,
1000
0000
0001
0000
0100
0000
0010
0001
,
0100
0000
1000
0000
0001
0010
0100
0010
,
1000
0000
0001
0000
0100
1000
0010
0000
,
0100
0000
1000
0000
0001
0010
0100
1000
,
0010
0001
0010
0000
0100
0001
1000
0000
,
0100
1000
0100
0000
0001
0100
1000
0000
,
0001
0100
1000
0010
0001
1000
0001
0010
,
0100
0010
0200
0300
,
1001
0000
0000
0000
0100
0000
0000
0000
1000
0000
0000
0001
0000
0000
0010
0000
,
0100
0000
0000
0000
0010
0000
0000
0000
0100
0000
0000
1000
0000
0000
0010
0000
,
0001
0000
0000
0000
0100
0000
0000
0000
0010
0000
0000
1000
0000
0000
0100
0000
,
0010
0000
0000
1000
0000
0000
0001
0000
1000
0000
0000
0100
0000
0000
0001
0000
,
0100
0010
1000
0000
0001
0000
0100
0000
,
0010
0100
0001
0100
,
1000
0000
0001
0000
0100
0001
0010
1000
,
0200
0000
0000
0300
,
0010
0000
0000
0000
0001
0000
0100
0000
0000
0000
0001
0000
,
1000
0000
0000
0000
0100
0000
0001
0000
0000
0000
1000
0000
,
0010
0000
0000
0000
1000
0000
0100
0000
0000
0000
0000
0000
,
0010
0000
0000
0000
0001
0000
1000
0000
0000
0001
0000
0000
,
0100
0000
0000
0000
0000
1000
0010
0000
0000
0000
0000
0001
,
0100
0000
0000
0000
0000
0001
1000
0000
0000
0000
0000
0000
,
0001
0000
0000
0000
1000
0000
0100
0000
0000
0000
0000
0000
,
1000
0001
0100
1000
,
0010
0100
1000
0100
,
0001
1000
0001
0010
,
0100
1000
0001
0010
,
0100
0010
0100
0001
,
1000
0100
0001
0000
0100
0000
0010
0000
,
0100
0001
1000
0000
0001
0000
0100
0000
,
1000
0001
0100
1000
0010
0100
1000
0100
,
0002
0000
0000
0103
,
1000
0000
0001
0000
0100
1000
0010
0000
,
0100
0000
0010
0000
1000
0100
0001
0000
,
0100
0000
0010
0000
0001
0100
1000
0000
,
0001
0000
0100
0000
0010
0001
0100
0010
,
1000
0000
0001
0000
0100
0000
0010
1000
,
0100
1000
0001
0100
,
0010
1000
0100
0000
1000
0000
0001
0000
,
0100
1000
0010
0000
0100
1000
0001
0000
,
0100
0001
0100
0000
0010
0000
0100
0000
,
1000
0010
0001
0000
0110
0000
0100
0000
,
0010
1000
0100
0000
1000
0000
0001
0000
,
0100
0001
0010
0000
0100
0000
1000
0000
,
1001
0000
0100
0001
0000
1000
0100
0001
,
1000
0100
0001
0010
0100
1000
0010
0001
,
0100
1000
0001
0100
,
1000
0001
0100
0001
0010
0100
2000
0000
,
3001
0000
1010
0000
0101
0000
0010
1000
,
0100
0010
1000
0000
0001
0000
0100
0000
,
0011
0000
1100
0000
0001
0010
0100
0000
,
0010
0100
1000
0100
0001
0000
0100
0000
,
0010
1000
0100
0000
0001
1000
0010
0000
,
0100
0001
1000
0000
1000
0001
0100
0000
,
1000
0001
0100
1000
0010
0100
1000
0001
,
0000
0001
1000
0001
0100
0000
0010
0000
,
0100
0000
1000
0000
0001
0000
0100
1000
,
0000
0001
0100
0000
0001
0000
0100
0000
,
0010
0100
1000
0001
,
0100
0010
0100
0001
,
1000
0000
0001
0100
0000
1000
0000
0001
,
0000
0100
0000
0010
0100
0000
1000
0000
,
0001
0000
0100
0010
0000
0100
0000
1000
,
0000
0001
0000
0100
1000
0000
0001
0000
,
0100
0000
0010
0100
0000
1000
0000
0001
,
0000
0100
0000
0010
0100
0000
1000
0000
,
0001
0010
0100
1000
0010
0001
0100
0010
,
0000
2002
0000
0000
,
3003
0000
0220
0000
,
0000
0000
0000
0000
,
0000
0000
0000
0000
,
0000
0000
0000
0000
,
0330
0000
0000
0000
;

//--------------- dance-single - ----------------
#NOTES:
     dance-single:
     :
     Hard:
     16:
     0,0,0,0,0:
0000
0000
0000
0000
,
0000
0000
0000
0000
,
0000
0000
0000
0000
,
0000
0000
0000
0000
,
0000
0000
0000
0000
,
0000
0000
0000
0000
,
0002
0000
0000
0000
,
1003
0000
0010
0100
0000
0010
0000
1001
,
0000
0110
0000
1000
0001
0000
0010
1000
,
0001
0010
0100
1000
0001
0100
0010
0100
,
0000
2002
0000
3003
,
0010
0000
0000
0000
0101
0000
0000
0000
1000
0000
0001
0010
1000
0000
0100
0000
,
1000
0000
0000
0000
1001
0000
0000
0000
0010
0000
0000
0100
0000
0000
1000
0010
,
0100
0000
0000
0000
1010
0000
0000
0000
0010
0000
1000
0100
0001
0000
0010
0000
,
1000
0000
0000
0000
0110
0000
0000
0000
0001
0000
0000
1000
0000
0000
0010
0100
,
1000
0001
0010
0100
1000
0100
0001
0010
,
0001
0100
0001
1000
0010
0100
0001
0010
,
0010
1000
0100
1000
0100
1000
0001
0100
0001
0010
0100
1000
0010
1000
0010
0100
,
0010
0100
1000
0000
0001
0010
0100
0000
1000
0001
0100
0000
0002
0000
0000
0000
,
2003
0000
3002
0000
0023
0000
1030
2000
,
0000
0000
3001
0000
0010
0000
2000
0000
0000
0000
3002
0000
0000
0000
1003
0010
,
0200
0000
0000
0000
0320
0000
0000
0000
1030
0000
0000
0100
0000
1000
0001
0000
,
0010
1000
0100
1000
0001
0100
1000
0100
,
0001
0010
0001
0010
0002
0000
0000
0000
0013
0000
0000
1000
0000
0100
0001
0010
,
0100
0000
1000
0000
0001
0000
0010
0000
0100
0000
0000
0001
0000
0000
0100
0000
,
1000
0000
0000
0000
0110
0000
0000
0000
1000
0000
0000
0001
0000
0000
0010
0100
,
1000
0000
0000
0100
0000
0000
0001
0000
0000
0010
0000
0000
0001
0000
0100
0000
1000
0000
0200
0000
0000
0000
0000
0000
,
0310
0000
0000
0001
0000
0000
0010
0100
1000
0000
0001
0000
0100
0000
0010
0000
,
1000
0001
1000
0010
0001
0010
0100
1000
,
0100
0000
0010
0000
0001
0000
0010
1000
0100
0000
0010
0000
0100
0000
1000
0000
,
0100
0001
0010
0000
0001
1000
0010
0000
0001
1000
0100
0000
0001
0000
0010
1000
,
0100
0010
0100
0010
0001
1000
0100
1000
,
0100
0010
0001
1000
0100
1000
0001
0100
,
0010
1000
0100
0010
0100
1000
0010
1000
0001
1000
0001
0100
0010
1000
0001
0100
,
0002
2003
3020
0230
,
0310
0000
0000
0000
1001
0000
0000
0000
0011
0000
0000
0110
0000
0000
1100
0000
,
0110
0000
0000
0000
1001
0000
0000
0000
0101
0000
0000
1010
0000
0000
0101
0000
,
0110
0000
0000
0000
1010
0000
0000
0000
0101
0000
0000
1010
0000
0000
0011
0000
,
1010
0000
0000
0110
0000
0000
0101
0000
1100
0000
0000
0000
0110
0000
0000
0000
,
1000
0000
0100
0000
0002
0000
0000
0000
1003
0100
0010
0000
0001
0010
1000
0000
,
0001
1000
0001
0000
0100
0010
0001
0000
0010
0100
1000
0000
0001
0010
1000
0000
,
0100
1000
0001
0100
0001
1000
0100
0010
0001
0010
0100
0010
0100
1000
0001
1000
,
0020
0000
0000
0130
,
1000
0000
0000
0001
0010
0100
0010
0000
0000
1000
0001
0100
,
1000
0000
0000
0001
0010
0100
1000
0000
0000
0001
0010
0100
,
1000
0000
0000
0001
0010
0100
0001
0000
0000
1000
0100
0001
,
0100
0000
0000
1000
0001
0100
0010
0000
1000
0100
0000
0000
,
0001
0000
0000
1000
0100
0010
0100
0000
0000
0001
1000
0010
,
0001
0000
0000
1000
0100
0010
0001
0000
0000
1000
0100
0010
,
0001
0000
0000
1000
0100
0010
1000
0000
0000
0001
0010
1000
,
0010
0000
0000
0001
1000
0010
0100
0000
0001
0010
0000
0000
,
0001
1000
0010
0100
,
0010
0000
0100
0000
0001
0000
1000
0001
,
0100
0000
0010
0000
0100
0000
1000
0001
,
0010
0000
1000
0000
0001
0100
0010
1000
,
0010
1000
0100
0010
0001
1000
0001
0010
,
0100
1000
0010
1000
0100
0010
0001
0010
,
0100
1000
0001
1000
0100
0010
0001
0010
0100
1000
0001
1000
0010
0100
0001
0010
,
0200
0000
0000
0310
,
0001
0100
0010
1000
0010
1000
0010
0100
,
0001
0100
0001
0100
0010
1000
0100
1000
,
0001
0100
0010
1000
0001
0010
0001
0010
,
0001
0000
0100
0000
0010
0000
0100
0000
0001
0000
1000
0000
0100
0000
1000
0010
,
0001
1000
0100
0010
0001
0010
0100
1000
,
0001
0000
0010
0000
0001
0000
0200
0000
0000
0000
0310
0000
0001
0000
1000
0100
,
0010
0100
0010
0100
0001
0010
0100
1000
,
0100
0000
1000
0000
0100
0000
0010
0000
0001
0000
0100
0000
0010
0000
0100
1000
,
0001
1000
0001
0100
0001
1000
0100
1000
,
0100
0000
1000
0000
0001
0000
0010
0000
0001
0000
1000
0000
0100
0000
0010
0100
,
0001
1000
0100
0010
0100
1000
0010
1000
,
0001
0010
0100
0000
0010
0000
1000
0000
0010
0000
1000
0000
0010
0000
0100
1000
,
0001
0010
0100
1000
0100
0010
0001
0010
,
0100
0000
1000
0000
0100
0000
0010
0000
0100
0000
0010
0000
0001
0000
1000
0100
,
0001
0010
0100
1000
0001
1000
0010
1000
,
0001
1000
0010
0000
0100
1000
0010
0000
0001
0010
1000
0000
2002
0000
3003
0000
,
0010
0000
0100
0000
0010
1000
0100
0001
0010
0000
1000
0000
0100
0000
0010
0000
,
0001
0000
0010
0000
0100
0000
1000
0000
0001
0000
0010
0000
0100
0000
0010
1000
,
0001
0000
0010
0000
0100
0000
1000
0000
0001
0000
0010
0000
0001
0000
1000
0100
,
0001
0000
1000
0000
0100
0000
1000
0000
0100
0000
0010
0000
0001
1000
0100
0010
,
0001
0100
0001
0010
0100
0010
0100
1000
,
0001
0010
0100
1000
0100
0010
0100
0010
,
0100
0001
0010
0000
1000
0001
0100
0000
0010
0001
0100
0000
1000
0100
0001
0000
,
0000
0001
1000
0001
0100
0000
1001
0000
,
0100
0000
0001
0000
0100
0000
1000
0001
,
0000
0100
1000
0000
0001
0000
0100
0000
,
0010
0000
0100
0000
0001
0000
1000
0001
,
0000
0100
0000
0010
0000
0100
0000
0000
,
1000
0000
0100
0001
0000
1001
0000
0110
,
0000
0010
0000
0100
1000
0000
0001
0000
,
0100
1000
0001
0000
0100
0000
0010
0100
,
1000
0001
0100
0010
,
0100
1000
0001
0100
0010
0100
0010
1000
,
0001
0010
1000
0001
0010
0100
1000
0100
,
0001
0010
0100
0000
1000
0001
0100
0000
0010
0100
1000
0000
0001
0100
0010
0000
,
0000
0220
0000
0000
,
0330
0000
2002
0000
,
0000
0000
0000
0000
,
0000
0000
0000
0000
,
0000
0000
0000
0000
,
3003
0000
0000
0000
;
