#TITLE:NSDの気持ちJAZZ;
#ARTIST:堀川まり たじりゆき;
#TITLETRANSLIT:NSD no Kimochi JAZZ;
#ARTISTTRANSLIT:Mari Hokawa Yuki Tajiri;
#GENRE:ナムコオリジナル;
#MUSIC:NSD no Kimochi JAZZ.ogg;
#BANNER:NSD no Kimochi JAZZ.png;
#BACKGROUND:NSD no Kimochi JAZZ-bg.png;
#CDTITLE:./CDTitles/NSD A3.png;
#SAMPLESTART:33.500;
#SAMPLELENGTH:15.000;
#SELECTABLE:YES;
#OFFSET:-0.260;
#BPMS:0.000=245.000
,396.000=184.000
,406.000=188.000
,407.000=177.000
,408.000=245.000
;
#STOPS:;
#BGCHANGES:;
#FGCHANGES:;

//--------------- dance-single - ----------------
#NOTES:
     dance-single:
     :
     Beginner:
     3:
     0,0,0,0,0:
0000
0000
0000
0000
,
0000
0000
0000
0000
,
0000
0000
0000
0000
,
0000
0000
0000
0000
,
0000
0000
0000
0000
,
0000
0000
0000
0000
,
0000
0000
0000
0000
,
0000
0000
0000
0000
,
0000
0000
0000
0000
,
0000
0000
0000
0000
,
0001
0000
0000
0000
,
0000
0000
0000
0000
,
0001
0000
0000
0000
,
0000
0000
0000
0000
,
1000
0000
0000
0000
,
0000
0000
0000
0000
,
0010
0000
0000
0000
,
0100
0000
0000
0000
,
1000
0000
0000
0000
,
0000
0000
0000
0000
,
1000
0000
0000
0000
,
0000
0000
0000
0000
,
0001
0000
0000
0000
,
0010
0000
0000
0000
,
0100
0000
1000
0000
,
0001
0000
0000
0000
,
0100
0000
0000
0000
,
1000
0000
0000
0000
,
0001
0000
0000
0000
,
0010
0000
0000
0000
,
0100
0000
0000
0000
,
1000
0000
0000
0000
,
0001
0000
0000
0000
,
0100
0000
0000
0000
,
1001
0000
0000
0000
,
0100
0000
0000
0000
,
0001
0000
0000
0000
,
0100
0000
0000
0000
,
0010
0000
0000
0000
,
0100
0000
0000
0000
,
0001
0000
0010
0000
,
0100
0000
0000
0000
,
1000
0000
0000
0000
,
0001
0000
0000
0000
,
0010
0000
0000
0000
,
0100
0000
0000
0000
,
0010
0000
0000
0000
,
0100
0000
0000
0000
,
1000
0000
0001
0000
,
0100
0000
0000
0000
,
0010
0000
0000
0000
,
0010
0000
0000
0000
,
1000
0000
0000
0000
,
0001
0000
0000
0000
,
0100
0000
0000
0000
,
1000
0000
0000
0000
,
0001
0000
0010
0000
,
0100
0000
0000
0000
,
1000
0000
0100
0000
,
0001
0000
0010
0000
,
0100
0000
0001
0000
,
1000
0000
0001
0000
,
0100
0000
0010
0000
,
1000
0000
0001
0000
,
0010
0000
0100
0000
,
1000
0000
0000
0000
,
0001
0000
0000
0000
,
0010
0000
0000
0000
,
0100
0000
0000
0000
,
1000
0000
0000
0000
,
0001
0000
0000
0000
,
0010
0000
0000
0000
,
0100
0000
1000
0000
,
0001
0000
0000
0000
,
0020
0000
0000
0030
,
1000
0000
0000
0000
,
0100
0000
0000
0000
,
0010
0000
0000
0000
,
0001
0000
0000
0000
,
1000
0000
0000
0000
,
0001
0000
0000
0000
,
0010
0000
0100
0000
,
1000
0000
0000
0000
,
0001
0000
0000
0000
,
1000
0000
0000
0000
,
0001
0000
0000
0000
,
0010
0000
0000
0000
,
1000
0000
0000
0000
,
0001
0000
0000
0000
,
0010
0000
0100
0000
,
1000
0000
0000
0000
,
0001
0000
0000
0000
,
1000
0000
0000
0000
,
0001
0000
0000
0000
,
0010
0000
0000
0000
,
0100
0000
0000
0000
,
0010
0000
0000
0000
,
1000
0000
0000
0000
,
0001
0000
0000
0000
,
0010
0000
0000
1000
,
0000
0000
0001
0000
,
0000
0010
0000
0000
,
1000
0000
0001
0000
,
0010
0000
0000
0000
,
0100
0000
1000
0000
,
0001
0000
0000
0000
,
2002
0000
0000
0000
,
0000
0000
0000
0000
,
3003
0000
0000
0000
;

//--------------- dance-single - ----------------
#NOTES:
     dance-single:
     :
     Easy:
     4:
     0,0,0,0,0:
0000
0000
0000
0000
,
0000
0000
0000
0000
,
0000
0000
0000
0000
,
0000
0000
0000
0000
,
0000
0000
0000
0000
,
0000
0000
0000
0000
,
0000
0000
0000
0000
,
0000
0000
0000
0000
,
0000
0000
0000
0000
,
0000
0000
0000
0000
,
0010
0000
1000
0000
,
0100
0001
1000
0000
,
0001
0000
0010
0000
,
0001
0100
1000
0000
,
0001
0000
0100
0000
,
0010
0000
1000
0100
,
0001
0000
0010
0000
,
0001
0000
0010
0000
,
0110
0000
1000
0000
,
0001
0000
1000
0100
,
0010
0000
1000
0000
,
0010
0000
0100
0001
,
0010
0000
0100
0000
,
0001
0000
1000
0000
,
0100
0001
1000
0000
,
0001
0010
0100
0000
,
0010
0000
1000
0000
,
0100
0000
0010
0000
,
0100
1000
0010
0000
,
0100
0000
1000
0100
,
0001
0000
0100
0000
,
0001
0000
0010
0000
,
0001
0010
0100
1000
,
0000
0001
1000
0000
,
0001
0000
0100
0000
,
0001
0010
0100
0000
,
0001
0000
0010
0000
,
0100
0001
1000
0000
,
0100
0000
1000
0000
,
0010
0000
0100
0000
,
0001
0000
1000
0000
,
0010
0000
0100
0000
,
1001
0000
0100
0000
,
0010
0100
1000
0000
,
0010
0000
1000
0000
,
0100
0001
0010
0000
,
0100
0000
0010
0000
,
0001
0000
0100
0000
,
0001
0000
1000
0000
,
0100
0000
1000
0000
,
0110
0000
1000
0000
,
0010
0000
0100
0000
,
0001
1000
0010
0000
,
0100
0000
0010
0000
,
0100
0000
0010
0000
,
0001
1000
0100
0000
,
0010
0000
1000
0000
,
0010
0001
1000
0000
,
0100
0000
0010
0000
,
0100
0000
0010
0000
,
0100
0000
1000
0000
,
0010
0000
1000
0000
,
0001
0000
1000
0000
,
0010
0000
0100
0000
,
0010
0000
1000
0000
,
2000
0000
0000
3000
,
0002
0000
0103
0000
,
0001
0000
0100
0000
,
0010
0000
1000
0000
,
0010
0000
0100
0000
,
0010
0000
0100
0000
,
0001
0000
0010
0000
,
0100
0000
0010
0000
,
0001
0000
1000
0000
,
0120
0000
0000
0000
,
0130
0000
0010
0000
,
0001
1000
0010
0000
,
0001
0000
0010
0000
,
0100
0001
1000
0000
,
0010
0001
0100
0000
,
0010
0100
1000
0000
,
0001
0000
0100
0000
,
0010
0000
2000
0000
,
3010
0000
1000
0000
,
0010
0001
0100
0000
,
0001
0000
1000
0000
,
0010
1000
0100
0000
,
0001
1000
0010
0000
,
0100
0001
0010
0000
,
0001
0010
1000
0000
,
0002
0000
0000
0003
,
0010
0000
0100
0000
,
0010
0000
0100
0000
,
0001
0000
0010
0000
,
0001
0000
0100
0000
,
0001
0000
1000
0000
,
0100
0000
0010
0000
,
0100
0000
1000
0000
,
0010
0001
0100
0000
,
0001
1000
0010
0100
,
0001
0010
0100
1000
,
0001
1000
0010
1000
,
0100
0000
0010
0000
,
0100
0000
0010
1000
,
0001
0000
0100
0000
,
0001
1000
0010
0000
,
1001
0000
0000
0000
;

//--------------- dance-single - ----------------
#NOTES:
     dance-single:
     :
     Medium:
     7:
     0,0,0,0,0:
0000
0000
0000
0000
,
0000
0000
0000
0000
,
0000
0000
0000
0000
,
0000
0000
0000
0000
,
0000
0000
0000
0000
,
0000
0000
0000
0000
,
0000
0000
0000
0000
,
0000
0000
0000
0000
,
0000
0000
0000
0000
,
0000
0000
0000
0000
,
0001
0100
0001
0010
,
0001
0100
0010
0100
,
0001
0010
0001
0010
,
0100
1000
0100
0010
,
0100
1000
0010
0100
,
0001
1000
0001
0010
,
0100
0010
0100
0010
,
0001
0100
0001
0010
,
1001
1000
0010
0100
,
0001
0100
0010
1000
,
0100
1000
0100
0010
,
0100
1000
0001
0100
,
0001
1000
0001
1000
,
0010
0100
0010
1000
,
0100
1000
0100
0010
,
0001
0100
0001
0010
,
1001
0100
0010
1000
,
0100
1000
0001
0100
,
0010
0100
0001
1000
,
0001
0100
0001
0100
,
0010
1000
0100
1000
,
0010
1000
0010
0100
,
0001
0100
0010
0100
,
0000
1000
0002
0003
,
1000
0010
0100
0010
,
0100
1000
0010
0100
,
0010
1000
0100
0010
,
0100
1000
0001
1000
,
0001
0000
0010
1000
0001
0000
0010
0000
,
0100
0000
0010
0001
0100
0000
1000
0000
,
0010
0100
0001
0100
,
0001
0000
0000
0200
0000
0000
0000
0000
,
0310
1000
0001
0100
,
0001
1000
0001
1000
,
0100
0010
0100
0010
,
0001
0100
0010
1000
,
0001
0000
1000
0001
0100
0000
1000
0000
,
0100
0000
0010
1000
0001
0000
0100
0000
,
0001
0010
0001
0100
,
1020
0000
0000
0030
,
0100
0010
0001
1000
,
0100
0010
0100
1000
,
0010
0100
0010
1000
,
0100
1000
0100
1000
,
0001
0010
0001
0100
,
0001
1000
0100
1000
,
0001
0010
0100
1000
,
0001
1000
0001
1000
,
0100
0010
0100
1000
,
0010
0000
0100
0000
0001
0000
0010
1000
,
0001
0010
0001
0100
,
0010
0000
1000
0000
0010
0000
1000
0001
,
0010
0100
0001
1000
,
0001
0000
1000
0000
0001
0000
0010
1000
,
0100
0010
0001
1000
,
0002
0000
0000
0003
,
0020
0000
0031
0100
,
0001
0010
0100
1000
,
0010
0000
0001
0000
0100
0000
0001
0000
0000
0100
0000
0000
,
0001
1000
0100
1000
,
0001
0010
0001
0100
,
0010
1000
0010
1000
,
0010
0100
0001
1000
,
0000
0100
0010
0000
,
0200
0000
0000
0300
,
1001
0010
0001
0010
,
0100
1000
0001
0010
,
0100
1000
0100
1000
,
0001
0010
0001
1000
,
0001
0000
0010
1000
0100
0000
1000
0000
,
0100
0000
1000
0001
0100
0000
0010
0000
,
0001
1000
0010
1000
,
0001
0000
0000
2000
0000
0000
0000
0000
,
3100
0010
0100
1000
,
0010
1000
0001
0100
,
0001
1000
0010
0100
,
0010
0100
0010
1000
,
0100
0000
0010
1000
0001
0000
0100
0000
,
0001
0000
0100
0001
0010
0000
1000
0000
,
0010
0100
0001
0010
,
0001
0010
0100
0010
,
1001
0100
0001
0100
,
0001
0010
0100
1000
,
0100
0010
0100
0010
,
0001
1000
0100
0010
,
0100
1000
0100
1000
,
0010
0100
0001
0100
,
0010
1000
0010
1000
,
0001
1000
0100
0010
,
0100
1000
0100
0010
,
0001
1000
0100
0010
,
0100
0010
0100
1000
,
0010
1000
0001
1000
,
0010
0100
0001
0010
,
0100
0010
0001
0010
,
0100
1000
0001
0010
,
2002
0000
0000
0000
,
0000
0000
0000
0000
,
3003
0000
0000
0000
;

//--------------- dance-single - ----------------
#NOTES:
     dance-single:
     :
     Hard:
     13:
     0,0,0,0,0:
0000
0000
0000
0000
,
0000
0000
0000
0000
,
0000
0000
0000
0000
,
0000
0000
0000
0000
,
0000
0000
0000
0000
,
0000
0000
0000
0000
,
0000
0000
0000
0000
,
0000
0000
0000
0000
,
0000
0000
0000
0000
,
0000
0000
0000
0000
,
0100
0010
0001
0010
,
0001
0000
0010
0000
0100
0000
1000
0010
,
0001
1000
0010
1000
,
0100
0000
0010
0000
0100
0000
0010
0001
,
0100
1000
0001
0100
,
0001
0010
1000
0000
0100
0000
0010
0000
,
0100
0001
1000
0000
0010
0001
0100
0000
,
0010
0100
0001
0010
,
0100
0000
0010
0000
0100
0000
0010
1000
,
0001
0100
0001
0010
,
0100
0000
1000
0000
0010
0000
0100
1000
,
0010
0100
0010
1000
,
0001
0000
1000
0100
0010
0000
1000
0000
,
0100
0010
0100
0010
,
0100
0000
1000
0001
0010
0000
1000
0001
,
0010
1000
0100
0010
,
1001
0000
0100
1000
0010
0000
0100
0000
,
0010
0000
0100
0000
0001
0000
0010
1000
,
0001
0010
0100
1000
,
0010
0000
0100
1000
0001
0000
0010
0000
,
0001
0000
1000
0000
0001
0010
1000
0000
,
0100
0010
0100
0010
,
0100
0010
1000
0000
0001
0000
0100
0000
,
0010
0100
0120
0000
,
0130
1000
0010
1000
,
0100
0001
0010
0000
0100
0000
1000
0000
,
0001
1000
0100
1000
,
0100
0001
0010
0000
0100
0000
1000
0000
,
0010
0000
0100
0001
0010
0000
1000
0000
,
0010
0000
1000
0100
0001
0000
1000
0000
,
0010
0100
0001
1000
,
0101
0010
2001
0000
,
3010
0100
0001
0010
,
0001
0000
0100
1000
0001
0000
0100
0000
,
0010
1000
0100
1000
,
0010
0000
1000
0001
0100
0000
0010
0000
,
0100
0000
0010
0001
0100
0000
1000
0000
,
0010
0000
0100
0001
0010
0000
0100
0000
,
0010
1000
0100
1000
,
0210
0000
0000
1300
,
0010
1000
0010
0100
,
0010
0100
0001
0010
,
0100
1000
0100
1000
,
0010
0001
0100
0000
0010
0001
1000
0000
,
0010
1000
0100
1000
,
0001
0100
0001
0100
,
0001
1000
0010
0000
0100
0001
1000
0000
,
0010
1000
0010
1000
,
0001
0000
0010
1000
0001
0000
0010
0000
,
0001
0000
1000
0100
0010
0000
1000
0000
,
0010
0000
0100
0010
0001
0000
0010
0000
,
0001
0000
0100
1000
0001
0000
0010
0000
,
0100
0000
0010
1000
0001
0000
1000
0000
,
0001
0000
1000
0000
0001
0010
0100
0000
,
0010
0000
1000
0000
0001
0100
1000
0000
,
0001
1000
0100
0020
,
0032
0013
0001
0100
,
0001
0000
0010
0000
0100
0000
1000
0000
0100
0000
0010
0000
,
0001
0010
0001
0100
,
0010
0000
0100
0010
0001
0000
1000
0000
,
0100
0000
0010
0000
0100
0000
1000
0001
,
0100
1000
0001
0010
,
0001
0100
1000
0000
0010
0000
1000
0000
,
0010
1000
0001
0100
,
0002
0000
0000
1003
,
0010
1000
0001
1000
,
0010
0000
0100
0001
0010
0000
1000
0000
,
0001
0000
0010
1000
0001
0000
0010
0000
,
0001
0000
1000
0100
0010
0000
1000
0000
,
0001
0000
0010
1000
0001
0000
1000
0000
,
0010
0000
0100
0001
0010
0000
1000
0000
,
0001
0010
0100
0010
,
1001
0000
0002
0103
,
0010
1000
0010
0100
,
0010
0000
1000
0100
0001
0000
1000
0000
,
0010
1000
0001
0100
,
0001
0000
0010
1000
0100
0000
1000
0000
,
0010
0000
0100
1000
0001
0000
0010
0000
,
0001
0000
1000
0100
0001
0000
0010
0000
,
0100
0000
1000
0100
0010
0000
1000
0000
,
0200
0000
0000
0310
,
0100
0010
0001
0100
,
0001
0000
0010
1000
0001
0000
0100
0000
,
0010
0000
0100
0000
0001
1000
0100
0000
,
0010
1000
0010
0100
,
0010
0100
0001
0100
,
0010
0000
1000
0100
0001
0000
0100
0000
,
0010
0000
0100
0000
0001
0000
0010
1000
,
0100
1000
0010
1000
,
0100
0010
0100
1000
,
0100
0010
0001
0010
,
0100
0010
0001
1000
,
0001
0000
0100
1000
0010
0000
0100
0000
,
0001
0000
0100
0010
0001
0000
1000
0000
,
0010
0000
0100
1000
0001
0000
0100
0000
,
0001
0000
1000
0010
0100
0000
0010
0000
,
2002
0000
0000
0000
,
0000
0000
0000
0000
,
3003
0000
0000
0000
;
