#TITLE:Mynarco;
#ARTIST:positive MAD-crew;
#GENRE:pop'n music;
#MUSIC:Mynarco.ogg;
#BANNER:Mynarco.png;
#BACKGROUND:Mynarco-bg.png;
#CDTITLE:./CDTitles/pop'n music Sunny Park.png;
#SAMPLESTART:33.142;
#SAMPLELENGTH:15.000;
#SELECTABLE:YES;
#OFFSET:0.000;
#BPMS:0.000=181.000;
#STOPS:;
#BGCHANGES:;
#FGCHANGES:;

//--------------- dance-single - ----------------
#NOTES:
     dance-single:
     :
     Beginner:
     2:
     0,0,0,0,0:
0000
0000
0000
0000
,
0000
0000
0000
0000
,
0000
0000
0000
0000
,
0000
0000
0000
0000
,
0000
0000
0000
0000
,
1000
0000
0000
0000
,
0001
0000
0000
0000
,
0100
0000
0000
0000
,
0010
0000
0100
0000
,
1000
0000
0000
0000
,
0001
0000
0000
0000
,
0010
0000
0000
0000
,
0100
0000
0000
0000
,
0010
0000
0000
0000
,
0001
0000
0000
0000
,
1000
0000
0000
0000
,
0020
0000
0000
0000
,
0130
0000
0000
0000
,
0001
0000
0000
0000
,
1000
0000
0000
0000
,
0001
0000
0000
0000
,
0010
0000
0000
0000
,
0100
0000
0000
0000
,
1000
0000
0000
0000
,
0001
0000
1000
0000
,
0020
0000
0000
0000
,
0230
0000
0000
0000
,
2300
0000
0000
0000
,
3001
0010
0001
0000
,
0020
0000
0000
0000
,
0230
0000
0000
0000
,
0302
0000
0000
0000
,
1003
0100
1000
0000
,
0010
0000
0100
0000
,
1000
0000
0000
0000
,
0001
0000
1000
0000
,
0100
0000
0000
0000
,
0010
0000
0100
0000
,
1000
0000
0000
0000
,
0001
0000
1000
0000
,
0001
0000
0100
0000
,
0010
0000
0000
0000
,
0100
0000
0000
0000
,
1000
0000
0001
0000
,
0100
0000
0000
0000
,
0010
0000
0100
0000
,
1000
0000
0000
0000
,
0001
0000
1000
0000
,
0010
0000
0000
0000
,
0100
0000
0010
0000
,
0001
0000
0000
0000
,
1000
0000
0001
0000
,
0100
0000
0000
0000
,
0010
0000
0001
0000
,
1000
0000
0000
0000
,
0010
0000
0100
0000
,
0010
0000
0000
0000
,
1000
0000
0001
0000
,
0100
0000
0000
0000
,
0010
0000
0001
0000
,
1000
0000
0000
0000
,
0010
0000
0000
0000
,
0100
0000
0000
0000
,
1000
0000
0001
0000
,
0100
0000
0000
0000
,
0010
0000
0001
0000
,
1000
0000
0000
0000
,
0001
0000
0010
0000
,
0100
0000
0000
0000
,
0010
0000
0100
0000
,
1000
0000
0000
0000
,
0001
0000
1000
0000
,
0001
0000
0000
0000
,
0100
0000
0010
0000
,
0001
0000
0000
0000
,
1000
0000
0100
0000
,
0010
0000
0000
0000
,
0001
0000
1000
0000
,
0001
0000
0000
0000
;

//--------------- dance-single - ----------------
#NOTES:
     dance-single:
     :
     Easy:
     4:
     0.354,0.298,0.048,0.077,0,246,5,8,0,0,0,0.354,0.298,0.048,0.077,0,246,5,8,0,0,0:
0000
0000
0000
0000
,
0000
0000
0000
0000
,
0000
0000
0000
0000
,
0000
0000
0000
0000
,
0000
0000
0000
0000
,
1000
0000
0100
0000
,
0010
0000
0001
0000
,
1000
0000
0010
0000
,
0100
0001
1000
0001
,
0100
0001
0100
0000
,
0010
1000
0010
0000
,
1000
0100
1000
0000
,
0001
0010
0001
0000
,
1000
0010
0100
0000
,
0001
0100
0010
0000
,
1000
0100
0010
0000
,
0001
0010
0100
1000
,
0001
0100
0010
0000
,
1000
0010
0100
0000
,
0001
0010
0100
0000
,
1000
0100
0010
0000
,
0001
0100
1000
0000
,
0001
0010
1000
0000
,
0001
0010
0100
1000
,
0001
0100
0010
1000
,
0001
0000
0010
0100
,
2000
0000
3001
0000
,
1000
0000
0010
0100
,
0001
0001
1000
1000
,
0100
0000
0010
0001
,
2000
0000
3001
0000
,
1000
1000
0010
0010
,
0100
0100
0001
0001
,
0010
0000
0100
1000
,
0002
0000
0103
0000
,
0001
0010
0100
1000
,
0020
0000
0130
0000
,
0001
0100
0010
1000
,
0001
0010
0100
1000
,
0001
0001
0100
0100
,
0010
0010
1000
1000
,
1001
0000
0110
0000
,
1001
0000
0110
0000
,
1000
0100
0010
0001
,
1001
0000
0000
0000
,
1000
0100
0010
0010
,
0001
0010
0010
0100
,
0010
0010
1000
0010
,
0010
0001
1000
0100
,
1000
0010
1000
1000
,
0100
1000
1000
0010
,
1000
1000
0001
1000
,
1000
0100
0010
0001
,
1000
0100
0010
0010
,
0001
0010
0010
0100
,
0010
0010
1000
0010
,
0010
0001
0100
0010
,
1000
0010
0100
0100
,
0001
0100
0100
0010
,
0100
0100
1000
0100
,
0100
0010
1000
0001
,
1000
0100
0001
0100
,
1000
0010
0001
0010
,
1000
0000
0100
0010
,
0002
0000
1003
0000
,
0001
0000
0100
0010
,
1000
1000
0001
0001
,
0010
0000
0100
1000
,
0002
0000
1003
0000
,
0001
0001
0100
0100
,
0010
0010
1000
1000
,
0100
0000
0010
0001
,
2000
0000
3010
0000
,
1000
0100
0010
0001
,
0200
0000
0310
0000
,
1000
0010
0100
0001
,
1000
0100
0010
0001
,
1000
1000
0010
0010
,
0100
0100
0001
0001
;

//--------------- dance-single - ----------------
#NOTES:
     dance-single:
     :
     Medium:
     11:
     0.607,0.596,0.584,0.057,0,377,61,6,0,0,0,0.607,0.596,0.584,0.057,0,377,61,6,0,0,0:
0000
0000
0000
0000
,
0000
0000
0000
0000
,
0000
0000
0000
0000
,
0000
0000
0000
0000
,
0000
0000
0000
0000
,
1000
0000
0001
0100
0001
0000
1000
0010
,
0000
0100
0001
0000
1000
0000
0000
0000
,
1000
0000
0001
0010
0001
0000
1000
0000
,
0001
0100
0010
1000
0010
0100
0001
1000
,
0001
0000
0100
0000
0010
0000
1000
0100
,
0001
0010
0100
0010
,
0001
1000
0010
0000
0100
0000
0001
0000
,
1000
0100
0010
0000
0001
0010
0100
0000
,
1000
0010
0100
0010
,
0001
0010
0100
0010
,
1000
0001
0010
0000
0100
0000
1000
0000
,
0001
0010
0100
0000
1000
0010
0100
0000
,
1000
0010
0100
2000
,
3001
0100
0010
0001
,
1000
0100
0010
1000
,
0001
0010
0100
0000
1000
0100
0010
0000
,
0001
0100
0010
0100
,
1000
0100
0010
2000
,
3001
0100
0010
0001
,
1000
0100
0010
0001
1000
0010
0100
0001
,
2000
0010
0001
0010
,
3002
0010
1000
0013
,
2000
0100
0001
0100
,
3001
0010
0001
0100
0001
0010
0001
0100
,
2000
0010
0100
0010
,
3002
0010
1000
0100
,
0013
1000
0001
0100
,
1000
0010
1000
0100
1000
0010
1000
0100
,
0020
0100
1000
0100
,
0032
1000
0103
2000
,
3002
0100
0010
0100
,
1003
0010
0100
0001
1000
0010
0100
0001
,
0020
0100
1000
0001
,
0230
0000
0301
1000
,
0001
0100
0010
0000
1000
0010
0100
0000
,
0001
0010
0100
0000
1000
0100
0010
0000
,
1000
0110
0001
0110
,
1000
0001
0010
0000
0100
1000
0010
0000
,
1000
0010
0100
0001
1000
0100
0010
0001
,
0200
0000
0000
0300
,
1001
0000
0001
0000
0100
0010
0100
0000
,
0101
0000
0010
0100
0010
0000
1001
0000
,
0100
0010
0100
0000
1001
0000
0010
0100
,
0010
0000
0001
1000
0001
1000
1000
0000
,
1001
0000
1000
0000
0010
0100
0010
0000
,
1100
0000
0100
0010
0100
0000
1010
0000
,
0010
0100
0010
0000
1001
0000
0100
0010
,
0100
0000
1000
0001
1000
0001
0001
0000
,
1100
0000
0010
0000
0100
0001
0100
0000
,
1001
0000
0010
0001
0010
0000
0001
0000
,
0010
0100
0010
0000
0100
0000
1000
0100
,
1000
0000
0001
1000
0001
0100
0100
0000
,
1001
0000
0010
0000
0100
1000
0100
0000
,
1010
0000
0001
0100
0001
0000
1000
0000
,
0010
1000
0010
0000
1100
0000
0001
0010
,
0001
0000
1000
0001
1000
0010
0100
0000
,
2000
3010
0200
0301
,
1000
0100
0010
0001
0010
0100
1000
0001
,
1000
0000
0100
0000
1000
0100
0010
0000
,
0001
0000
1000
0000
0001
0010
0100
0000
,
1000
0000
0001
0000
1000
0100
0010
0000
,
0001
0010
0001
0100
0001
0010
0001
0100
,
0001
0000
0100
0000
0001
0100
0010
0000
,
1000
0000
0100
0000
1000
0010
0100
0000
,
0001
0000
1000
0000
0001
0100
0010
0000
,
1000
0010
1000
0100
1000
0010
1000
0100
,
1000
0000
0001
0000
1000
0100
0010
0000
,
0001
0000
1000
0000
0001
1000
0100
0000
,
0010
0000
1000
0000
0010
0001
0100
0000
,
1000
0010
0100
0001
1000
0010
0100
0001
,
1000
0100
1000
0010
,
0001
1000
0001
0100
,
0001
0100
0010
0000
1000
0010
0100
0000
,
0001
0010
0100
1000
0001
0100
0010
1000
;

//--------------- dance-single - ----------------
#NOTES:
     dance-single:
     :
     Hard:
     16:
     0.732,0.596,0.641,0.354,0,431,67,37,0,0,0,0.732,0.596,0.641,0.354,0,431,67,37,0,0,0:
0000
0000
0000
0000
,
0000
0000
0000
0000
,
0000
0000
0000
0000
,
0000
0000
0000
0000
,
0000
0000
0000
0000
,
1000
0000
0010
0100
0002
0000
1000
1003
,
0000
0001
0100
1000
0001
0010
1000
0000
,
0001
0000
0010
0100
2000
0000
0001
3001
,
1000
0000
0100
0001
0010
0000
0001
0000
1000
0100
0010
0000
0100
0000
0001
0000
,
2000
0000
0010
0010
0000
0100
3100
0000
,
0002
0000
0010
0010
0000
0100
0103
0000
,
0020
0000
1000
1000
0000
0001
0031
0000
,
1000
0100
0010
0001
0010
0100
1000
1000
,
0002
0000
0100
0100
0000
0010
0013
0000
,
2000
0000
0100
0100
0000
0010
3010
0000
,
0200
0000
0001
0001
0000
1000
1300
0000
,
0001
1000
0100
0000
0010
0000
1000
0001
0010
0000
0100
0000
0001
0100
1000
0000
,
0020
0000
0100
0100
0000
0001
0031
0000
,
2000
0000
0010
0010
0000
0001
3001
0000
,
0020
0000
0100
0100
0000
0001
0031
0000
,
0010
1000
0001
0000
0100
0000
0010
0001
1000
0000
0100
0000
0010
1000
0001
0000
,
0200
0000
1000
1000
0000
0001
0301
0000
,
0020
0000
1000
1000
0000
0001
0031
0000
,
0010
0001
1000
0000
0100
0000
0001
1000
0100
0000
0010
0000
0001
0010
0100
0000
,
1000
0001
0100
0000
0010
0000
1000
0010
0100
0000
0001
0000
0100
0010
1000
0000
,
2100
3001
1010
0011
,
1002
0010
0103
0110
,
0102
1003
0011
1010
,
1000
0100
0010
0000
0100
1000
0001
0000
0100
0000
0010
0100
1000
0000
0001
0000
,
0012
1003
0101
1100
,
2001
0100
3010
0110
,
2010
3001
0012
1003
,
0001
0010
0100
0000
1000
0000
0100
0010
0001
0000
0010
0000
1000
0100
0010
0000
,
0012
0103
1010
0101
,
2100
0010
3001
1100
,
2010
3100
0110
1001
,
0001
1000
0010
0000
0100
0000
1000
0010
0001
0000
0100
0000
0010
0001
1000
0000
,
2010
3010
0101
1010
,
0012
0103
1001
0110
,
1000
0010
0100
0000
0001
0000
0100
1000
0010
0000
0001
0000
1000
0000
0100
0001
,
1000
0000
0010
0000
0001
1000
0010
0000
0100
0000
0001
0100
1000
0000
0010
0000
,
2000
0000
3100
0100
0020
0000
0031
0001
,
2000
0000
3010
0100
0001
0001
1000
1000
,
0001
1000
0010
0000
0100
0010
1000
0000
0001
1000
0100
0000
0010
0100
1000
0000
,
2002
0000
3003
0100
,
0110
0000
1000
0100
0001
0100
1000
0010
,
0001
0100
1000
0100
0001
0010
1000
0100
,
0001
0100
1000
0010
0001
0100
1000
0100
,
0001
0010
1000
0100
0001
0010
1000
0000
,
1001
0000
0001
0010
1000
0010
0001
0100
,
1000
0010
0001
0010
1000
0100
0001
0010
,
1000
0010
0001
0100
1000
0010
0001
0010
,
1000
0100
0001
0010
1000
0100
0001
0000
,
1001
0000
0001
0100
1000
0100
0010
0001
,
1000
0100
0001
0100
0010
1000
0001
0100
,
1000
0100
0010
0001
1000
0100
0001
0100
,
0010
1000
0001
0100
1000
0010
0001
0000
,
1001
0000
0001
0010
1000
0010
0100
0001
,
1000
0010
0001
0010
0100
1000
0001
0010
,
1000
0010
0100
0001
1000
0010
0001
0010
,
0100
1000
0001
0010
1000
0100
0001
0000
,
1000
0100
0010
0001
2000
0000
3001
0100
,
0010
0100
1000
0000
0001
0000
0010
0001
0100
0000
1000
0000
0001
0010
1000
0000
,
2100
3001
1010
0011
,
1002
0010
0103
0110
,
0101
1100
0011
1010
,
1000
0010
0100
0000
0001
0000
0100
1000
0010
0000
0001
0000
1000
0100
0010
0000
,
0101
1010
0011
1100
,
2001
0100
3010
0110
,
2010
3001
0012
1003
,
0001
0010
0100
0000
1000
0000
0100
0010
0001
0000
0010
0100
1000
0000
0010
0000
,
0012
0103
1010
0101
,
2100
0010
3001
1100
,
1010
0011
0110
1001
,
0001
0100
0010
0000
1000
0001
0010
0000
0100
0001
1000
0000
0001
0010
0100
0000
,
1010
0101
0011
1100
,
1002
0103
0110
1001
,
1000
0010
0100
0000
0001
1000
0100
0000
0010
0000
0001
0100
1000
0000
0010
0100
,
0001
0000
0010
0000
0100
0001
1000
0000
0100
1000
0001
0100
0010
0000
0100
0000
;
