#TITLE:マッシュルームナイト;
#ARTIST:SOUND HOLIC feat. Nana Takahashi;
#TITLETRANSLIT:Mushroom Night;
#GENRE:ブルーアーカイブ×NonStopDance ~船上バニーチェイサー&スピーディーなハリネズミ~;
#MUSIC:Mushroom Night.ogg;
#BANNER:Mushroom Night.png;
#BACKGROUND:Mushroom Night-bg.png;
#CDTITLE:./CDTitles/beatmania ARCADE MON.png;
#SAMPLESTART:49.085;
#SAMPLELENGTH:15.000;
#SELECTABLE:YES;
#OFFSET:0.000;
#BPMS:0.000=220.000;
#STOPS:;
#BGCHANGES:;
#FGCHANGES:;

//--------------- dance-single - ----------------
#NOTES:
     dance-single:
     :
     Beginner:
     3:
     0,0,0,0,0:
0000
0000
0000
0000
,
0000
0000
0000
0000
,
0000
0000
0000
0000
,
0000
0000
0000
0000
,
0000
0000
0000
0000
,
0001
0000
0000
0000
,
0100
0000
0000
0000
,
1000
0000
0000
0000
,
0001
0000
0000
0000
,
0010
0000
0000
0000
,
1000
0000
0000
0000
,
0001
0000
0000
0000
,
0010
0000
0000
0000
,
1000
0000
0000
0000
,
0001
0000
0000
0000
,
0010
0000
0000
0000
,
2000
0000
0000
0000
,
3001
0000
0000
0000
,
0010
0000
0100
0000
,
0010
0000
0000
0000
,
1000
0000
0001
0000
,
0100
0000
0000
0000
,
0010
0000
0100
0000
,
0001
0000
0000
0000
,
1000
0000
0001
0000
,
1001
0000
0000
0000
,
0010
0000
0100
0000
,
1000
0000
0000
0000
,
0001
0000
0000
0000
,
0010
0000
0000
0000
,
0100
0000
0000
0000
,
0001
0000
0010
0000
,
0100
0000
0000
0000
,
1000
0000
0000
0000
,
0001
0000
0000
0000
,
0100
0000
0000
0000
,
0010
0000
1000
0000
,
0001
0000
0000
0000
,
0010
0000
0000
0000
,
0100
0000
0000
0000
,
0010
0000
0001
0000
,
0100
0000
0000
0000
,
1000
0000
0000
0000
,
0001
0000
0000
0000
,
0000
0000
0000
0000
,
1001
0000
0100
0000
,
0010
0000
0000
0000
,
0001
0000
0010
0000
,
0100
0000
0000
0000
,
1000
0000
0000
0000
,
0001
0000
0000
0000
,
0010
0000
0100
0000
,
0010
0000
0000
0000
,
1000
0000
0000
0000
,
0001
0000
0000
0000
,
0010
0000
0100
0000
,
1000
0000
0000
0000
,
1000
0000
0000
0000
,
0001
0000
0000
0000
,
0010
0000
0000
0000
,
0100
0000
0000
0000
,
1000
0000
0000
0000
,
0000
0000
0000
0000
,
0001
0000
0000
0000
,
0000
0000
0000
0000
,
0100
0000
0000
0000
,
0000
0000
0000
0000
,
0010
0000
0000
0000
,
1000
0000
0000
0000
,
0010
0000
0000
0000
,
0000
0000
0000
0000
,
0100
0000
0000
0000
,
0000
0000
0000
0000
,
1000
0000
0000
0000
,
0000
0000
0000
0000
,
0001
0000
0000
0000
,
0000
0000
0000
0000
,
0100
0000
0000
0000
,
0010
0000
0000
0000
,
1000
0000
0000
0000
,
0001
0000
0000
0000
,
0010
0000
0000
0000
,
0100
0000
0000
0000
,
1000
0000
0100
0000
,
0010
0000
0000
0000
,
0001
0000
0000
0000
,
0010
0000
0000
0000
,
0100
0000
0000
0000
,
1000
0000
0000
0000
,
0001
0000
0000
0000
,
0010
0000
0000
0000
,
0100
0000
0010
0000
,
1000
0000
0000
0000
,
0001
0000
0000
0000
,
1000
0000
0000
0000
,
0010
0000
0000
0000
,
0100
0000
0000
0000
,
0010
0000
0000
0000
,
0100
0000
0000
0000
,
1000
0000
0000
0000
,
0001
0000
0000
0000
,
0010
0000
0100
0000
,
1000
0000
0000
0000
,
0001
0000
0000
0000
,
1000
0000
0000
0000
,
0010
0000
0000
0000
,
0100
0000
0000
0000
,
2002
0000
0000
0000
,
0000
0000
0000
0000
,
3003
0000
0000
0000
;

//--------------- dance-single - ----------------
#NOTES:
     dance-single:
     :
     Easy:
     7:
     0,0,0,0,0:
0000
0000
0000
0000
,
0000
0000
0000
0000
,
0000
0000
0000
0000
,
0000
0000
0000
0000
,
0000
0000
0000
0000
,
1000
0000
0010
0000
,
0100
0000
0001
0000
,
0010
0000
0100
0000
,
0002
0000
0000
0003
,
1000
0000
0010
0000
,
0100
0000
0010
0000
,
0100
0000
0001
2000
,
0000
0000
0000
3000
,
0001
0000
0010
0000
,
0100
0000
0010
0000
,
1000
0000
0000
0001
0000
0000
0000
0000
0100
0000
0000
0010
,
0000
0000
1000
0000
0000
0002
0000
0000
0000
0000
0000
0000
,
1003
0000
0000
0000
,
0100
0000
0000
0000
,
0010
0000
0100
0000
,
1000
0000
0000
0000
,
0001
0000
0000
0000
,
0010
0000
0100
0000
,
0010
0100
1000
0010
,
0001
0010
0100
1000
,
0001
0000
0010
0000
,
0100
0000
0000
0000
,
1000
0000
0001
0000
,
0100
0000
0000
0000
,
0010
0000
0100
0000
,
1000
0000
0001
0000
,
0010
0100
1000
0001
,
0100
0000
0000
0000
0000
2002
0000
0000
0000
3003
0000
0000
,
0010
0000
0100
0000
,
1000
0000
0001
0000
,
0010
0000
0001
0000
,
0100
0000
1000
0000
,
0001
0000
0100
0000
,
0010
1000
0001
0000
,
0200
0000
0320
0000
,
0032
0003
1000
0000
,
1001
0000
0000
0000
,
0000
0000
0000
0000
,
0110
0000
0000
0000
,
0000
0000
0000
0000
,
1001
0000
0100
0000
,
0010
0000
0000
0000
,
0001
0000
1000
0000
,
0001
0010
0100
0000
,
1000
0000
0001
0000
,
0100
0000
1000
0000
,
0001
0100
0010
0000
,
1000
0000
0001
0000
,
0010
0000
0100
0000
,
1000
0001
0100
0000
,
0010
0100
1000
0000
,
0001
1000
0001
0000
,
0100
0000
0010
0000
,
1000
0000
0001
0000
,
0100
0010
1000
0000
,
0001
0000
1000
0000
,
1001
0000
0100
0000
,
0010
0100
1000
0000
,
0001
0000
0010
0000
,
0100
0001
0010
0000
,
0100
1000
0001
0000
,
0100
0010
0100
0000
,
1000
0000
0001
0000
,
0100
0000
1000
0000
,
0001
0000
0100
0000
,
0010
0000
0100
0000
,
1000
0001
0100
0000
,
0010
1000
0001
0000
,
0100
0000
0010
0000
,
0001
0010
0100
0000
,
1000
0000
0001
0000
,
1001
0000
0000
0000
,
0100
0000
0000
0000
,
0010
0000
0000
0000
,
0001
0000
0100
0000
,
1000
0000
0000
0000
,
0010
0000
0100
0000
,
1000
0000
0001
0000
,
0100
0010
0100
0000
,
1000
0000
0000
0000
0000
0001
0000
0000
0000
0000
0000
0000
,
1001
0000
0010
0000
,
0100
1000
0001
0000
,
0100
0000
0010
0000
,
0001
1000
0100
0000
,
0010
0000
0100
0000
,
0002
0000
0000
1003
,
0010
0000
0100
0000
,
1000
0001
0100
0000
,
0010
0000
0100
0000
,
1000
0000
0001
0000
,
0100
0000
0010
0000
,
1000
0000
0001
0000
,
0010
0100
0001
0000
,
0010
0000
0100
0000
,
1000
0000
0001
0000
,
0100
0010
0100
0000
,
1000
0000
0001
0000
,
0100
0000
0010
0000
,
1000
0001
0010
0000
,
0100
1000
0001
0000
,
0100
0000
0000
0010
0000
0000
1000
0000
0000
0000
0000
0001
,
0000
0000
0000
0000
,
2002
0000
0000
0000
,
0000
0000
0000
0000
,
3003
0000
0000
0000
;

//--------------- dance-single - ----------------
#NOTES:
     dance-single:
     :
     Medium:
     11:
     0,0,0,0,0:
0000
0000
0000
0000
,
0000
0000
0000
0000
,
0000
0000
0000
0000
,
0000
0000
0000
0000
,
0000
0000
0000
0000
,
0001
0100
0001
0100
,
0010
0100
0010
1000
,
0001
0010
0100
0010
,
0100
0000
0001
0000
0000
1000
0000
0000
0100
0000
0000
0000
,
0001
0010
0100
0010
,
0001
0010
0001
1000
,
0001
0000
0000
1000
0000
0000
0010
0000
0000
1000
0000
0001
,
0000
0000
0010
0000
0000
1000
0000
0000
0001
1000
0000
0000
,
0100
0000
0000
1000
0000
0000
0100
0000
0000
0010
0000
1000
,
0000
0000
0010
0000
0000
0001
0000
0000
0200
0000
0000
0000
,
0310
0000
0000
0100
0000
0000
0001
0000
1000
0000
0000
0010
,
0000
0000
0001
0000
0000
0210
0000
0000
0000
0000
0000
0000
,
0301
0000
0001
0000
,
0100
0000
0010
0000
,
0010
0000
1000
0000
,
0000
0010
0100
1000
,
0010
0000
0001
0000
,
0010
0100
0010
0000
,
0001
1000
0001
0010
,
0100
0000
0001
1000
,
0001
0000
0001
1000
,
0100
0010
0100
0010
,
0001
0000
1000
0000
,
0010
0100
0001
1000
,
0001
0000
0010
0000
,
0010
0100
0001
0100
,
0001
0100
0010
1000
,
0010
0000
1000
0000
0000
2002
0000
0000
0000
3003
0000
0000
,
0100
0010
0001
0100
,
0010
1000
0100
1000
,
0001
0000
0000
0100
0000
0000
0001
0000
0000
0010
0000
1000
,
0000
0000
0000
0010
0000
0001
0000
0000
0000
0010
0000
0000
,
0001
0100
0001
0100
,
0001
1000
0010
0100
,
0010
1000
0001
0010
,
0001
0000
0000
1000
0000
0000
0010
0000
0000
0100
0000
0001
,
0000
0100
0010
1000
,
0001
0100
0010
0100
,
0001
0100
0000
1000
,
0000
1000
0000
0000
,
1001
0010
0001
1000
,
0100
0010
0100
0010
,
0001
0100
0001
1000
,
0001
1000
0010
1000
,
0010
0000
0000
0100
0000
0000
0001
0000
0000
1000
0000
0001
,
0000
0000
1000
0000
0000
0001
0000
0000
0000
1000
0000
0000
,
0100
0000
0000
1000
0000
0000
0010
0000
1000
0000
0000
0001
,
0000
0000
0010
0000
0000
0200
0000
0000
0000
0300
0000
0000
,
1001
0100
0010
1000
,
0001
0010
0100
1000
,
0100
1000
0010
1000
,
0010
0100
0001
0100
,
0001
0100
0010
1000
,
0100
0000
0010
0000
,
0001
0000
0000
0010
0000
0000
0001
0000
1000
0000
0000
0001
,
0000
0000
0010
0000
0000
1000
0000
0000
0000
0010
0000
0000
,
0001
1000
0001
1000
,
0001
0000
1000
0010
0000
0000
0100
0000
0000
0010
0000
0000
,
0100
0010
0001
0100
,
0001
0000
0010
0100
0000
0000
0010
0000
0000
0100
0000
0000
,
0001
0000
0000
0010
0000
0000
0100
0000
0000
1000
0000
0001
,
0010
0100
0001
1000
,
0001
1000
0000
0000
0001
0000
0000
0100
,
0010
0000
0000
0100
0000
0000
0010
0000
0001
1000
0000
0000
,
0001
0010
0100
1000
,
0010
0100
0010
0100
,
0001
0100
0010
1000
,
0100
1000
0001
0010
,
0001
0100
0001
0010
,
0100
0010
0001
1000
,
0100
1000
0100
0010
,
0100
0000
0000
0000
,
0000
1000
0000
1000
,
0000
0001
0000
0001
,
0000
0100
0000
0100
,
0000
0010
0000
0010
,
0000
0100
0000
1000
,
0000
0001
0100
0010
,
0001
0000
0010
0000
,
0010
0100
0010
0100
,
1001
0010
0100
1000
,
0100
1000
0001
0100
,
0010
0000
0000
0100
0000
0000
0010
0000
1000
0000
0000
0000
,
0001
0000
1000
0000
0000
0001
0000
0000
0100
0000
0000
0000
,
0001
0010
0001
0010
,
0100
0000
0001
0000
,
0010
0000
0000
1000
0000
0000
0100
0000
0000
1000
0000
0010
,
0000
0000
0100
0000
0000
0001
0000
0000
0000
1001
0000
0000
,
0000
0000
0000
0000
,
0000
0000
0020
0000
,
0130
0010
0001
0010
,
0001
0100
0001
0000
,
0100
0010
0100
1000
,
0100
0010
0001
0000
,
0100
1000
0010
0100
,
0010
1000
0010
0000
,
0001
0000
0000
0100
0000
0000
0001
0000
1000
0000
0000
0001
,
0000
0000
1000
0000
0000
2002
0000
0000
0000
3003
0000
0000
,
0010
0000
0000
0100
0000
0000
0010
0000
0000
1000
0000
0001
,
0000
0000
0000
1000
0000
0000
0100
0000
1000
0000
0000
0001
,
0000
0000
0000
0100
0000
0000
1000
0000
0001
0000
0000
2002
,
0000
0000
3003
0000
,
0220
0000
0000
0000
,
0000
0000
0000
0000
,
0330
0000
0000
0000
;

//--------------- dance-single - ----------------
#NOTES:
     dance-single:
     :
     Hard:
     14:
     0,0,0,0,0:
0000
0000
0000
0000
,
0000
0000
0000
0000
,
0000
0000
0000
0000
,
0000
0000
0000
0000
,
0000
0000
0000
0000
,
1001
0010
0100
1000
,
0001
0100
0010
1000
,
0001
0100
0010
1000
,
0001
0000
1000
0000
0000
0001
0000
0000
0110
0000
0000
0000
,
1001
0000
0000
0010
0000
0000
1000
0000
0001
0100
0000
1000
,
0001
0000
0100
0010
0000
0000
0002
0000
0000
0103
0000
0000
,
1000
0000
0000
0010
0000
0100
1000
0000
0000
0000
0000
0001
,
0000
0000
0010
0000
0000
0100
0000
0000
0020
0000
0000
0000
,
0130
0000
0000
1000
0000
0001
0010
0000
0000
0100
0000
0001
,
0010
0000
1000
0000
0000
0001
0000
0000
1001
0000
0000
0000
,
0100
0000
0001
1000
0000
0000
0100
0000
0001
1000
0000
0001
,
0010
0000
0100
0000
0000
2000
0000
0000
0000
0000
0000
0000
,
3002
1000
0000
0100
,
2003
0010
0000
0001
,
3020
0100
0000
0100
,
1030
0000
0000
0100
0000
0000
0000
0000
0001
1000
0000
0000
,
0001
0100
0000
0010
,
0100
1000
0000
0001
,
0010
0100
0001
0010
,
1000
0000
0001
0000
0000
2000
0000
0000
0002
0000
3003
0000
,
0200
0001
0000
0010
,
0302
0100
0000
1000
,
0203
0010
0000
0010
,
0301
0000
0000
0010
0000
0000
0000
0000
1000
0001
0000
0000
,
1000
0010
0000
0100
,
0010
0001
0100
1000
,
0100
0010
1000
0100
,
0001
0000
1000
0000
0000
2002
0000
0000
0000
3003
0000
0000
,
0001
0000
0000
0100
0000
1000
0010
0000
0000
0100
0000
0000
,
0001
0000
1000
0010
0000
0000
0001
0000
0000
0100
0000
1000
,
0001
0000
0000
0100
0000
0001
0010
0000
0000
0100
0000
0000
,
0001
0000
1000
0010
0000
0000
0100
0000
0000
1000
0000
0000
,
0010
0000
0000
0100
0000
0010
0001
0000
0000
0100
0000
0000
,
0010
0000
1000
0100
0000
0000
0010
0000
0001
1000
0000
0000
,
0020
0000
2030
0000
,
3001
0000
0000
0010
0000
0000
0001
0000
0010
1000
0000
0001
,
0100
0000
0000
1000
0000
0000
0001
0000
0000
0010
0000
1000
,
0001
0000
0010
0100
0000
1000
0001
0000
0010
0100
0000
0000
,
0002
1000
0000
1000
,
0000
0000
0000
1000
0000
0000
0013
0000
1000
0000
0001
0000
,
0010
1000
1001
0000
,
0001
0000
0010
0000
0000
1000
0001
0000
0100
0000
0000
0000
,
0010
0000
0000
0100
0000
0000
1000
0000
0010
0001
0000
0000
,
0010
0000
1000
0000
0000
1001
0000
0000
0110
0000
0000
0000
,
1000
0000
0000
0001
0000
0000
0100
0000
0000
0010
0000
1000
,
0000
0000
0010
0000
0000
0002
0000
0000
0000
1003
0000
0000
,
0010
0000
0000
1000
0000
0000
0010
0000
1000
0000
0000
0010
,
0000
0000
1000
0000
0000
2002
0000
0000
0000
3003
0000
0000
,
0010
0000
1000
0100
0000
0000
0001
0000
0010
1000
0000
0000
,
0001
0000
0010
0000
0000
1000
0001
0000
0100
0000
0000
0000
,
0001
0010
1000
0001
,
0010
0000
1000
0000
0000
0001
0010
0000
2000
0000
0000
0000
,
3001
0000
0000
0010
0000
0000
0100
0000
0000
1000
0000
0010
,
0001
0000
0100
0000
0000
1000
0000
0000
0000
0001
0000
0000
,
0010
0000
0000
0100
0000
0000
1000
0000
0001
0000
0000
0010
,
0000
0000
1000
0000
0000
2002
0000
0000
0000
3003
0000
0000
,
0001
0000
0000
0010
0000
0000
0001
0000
0100
1000
0000
0001
,
0100
0000
0001
1000
0000
0000
0010
0000
0000
0100
0000
0000
,
0010
0000
0000
0100
0000
0001
0010
0000
0000
1000
0000
0001
,
0100
0000
0001
1000
0000
0000
0001
0000
1000
0100
0000
0001
,
0010
0000
0000
0100
0000
0000
0010
0000
0000
0100
0000
0001
,
0000
0000
1000
0000
0000
0100
0010
0000
0002
0000
0000
0000
,
0103
1000
0100
0000
0001
0000
0010
1000
,
0001
0000
0000
0100
0000
0000
0010
0000
0001
0100
0000
0000
,
0001
0000
0000
1000
0000
0000
0100
0000
1000
0010
0000
1000
,
0001
0000
0010
0100
0000
0000
0010
0000
0000
0100
0000
0000
,
0001
0000
0000
1000
0000
0001
0100
0000
1000
0010
0000
0100
,
0001
0000
1000
0010
0000
0001
0100
0000
0000
0010
0000
0000
,
0001
0000
0010
0100
0001
0000
0010
0000
0000
1000
0000
0100
,
0010
0000
1000
0100
0000
0001
0010
0000
0000
1000
0000
0000
,
0100
0000
0000
1000
0000
0000
0001
0000
0100
0000
1000
0000
,
2002
0000
3003
0000
,
0020
0000
0230
0000
,
0320
0000
0032
0000
,
2003
0000
3020
0000
,
2030
0000
3002
0000
,
0013
0000
0000
0100
0000
0000
1000
0000
0010
0000
0000
0001
,
0000
0000
1000
0000
0000
0010
0001
0000
0000
0010
0000
0000
,
0001
0000
0000
0010
0000
0000
1000
0000
1000
0000
0000
0001
,
0000
0000
1001
0000
0000
0220
0000
0000
0000
0330
0000
0000
,
0010
0000
1000
0100
0000
0000
0001
0000
0010
1000
0000
0000
,
0001
0000
0010
0000
0000
1000
0001
0000
0100
0000
0000
0000
,
0001
0010
1000
0001
,
0010
0000
1000
0000
0000
0001
0010
0000
2000
0000
0000
0000
,
3001
0000
0000
0010
0000
0000
0100
0000
0000
1000
0000
0010
,
0001
0000
0100
0000
0000
1000
0000
0000
0000
0001
0000
0000
,
0010
0000
0000
0100
0000
0000
1000
0000
0001
0000
0000
0010
,
0000
0000
1000
0000
0000
2002
0000
0000
0000
3003
0000
0000
,
0000
0100
0000
0100
,
0000
0010
0000
0010
,
1000
0000
0001
0010
0000
0000
0100
0001
0000
1000
0000
0000
,
0001
0010
0001
0010
,
0001
0000
0000
1000
0000
0001
0010
0000
0000
0100
0000
1000
,
0010
0000
0001
0010
0000
1000
0100
0000
0000
0010
0000
0000
,
0100
0000
0000
1000
0000
0000
0010
0000
0000
0100
0000
0001
,
0010
0000
0100
1000
0000
0001
0100
0000
1002
0000
0000
0000
,
0103
0000
0000
0010
0000
0000
0100
0000
1000
0000
0000
0001
,
0010
0000
1000
0001
0000
0020
0000
0000
0000
0000
0000
0000
,
0130
0000
0000
0010
0000
0000
0001
0000
0000
1000
0000
0001
,
0100
0000
0000
0010
0000
0000
0001
0000
0010
1000
0000
0001
,
0000
0000
0000
1000
0000
0001
0010
0000
1000
0000
0000
0001
,
0000
0000
0000
0000
0000
0001
1000
0000
0000
0000
0000
0000
,
0010
0000
0000
0000
0000
0000
1000
0000
0001
0000
0010
0000
,
1000
0000
0001
0000
0010
0000
0100
0000
1000
0000
0010
0000
,
2002
0000
0000
0000
,
3003
0000
0000
0000
;
