
//----- song ID: enso -----//
#TITLE:Mt. Pear 7D0;
#ARTIST:NAMCO Sound Team "SCaLL";
#GENRE:ナムコオリジナル;
#MUSIC:Mt. Pear 7D0.ogg;
#BANNER:Mt. Pear 7D0.png;
#BACKGROUND:Mt. Pear 7D0-bg.png;
#CDTITLE:/CDTitles/NSD A3.png;
#SAMPLESTART:32.400;
#SAMPLELENGTH:15.000;
#SELECTABLE:YES;
#OFFSET:0.000;
#BPMS:0.000=200.000
,204.000=50.000
,212.000=100.000
,220.000=200.000
;
#STOPS:;
#BGCHANGES:;
#FGCHANGES:;

//--------------- dance-single - ----------------
#NOTES:
     dance-single:
     :
     Beginner:
     6:
     0,0,0,0,0:
0000
0000
0000
0000
,
0000
0000
0000
0000
,
0000
0000
0000
0000
,
0001
0010
0100
0000
,
1000
0001
0100
0000
,
0010
1000
0001
0000
,
0100
0000
0010
0000
,
1000
0001
0100
0000
,
0010
0100
1000
0000
,
0001
0100
0010
0000
,
1000
0000
0020
0000
,
0130
0000
0000
0000
,
1000
0001
0100
0000
,
0010
0000
0000
0000
,
1000
0001
0100
0010
,
1000
0000
0000
0000
,
0001
1000
0010
0000
,
0100
0000
0010
0000
,
1000
0001
0100
0000
,
0010
0000
1000
0000
,
0001
0000
0100
0010
,
1000
0000
0001
0000
,
0100
0010
1000
0001
,
0100
0000
0010
0000
,
1000
0000
0001
0000
,
0010
0100
1000
0001
,
0010
0000
0000
0000
,
1001
0100
1000
0001
,
0100
0010
1000
0000
,
0001
0100
0010
1000
,
0001
0000
0100
0000
,
0010
1000
0001
0000
,
0100
0010
1000
0000
,
0001
0000
0100
0000
,
1000
0000
0001
0000
,
0100
0010
1000
0000
,
0001
0100
0010
0000
,
1000
0001
0100
0010
,
2000
0000
0000
0000
,
3001
0010
0100
0000
,
1000
0000
0001
0000
,
0100
0000
0010
0000
,
0001
0010
0100
0000
,
1000
0000
0001
0000
,
0100
0010
1000
0000
,
0001
0000
0100
0000
,
0010
1000
0001
0000
,
0100
0000
0010
0000
,
1000
0001
0100
0000
,
0010
0000
0100
0000
,
1000
0001
0100
0000
,
0100
0000
0001
0000
0100
0100
0001
0000
0100
0000
0001
0000
0100
0100
0001
0001
,
0100
0000
0001
0000
0100
0100
0001
0000
0100
0000
0001
0000
0100
0100
0001
0001
,
0100
0001
0100
0001
0100
0001
0100
0000
,
0100
0001
0100
0001
0100
0001
0100
0000
,
0001
0100
0001
0100
,
0001
0100
0001
0100
,
0200
0000
0000
0000
,
0301
0000
0000
0000
,
1001
0100
1000
0001
,
0100
0000
0010
0000
,
0100
0000
1000
0000
,
0001
0100
0010
0000
,
1000
0000
0001
0000
,
0100
0001
1000
0000
,
0100
0000
0010
0000
,
1000
0001
0100
0000
,
0001
0000
1000
0000
,
0001
0000
0100
0000
,
0010
0000
1000
0000
,
0001
0000
0100
0000
,
0010
0000
1000
0000
,
0001
0000
0100
0000
,
0001
0000
1000
0000
,
0001
0100
0010
0000
,
1000
0000
0001
0000
,
0100
0000
1000
0000
,
0001
0000
0000
0000
,
1000
0000
0001
0000
,
0100
0000
0010
0000
,
1000
0001
0100
1000
,
0001
0100
0010
0000
,
1000
0000
0001
0000
,
0100
0000
0010
0000
,
1000
0001
0100
0010
,
1000
0000
0001
0000
,
0100
0000
0010
0000
,
1000
0000
0001
0000
,
0100
0000
0010
0000
,
1000
0000
0001
0000
,
1000
0000
0001
0000
,
0100
0000
0010
0000
,
1000
0000
0001
0000
,
0100
1000
0001
0100
,
0000
1001
0000
0000
;

//--------------- dance-single - ----------------
#NOTES:
     dance-single:
     :
     Easy:
     10:
     0,0,0,0,0:
0000
0000
0000
0000
,
0000
0000
0000
0000
,
0000
0000
0000
0000
,
0001
0010
1000
1001
,
0100
0010
1000
1001
,
0100
0010
0100
1001
,
0000
0011
0000
1100
,
1000
0001
0100
0010
,
0100
1000
0001
0100
,
0010
1000
0001
0100
,
1000
0000
0020
0000
,
1030
0000
0100
0000
,
0001
0010
0100
1000
,
0001
0000
0100
0000
,
0010
1000
0001
0100
,
0010
0000
0100
0000
,
0001
0000
0100
0000
,
0010
0000
1000
0000
,
0001
0100
0010
1000
,
0001
0000
0100
0000
,
0010
1000
0001
0000
,
0100
0000
0010
0000
,
0001
1000
0001
0100
,
0010
0000
0100
0000
,
1000
0000
0001
0000
,
1000
0100
0010
0001
,
2000
0000
3001
0000
,
1001
0100
0010
1000
,
0001
0100
0010
1000
,
0001
0100
0010
0100
,
1000
0001
0100
0010
,
0001
0100
0010
0100
,
1000
0001
0100
0010
,
0100
0001
0010
0100
,
0100
0100
0001
0000
,
1001
0100
0010
1000
,
0001
0100
0001
0010
,
1000
0001
0100
0010
,
2000
0000
3002
0000
,
0103
1000
0001
0100
,
0010
1000
0001
0000
,
0100
0010
1000
0001
,
0200
0000
0310
0000
,
1000
0001
0100
0010
,
1000
0001
1001
0000
,
0100
0010
1000
0001
,
0100
0010
0200
0000
,
1300
0001
0010
0100
,
0001
1000
1001
0000
,
0100
0010
1000
0001
,
0100
0000
0002
0000
,
0103
0000
0001
0000
0100
0100
0001
0000
0100
0000
0001
0000
0100
0100
0001
0001
,
0100
0000
0001
0000
0100
0100
0001
0000
0100
0000
0001
0000
0100
0100
0001
0001
,
0100
0001
0100
0001
0100
0001
0100
0000
,
0001
0100
0001
0100
0001
0100
0001
0000
,
0100
0000
0100
0000
,
0100
0000
0100
0000
,
0100
0100
0001
0000
,
1001
0000
0000
0000
,
0110
1000
0001
0100
,
0010
0100
1000
0001
,
0100
0010
0100
1000
,
0001
0100
0010
0100
,
1000
0001
0100
0010
,
1000
0001
0100
0010
,
0100
0001
0010
0100
,
1000
0001
1001
0000
,
0100
0010
1000
0001
,
0100
0010
0100
1000
,
0001
0100
0010
1000
,
0001
0100
0010
1000
,
1001
0100
0010
0001
,
0010
0100
0001
0010
,
1000
0010
0100
1000
,
0001
0100
0010
1000
,
1001
0000
0000
0110
0000
0000
1001
0000
,
0000
1000
0001
0100
,
0010
1000
0002
0000
,
1003
0010
0100
0000
,
0001
1000
0001
0000
,
0100
1000
0001
0100
,
0010
1000
0002
0003
,
1000
0010
0100
0000
,
0001
1000
0001
0000
,
0100
0010
1000
0001
,
0100
0001
0020
0000
,
0130
1000
0001
0100
,
0010
0100
1000
0001
,
0100
0010
1000
0001
,
2000
0000
3002
0000
,
1003
0001
0100
0010
,
0100
1000
0001
0100
,
0010
0100
0001
0010
,
0100
1000
0001
0100
,
0000
1001
0000
0000
;

//--------------- dance-single - ----------------
#NOTES:
     dance-single:
     :
     Medium:
     12:
     0,0,0,0,0:
0000
0000
0000
0000
,
0000
0000
0000
0000
,
0000
0000
0000
0000
,
1001
0000
0001
0000
0100
1000
0001
0000
,
0110
0000
1000
0000
0001
0010
0100
0000
,
1001
0000
0010
0000
0100
1000
0001
0000
,
0010
0100
1000
0000
0001
0010
0100
0000
,
1001
0000
0001
0000
0100
1000
0001
0000
,
0110
0000
0100
0000
1000
0001
0010
0000
,
0101
0000
0010
0000
0100
1000
0001
0010
,
0100
1000
0001
1000
0020
0000
0000
0000
,
1030
0000
0001
0000
0000
0100
0000
1000
,
0001
0010
0100
0000
1000
0000
1001
0000
,
0110
0000
0010
0000
0000
0100
0000
1000
,
0000
0001
0010
0000
0100
0000
1000
0000
,
1001
0000
0010
0000
0000
1000
0000
0001
,
0000
0010
0100
0000
1000
0000
0001
0000
,
1001
0000
0010
0000
0000
0100
0000
1000
,
0000
0001
0010
0100
1000
0000
1001
0000
,
0110
0001
0010
0100
,
1000
0001
0010
0000
0100
0000
1001
0000
,
0010
0000
0100
1000
0001
0000
0010
0000
,
0100
0001
0010
0100
0000
1000
0001
0000
,
0010
1000
0001
0000
0010
0000
0100
0000
,
1000
0001
0010
0000
0100
0000
1000
0000
,
0001
0010
0100
1000
0001
0010
0100
0001
,
0020
0130
2002
3003
,
0010
0000
0100
1000
0010
0000
1000
0000
,
0100
0001
0010
1000
0100
0000
0010
0000
,
0100
0000
1000
0010
0001
0000
0010
0000
,
0001
1000
0100
0010
0001
0100
1000
0001
,
0100
0000
1000
0000
0001
0010
1000
0000
,
0010
0000
0100
1000
0010
0000
1000
0000
,
0001
1000
0100
0000
0001
0000
1000
0000
,
0100
0001
1000
0010
0100
0001
0200
0000
,
0310
0000
0100
0000
0010
1000
0100
0000
,
0010
0001
1000
0010
0100
0000
1000
0000
,
0100
0000
0010
1000
0001
0000
1000
0000
,
1000
0000
0001
1000
0000
0100
0010
0000
0001
1000
0000
0010
,
1000
0000
0010
0000
0100
1000
0010
0000
,
0001
0010
0100
1000
0010
0000
0101
0000
,
0001
0000
0100
1000
0010
0000
1000
0000
,
0200
0001
0001
0320
,
1030
0000
0100
1000
0000
0001
0010
0100
,
1000
0001
0110
0002
,
1003
0000
0001
0010
0000
0100
1000
0001
,
0010
0000
0100
0000
1000
0001
0010
0100
,
1000
0000
0100
0001
0010
0100
1000
0000
,
0001
0010
1001
0020
,
0130
0000
1000
0001
0000
0010
0100
1000
,
0001
0010
0020
0000
,
0130
0000
0000
0000
0001
0000
0000
0000
0100
0000
0100
0000
0001
0000
0000
0000
0100
0000
0000
0000
0001
0000
0000
0100
0100
0000
0100
0000
0001
0000
0001
0000
,
0100
0000
0000
0000
0001
0000
0000
0000
0100
0000
0100
0000
0001
0000
0000
0000
0100
0000
0000
0000
0001
0000
0000
0100
0100
0000
0100
0000
0001
0000
0001
0001
,
0100
0000
0001
0000
0100
0000
0001
0001
0100
0000
0100
0000
0100
0100
0001
0000
,
0100
0000
0100
0000
0100
0000
0000
0000
0001
0000
0000
0000
0001
0000
0001
0000
0100
0100
0100
0001
0100
0000
0100
0000
0001
0000
0100
0000
0001
0000
0000
0000
,
0100
0100
0001
0000
0100
0100
0001
0000
,
0100
0100
0001
0000
0100
0100
0001
0000
,
0100
0001
0100
0001
0100
0001
0100
0001
,
0100
0000
1000
0000
0001
0000
0020
0030
,
1001
0000
1000
0010
0001
0000
0100
0000
,
0010
1000
0100
0001
1000
0000
0001
0000
,
0100
0000
0010
1000
0100
0000
1000
0000
,
0001
1000
0100
0001
0010
0000
0100
0000
,
1000
0010
0001
0000
0100
0000
0010
0100
,
1000
0000
0001
0000
0100
1000
0010
0000
,
0100
0000
0001
1000
0010
0000
0100
0000
,
1000
0010
0001
0000
1002
0000
0000
0000
,
0103
0000
0010
0000
1000
0100
0001
0000
,
0100
1000
0010
0000
0100
0001
1000
0000
,
0001
0000
0100
1000
0010
0000
1000
0000
,
0001
0010
0100
1000
0010
0000
1000
0010
,
0001
0000
0100
0000
0010
1000
0001
0000
,
0010
0000
0100
1000
0001
0000
0010
0000
,
1000
0001
0010
1000
0100
0000
1000
0000
,
0001
0010
0100
0000
0010
0001
1000
0001
,
2000
0000
0000
3020
0000
0000
0032
0000
,
0000
1003
0100
1000
0001
0010
0100
0001
,
0010
1000
0002
0000
,
1003
0010
0100
1000
,
0001
1000
0001
0010
,
0100
0000
1000
0010
0001
1000
0100
0001
,
0010
1000
0002
0103
,
1000
0010
0100
1000
,
0001
1000
0001
0010
,
0100
0000
0010
0001
1000
0010
0001
1000
,
0100
0001
0020
0000
,
0130
0001
1000
0000
0001
1000
0100
0000
,
0010
0001
0100
0000
1000
0000
0001
0000
,
0100
1000
0010
0000
1000
0100
0001
0000
,
1000
0000
0001
1000
0000
0100
0001
0000
0100
0010
0000
0001
,
1000
0010
0001
0010
0100
0000
0010
0000
,
0100
0001
1000
0010
0001
0000
0100
0000
,
0010
1000
0100
1000
0001
0000
0010
0000
,
0100
0001
1000
0010
0001
0010
1000
0100
,
0010
1001
0000
0000
;

//--------------- dance-single - ----------------
#NOTES:
     dance-single:
     :
     Hard:
     16:
     0,0,0,0,0:
0000
0000
0000
0000
,
0000
0000
0000
0000
,
0000
0000
0000
0000
,
0001
0010
0100
1000
0001
0010
0101
0000
,
1000
0001
0010
0100
0010
0100
1001
0000
,
0001
0010
0100
1000
0001
0010
0101
0000
,
1000
0010
1100
0000
0001
0010
0101
0000
,
1000
0001
0010
0100
1000
0001
1010
0000
,
0100
1000
0001
0010
0100
1000
0011
0000
,
0010
0100
0001
0010
0100
1000
0001
0010
,
0100
0000
1000
0000
0100
0000
0010
0000
0001
0100
0001
0100
0001
0100
0001
0100
,
0001
1100
0101
1001
,
0010
0001
1000
0000
0101
0000
1001
0000
,
0101
0000
1010
0000
0100
1000
0010
0000
,
1001
0000
1000
0001
0100
0000
0110
0000
,
1100
0001
1000
0000
0101
0000
1001
0000
,
0010
0001
1000
0000
0101
0000
1010
0000
,
0100
0001
1000
0000
0010
1000
0100
0000
,
0010
1000
0100
0010
0001
1000
0010
0000
,
1001
0000
1000
0100
0010
0000
1000
0010
,
0001
1000
0010
0000
0101
0000
1001
0000
,
0100
0001
1000
0000
1010
0000
0100
0001
,
0010
0001
1000
0000
0101
0000
1010
0000
,
0100
0010
0100
1000
0100
0010
0001
1000
,
0010
0100
0010
0100
0010
1000
0100
1000
,
0100
1000
0001
0100
0010
0100
0001
1000
0100
0010
0001
0100
0001
1000
0100
0010
,
0100
1010
0202
0303
,
0001
1000
0010
1000
0010
0100
0001
1000
,
0010
0100
0010
0100
0010
1000
0100
0010
,
0001
0010
0001
0100
0010
0100
0001
1000
,
0010
1000
0010
1000
0100
0010
0001
0010
,
0001
0100
0010
0100
0001
1000
0010
0100
,
0001
0100
0010
0100
0010
1000
0010
1000
,
0001
0010
0100
0010
0001
1000
0010
1000
,
0010
0000
1000
0000
0001
0000
0010
0000
0001
0000
1000
0000
0001
0100
0001
0100
,
0010
1000
0001
0100
0010
1000
0100
1000
,
0100
1000
0001
0010
0001
0010
0001
0100
,
0010
0100
0001
0010
0100
1000
0100
0010
,
0001
0100
0001
0100
0001
0100
0001
0100
0001
0100
0001
0100
,
0001
0010
0100
0010
0001
1000
0010
0100
,
0001
0010
0001
1000
0010
0100
0010
0100
,
0010
0000
1000
0000
0001
0000
1000
0000
0010
0000
1000
0000
0010
0100
0010
0100
,
0010
0010
1010
0200
,
0310
1000
0001
1000
0010
1000
0010
0100
,
0010
0100
0001
1000
0101
0000
0100
0000
,
0100
1000
0010
0100
0001
0010
0001
1000
,
0001
0000
1000
0000
0010
0000
0100
0000
0010
1000
0100
0000
0001
0000
1000
0001
,
0100
1000
0100
0010
0100
0010
0001
1000
,
0100
0000
1000
0000
0100
0000
1000
0000
1001
0000
0000
0000
0001
0010
0100
1000
,
0010
1000
0100
1000
0100
1000
0001
0100
,
0001
0000
0010
0000
0001
0000
1000
0000
0100
0001
0010
1000
0100
0001
1000
0010
,
0100
0000
0000
0000
0001
0000
0000
0000
0100
0000
0100
0000
0001
0000
0000
0000
0100
0000
0000
0000
0001
0000
0000
0100
0100
0000
0100
0000
0001
0000
0001
0000
,
0100
0000
0000
0000
0001
0000
0000
0000
0100
0000
0100
0000
0001
0000
0000
0000
0100
0000
0000
0000
0001
0000
0000
0100
0100
0000
0100
0000
0001
0000
0001
0001
,
0100
0000
0001
0000
0100
0000
0001
0001
0100
0000
0100
0000
0100
0100
0001
0000
,
0100
0000
0100
0000
0100
0000
0000
0000
0001
0000
0000
0000
0001
0000
0001
0000
0100
0100
0100
0001
0100
0000
0100
0000
0001
0000
0100
0000
0001
0000
0000
0000
,
0100
0100
0100
0000
0001
0000
0100
0000
0001
0000
0001
0000
0001
0000
0001
0000
,
0001
0000
0100
0001
0100
0000
0100
0000
0001
0001
0100
0001
0001
0000
0001
0000
,
0100
0001
0100
0001
0100
0001
0100
0001
0100
0001
0100
0001
0100
0001
0100
0001
,
0200
0000
0301
0000
1000
0001
1001
0000
,
0001
0000
1000
0010
0000
1000
0100
0000
0100
0010
0000
0001
0010
0000
0100
0000
,
1000
0000
0001
0100
0000
0001
0020
0000
1000
0000
0100
0000
0130
0000
1000
0000
,
0001
0000
0100
0001
0000
0010
0001
0000
0001
1000
0000
0100
1000
0000
0010
0000
,
0100
0000
0001
0010
0000
0001
0200
0000
0010
0000
0010
0000
0310
0000
0001
0000
,
1000
0000
0010
1000
0000
0100
1000
0000
1000
0010
0000
0100
0010
0000
1000
0000
,
0001
0000
0010
0001
0000
0100
0020
0000
1000
0000
0100
0000
0130
0000
0001
0000
,
0010
0000
0100
1000
0000
0001
0100
0000
0100
0001
0000
1000
0010
0000
0100
0000
,
0001
0000
1000
0001
0000
0100
0010
0000
1000
0100
0001
0010
1000
0001
0100
1000
,
0010
0000
0100
0001
0000
0100
0010
0000
1000
0010
0000
0100
0010
0000
1000
0000
,
0100
0000
0100
0010
0000
0001
2000
0000
0010
0000
3010
0000
0100
0000
0001
0000
,
0101
0000
1000
0001
0000
0010
0100
0000
1000
0010
0000
0100
0001
0000
0010
0000
,
0001
0000
0001
1000
0000
0100
0020
0000
0001
0000
0031
0000
1000
0000
0001
0000
,
1001
0000
1000
0100
0000
0010
0100
0000
1000
0010
0000
0100
0001
0000
0010
0000
,
0010
0000
0100
1000
0000
0001
0200
0000
0010
0000
0310
0000
1000
0000
0001
0000
,
1001
0000
0010
0000
0100
1000
0100
0000
0010
0000
0001
0000
0100
0001
0100
0000
,
0010
0000
0010
1000
0000
1000
0100
0000
0010
0000
0001
0000
1000
0000
0001
0000
,
1000
0010
0100
0000
0010
0000
1000
0000
0001
0010
0100
0000
0010
0000
0001
0000
,
1000
0001
0010
0000
0001
1000
0010
0000
1000
0010
0100
0001
0010
0100
1000
0001
,
0100
0010
0001
0000
,
0001
0010
0100
0010
0001
1000
0010
0100
,
0001
0010
0001
1000
0010
0100
0010
0100
,
0010
1000
0001
1000
0010
1000
0010
0100
,
0010
0000
0010
0000
0010
0000
0100
1000
,
0010
1000
0001
1000
0010
1000
0010
0100
,
0010
0100
0001
1000
0100
0001
0100
1000
,
0100
1000
0010
0100
0001
0010
0001
1000
,
0001
0000
0000
0000
0010
0000
0000
0000
0010
0000
0100
0000
0001
0010
1000
0001
,
0100
0000
1000
0001
0100
0000
0010
1000
0100
0000
0010
0000
0001
0010
1000
0000
,
0100
0001
1000
0000
0100
0000
1000
0000
0001
0000
0010
0000
0001
0010
0100
1000
,
0010
0000
1000
0000
0100
0000
1000
0010
0100
0000
1000
0000
0001
0000
0100
0000
,
1000
0010
0001
1000
0100
0010
0001
0010
0001
1000
0001
0100
,
0010
0000
1000
0000
0001
0100
1000
0000
0010
0000
1000
0000
0100
1000
0010
0000
,
0001
0010
1000
0000
0100
0000
0010
0000
0001
0010
1000
0000
0100
0001
0010
0000
,
0100
0001
1000
0000
0010
0000
1000
0100
0001
0000
1000
0000
0010
0000
0001
1000
,
0100
0000
0010
0000
0100
0000
1000
0000
0001
0000
1000
0000
0100
0001
1000
0010
,
1000
2002
0000
0000
,
0000
0000
0000
0000
,
0000
0000
0000
0000
,
3003
0000
0000
0000
;
